<?xml version="1.0" standalone="no"?>
<!DOCTYPE svg PUBLIC "-//W3C//DTD SVG 1.1//EN" "http://www.w3.org/Graphics/SVG/1.1/DTD/svg11.dtd" >
<svg xmlns="http://www.w3.org/2000/svg" xmlns:xlink="http://www.w3.org/1999/xlink" version="1.1">
<metadata>
Created by FontForge 20201107 at Wed Sep 21 01:07:17 2005
 By 
Copyright (c) BPG-InfoTech, 2005. All rights reserved.
</metadata>
<defs>
<font id="BPGRioniArial" horiz-adv-x="600" >
  <font-face 
    font-family="BPG Rioni Arial"
    font-weight="400"
    font-stretch="normal"
    units-per-em="800"
    panose-1="2 11 6 4 2 2 2 2 2 4"
    ascent="640"
    descent="-160"
    x-height="415"
    cap-height="572"
    bbox="-532 -260 1600 804"
    underline-thickness="59"
    underline-position="-113"
    unicode-range="U+0020-FFFC"
  />
<missing-glyph 
d="M100 0h400v500h-400v-500zM113 12v475h374v-475h-374z" />
    <glyph glyph-name="afii62881" unicode="&#x651;&#x64b;" horiz-adv-x="169" 
d="M161 734l-117 -48q-16 -16 -16 -33q95 38 113 47q20 17 20 34zM161 676l-117 -49q-16 -16 -16 -33l113 46q2 2 8 6.5t7 6.5t3 8t2 15zM169 577q0 18 -5 33l-8 -2q0 -19 -7 -34q-7 -19 -23 -19q-10 0 -16 12q0 1 -4 23l-9 -2q-6 -29 -12 -40q-9 -21 -26 -21q-15 0 -15 22
q0 4 1 12t1 10l-8 -3q-7 -16 -8 -21q-2 -16 -2 -22q0 -41 32 -41q14 0 26 13q9 9 15 20q16 -9 27 -9q20 0 31 21q10 19 10 48z" />
    <glyph glyph-name="afii62882" unicode="&#x651;&#x64c;" horiz-adv-x="180" arabic-form="isolated" 
d="M179 708q1 22 -5 30t-19 9q-21 -2 -38 -23q-14 -17 -14 -35q0 -11 6 -21q8 -8 17 -16q-26 -18 -52 -26q6 26 6 33q0 18 -8 30t-20 12q-18 0 -26 -21q-6 -15 -7 -39l10 17q7 10 15 10q16 0 16 -24q0 -12 -8 -26l-15 -23q33 0 63 14q22 10 40 33l33 -27q3 15 3 34
q0 7 -12 19q13 20 15 40zM169 577q0 18 -5 33l-8 -2q0 -19 -7 -34q-7 -19 -23 -19q-10 0 -16 12q-3 8 -4 23l-9 -2q-6 -29 -12 -40q-9 -21 -26 -21q-15 0 -15 22q0 4 1 12t1 10l-8 -3q-10 -24 -10 -43q0 -41 32 -41q14 0 26 13q9 9 15 20q14 -9 27 -9q20 0 31 21
q10 19 10 48zM153 698q0 -7 -5 -15q-13 12 -14 13q-7 7 -7 14q0 12 13 12q4 0 8.5 -7.5t4.5 -16.5z" />
    <glyph glyph-name="afii62883" unicode="&#x651;&#x64d;" horiz-adv-x="169" arabic-form="isolated" 
d="M169 691q0 13 -5 33l-8 -3q0 -19 -7 -34q-7 -19 -23 -19q-10 0 -16 13q-1 1 -4 23l-9 -3q-6 -29 -12 -39q-9 -21 -26 -21q-15 0 -15 21q0 4 1 12t1 10l-8 -3q-7 -16 -8 -21q-2 -14 -2 -21q0 -41 32 -41q14 0 26 12q8 8 15 21q13 -10 27 -10q20 0 31 21q10 17 10 49z
M164 613l-118 -47q-17 -17 -17 -34q67 26 114 47q21 17 21 34zM164 565q-91 -37 -118 -49q-17 -17 -17 -32l114 46q21 18 21 35z" />
    <glyph glyph-name="afii62884" unicode="&#x651;&#x64e;" horiz-adv-x="169" arabic-form="isolated" 
d="M164 672l-117 -48q-18 -16 -18 -33l114 45q21 18 21 36zM169 577q0 18 -5 33l-8 -2q0 -19 -7 -34q-7 -19 -23 -19q-10 0 -16 12q-3 8 -4 23l-9 -2q-6 -29 -12 -40q-9 -21 -26 -21q-15 0 -15 22q0 4 1 12t1 10l-8 -3q-7 -16 -8 -21q-2 -16 -2 -22q0 -41 32 -41q14 0 26 13
q9 9 15 20q16 -9 27 -9q20 0 31 21q10 19 10 48z" />
    <glyph glyph-name="afii62885" unicode="&#x651;&#x64f;" horiz-adv-x="169" arabic-form="isolated" 
d="M169 620q0 20 -4 27q-2 6 -15 10q5 9 9 17q5 10 5 17q0 11 -9.5 19t-21.5 8q-17 0 -31 -16.5t-14 -33.5q0 -10 7 -18q3 -4 13 -14q-25 -15 -41 -23q-12 -5 -42 -18q11 -7 22 -7q21 0 45 15q7 4 32 25q12 -4 16 -6q22 -2 29 -2zM169 578q0 18 -5 33l-8 -2q0 -19 -7 -34
q-7 -19 -23 -19q-10 0 -16 12q-1 3 -4 23l-9 -3q-6 -28 -12 -39q-9 -21 -26 -21q-15 0 -15 22q0 4 1 12t1 10l-8 -3q-7 -16 -8 -21q-2 -16 -2 -22q0 -42 32 -42q14 0 26 13q8 7 15 21q13 -10 27 -10q20 0 31 21q10 19 10 49zM138 678q0 -6 -5 -11q-21 11 -21 26q0 9 5 9
q9 0 15 -7.5t6 -16.5z" />
    <glyph glyph-name="afii62886" unicode="&#x651;&#x650;" horiz-adv-x="169" arabic-form="isolated" 
d="M169 649q0 16 -5 34l-8 -3q0 -18 -7 -33q-7 -19 -23 -19q-10 0 -16 11q-3 8 -4 24l-9 -3q-6 -28 -12 -39q-9 -21 -26 -21q-15 0 -15 21q0 4 1 12.5t1 10.5l-8 -4q-7 -16 -8 -20q-2 -16 -2 -22q0 -41 32 -41q14 0 26 13q9 9 15 20q16 -10 27 -10q20 0 31 21q10 19 10 48z
M164 565l-117 -49q-18 -16 -18 -32l114 45q21 18 21 36z" />
    <glyph glyph-name="afii64184" unicode="&#xfedf;&#xfee0;&#xfbab;" horiz-adv-x="493" arabic-form="isolated" 
d="M299 532q-3 24 -9 40q-6 9 -14 26q-8 14 -24 14q-14 0 -17 -16q21 -17 26 -23q19 -20 30 -44zM369 514q0 5 -2 15l-10 -2q-1 -15 -8 -26q-7 -16 -17 -16q-16 0 -21 8l-6 18l-9 -2q-3 -17 -12 -33t-17 -16q-24 0 -24 32l-12 -4q-3 -15 -3 -29q0 -39 32 -39q13 0 25 12
q11 10 15 21q15 -9 32 -9q16 0 26.5 20.5t10.5 49.5zM483 185q0 17 -11 75q-1 5 -20 96q-14 61 -14 64q-10 -13 -18 -29q-10 -16 -10 -30q0 -5 3 -21q0 -4 3 -21l23 -107q-5 -32 -27 -32q-25 0 -40 17q-13 14 -19 44l-14 67q-19 93 -22 112q-16 -23 -20 -29q-9 -17 -9 -30
q0 -6 3 -21q0 -1 1.5 -8.5l2.5 -12.5l23 -107q-14 -22 -23.5 -27t-29.5 -5q-46 0 -53 40l-17 89q-7 39 -11 64q-15 -18 -20 -28q-8 -18 -8 -29q0 -4 1 -10t2.5 -13t1.5 -9q-63 -31 -109 -72q-44 -41 -44 -74q0 -23 95 -23q45 0 81 53q8 -23 31.5 -38t50.5 -15q25 0 43 9
q21 10 38 38q17 -24 41 -34q29 -13 77 -13l4 9q8 15 12 34q2 18 2 27zM175 196q-20 -25 -43 -25q-31 0 -50 8q14 22 34 35q14 10 52 25z" />
    <glyph glyph-name="afii62834" unicode="&#xfedf;&#xfe82;" horiz-adv-x="436" arabic-form="isolated" 
d="M405 527q-30 14 -46 23q-18 11 -19 27l-8 3q-18 -36 -18 -86l22 -12q0 -70 -8 -120q-11 -55 -36 -107q-18 37 -36 66l-40 64q-29 47 -58 85q-33 45 -60 72q-30 30 -46 30q-11 0 -16 -20q-4 -12 -4 -38t25 -59q13 -18 34 -37q17 -17 26 -17q5 0 11 3q12 6 17 6q7 0 19 -14
q5 -5 23 -27q22 -33 46 -73l40 -73q-48 -58 -112 -92q-9 -30 -10 -55v-13q91 0 180 21q4 23 4 48t-9 49q-3 8 -20 44q32 53 45 107q13 46 13 101v35l23 -11zM304 148q0 -14 -33 -19q-19 -3 -66 -3q52 32 81 70q18 -35 18 -48zM184 646l-5 6q-21 -9 -41 -9q-12 0 -32 6
q-39 12 -43 12q-14 0 -24 -8q-2 -1 -14 -17l4 -5q11 5 20 5q4 0 42 -13q18 -5 36 -5q19 0 35 9q14 10 22 19z" />
    <glyph glyph-name="afii62835" unicode="&#xfee0;&#xfe82;" horiz-adv-x="481" arabic-form="final" 
d="M319 319q0 61 -56 126q-46 54 -112 92q-61 35 -88 35q-16 0 -16 -24q0 -33 23 -64q15 -22 46 -40q22 -15 32 -15q6 0 14 10.5t12 10.5q28 0 75 -57q41 -49 65 -101q5 14 5 27zM481 115v67h-24q-10 0 -19 14q-14 23 -21 71q-1 12 -5.5 46t-7.5 56q-6 51 -12 96
q-8 58 -20 122l-14 -32l-13 -33q19 -74 19 -140q0 -79 -52 -137q-43 -49 -126 -85q-54 -23 -157 -54v-12q131 0 183 13q63 15 98 60q31 40 68 143q0 -1 1 -13t1 -17q0 -86 24 -130q20 -35 53 -35h24zM188 646l-6 6q-20 -9 -41 -9q-13 0 -32 6q-39 12 -42 12q-14 0 -24 -8
q-4 -2 -15 -17l5 -5q10 5 19 5q5 0 41 -13q20 -5 38 -5q17 0 34 9q14 9 23 19z" />
    <glyph glyph-name="afii62836" unicode="&#xfedf;&#xfe84;" horiz-adv-x="436" arabic-form="isolated" 
d="M405 527q-30 14 -46 23q-18 11 -19 27l-8 3q-18 -36 -18 -86l22 -12q0 -70 -8 -120q-11 -55 -36 -107q-18 37 -36 66l-40 64q-29 47 -58 85q-33 45 -60 72q-30 30 -46 30q-11 0 -16 -20q-4 -12 -4 -38t25 -59q13 -18 34 -37q17 -17 26 -17q5 0 11 3q12 6 17 6q7 0 19 -14
q5 -5 23 -27q22 -33 46 -73l40 -73q-48 -58 -112 -92q-9 -30 -10 -55v-13q91 0 180 21q4 23 4 48t-9 49q-3 8 -20 44q32 53 45 107q13 46 13 101v35l23 -11zM304 148q0 -14 -33 -19q-19 -3 -66 -3q52 32 81 70q18 -35 18 -48zM124 640q-18 -6 -27 -6q-13 0 -32 10
q-18 10 -18 16q0 12 26 12q13 0 26 -11q9 16 9 23q0 20 -19 20t-41 -24q-20 -23 -20 -35q0 -7 8 -15q6 -6 18 -12q-39 -14 -39 -31l72 25q15 4 25 10q12 8 12 18z" />
    <glyph glyph-name="afii62837" unicode="&#xfee0;&#xfe84;" horiz-adv-x="481" arabic-form="final" 
d="M319 319q0 61 -56 126q-46 54 -112 92q-61 35 -88 35q-16 0 -16 -24q0 -33 23 -64q15 -22 46 -40q22 -15 32 -15q6 0 14 10.5t12 10.5q28 0 75 -57q41 -49 65 -101q5 14 5 27zM481 115v67h-24q-10 0 -19 14q-14 23 -21 71q-1 12 -5.5 46t-7.5 56q-6 51 -12 96
q-8 58 -20 122l-14 -32l-13 -33q19 -74 19 -140q0 -79 -52 -137q-43 -49 -126 -85q-54 -23 -157 -54v-12q131 0 183 13q63 15 98 60q31 40 68 143q0 -1 1 -13t1 -17q0 -86 24 -130q20 -35 53 -35h24zM132 640q-19 -6 -28 -6q-14 0 -31 10q-18 10 -18 16q0 12 25 12
q13 0 27 -11q9 20 9 23q0 9 -6 14.5t-14 5.5q-18 0 -41 -24q-20 -23 -20 -35q0 -7 8 -15q6 -6 18 -12q-39 -14 -39 -31l73 25q13 4 24 10q13 7 13 18z" />
    <glyph glyph-name="afii62838" unicode="&#xfedf;&#xfe88;" horiz-adv-x="436" arabic-form="isolated" 
d="M405 527q-30 14 -46 23q-18 11 -19 27l-8 3q-18 -36 -18 -86l22 -12q0 -70 -8 -120q-11 -55 -36 -107q-18 37 -36 66l-40 64q-29 47 -58 85q-33 45 -60 72q-30 30 -46 30q-11 0 -16 -20q-4 -12 -4 -38t25 -59q13 -18 34 -37q17 -17 26 -17q5 0 11 3q12 6 17 6q7 0 19 -14
q5 -5 23 -27q22 -33 46 -73l40 -73q-48 -58 -112 -92q-9 -30 -10 -55v-13q91 0 180 21q4 23 4 48t-9 49q-3 8 -20 44q32 53 45 107q13 46 13 101v35l23 -11zM304 148q0 -14 -33 -19q-19 -3 -66 -3q52 32 81 70q18 -35 18 -48zM244 -36q-16 -5 -28 -5t-32 11q-18 10 -18 15
q0 11 26 11q15 0 26 -10q9 16 9 24q0 19 -19 19t-41 -25q-20 -22 -20 -33q0 -8 8 -16q6 -6 18 -12q-39 -13 -39 -32l72 25q18 7 25 12q13 7 13 16z" />
    <glyph glyph-name="afii62839" unicode="&#xfee0;&#xfe88;" horiz-adv-x="481" arabic-form="final" 
d="M319 319q0 61 -56 126q-46 54 -112 92q-61 35 -88 35q-16 0 -16 -24q0 -33 23 -64q15 -22 46 -40q22 -15 32 -15q6 0 14 10.5t12 10.5q28 0 75 -57q41 -49 65 -101q5 14 5 27zM481 115v67h-24q-10 0 -19 14q-14 23 -21 71q-1 12 -5.5 46t-7.5 56q-6 51 -12 96
q-8 58 -20 122l-14 -32l-13 -33q19 -74 19 -140q0 -79 -52 -137q-43 -49 -126 -85q-54 -23 -157 -54v-12q131 0 183 13q63 15 98 60q31 40 68 143q0 -1 1 -13t1 -17q0 -86 24 -130q20 -35 53 -35h24zM185 -36q-16 -5 -28 -5t-31 11q-18 10 -18 15q0 11 25 11q16 0 26 -10
q9 12 9 24q0 19 -19 19q-17 0 -41 -25q-20 -22 -20 -33q0 -8 8 -16q6 -6 19 -12q-39 -13 -39 -32l72 25q16 6 24 12q13 7 13 16z" />
    <glyph glyph-name="afii62840" unicode="&#xfedf;&#xfe8e;" horiz-adv-x="436" arabic-form="isolated" 
d="M405 527q-30 14 -46 23q-18 11 -19 27l-8 3q-18 -36 -18 -86l22 -12q0 -70 -8 -120q-11 -55 -36 -107q-18 37 -36 66l-40 64q-29 47 -58 85q-33 45 -60 72q-30 30 -46 30q-11 0 -16 -20q-4 -12 -4 -38t25 -59q13 -18 34 -37q17 -17 26 -17q5 0 11 3q12 6 17 6q7 0 19 -14
q5 -5 23 -27q22 -33 46 -73l40 -73q-48 -58 -112 -92q-9 -30 -10 -55v-13q91 0 180 21q4 23 4 48t-9 49q-3 8 -20 44q32 53 45 107q13 46 13 101v35l23 -11zM304 148q0 -14 -33 -19q-19 -3 -66 -3q52 32 81 70q18 -35 18 -48z" />
    <glyph glyph-name="afii62841" unicode="&#xfee0;&#xfe8e;" horiz-adv-x="481" arabic-form="final" 
d="M319 319q0 61 -56 126q-46 54 -112 92q-61 35 -88 35q-16 0 -16 -24q0 -33 23 -64q15 -22 46 -40q22 -15 32 -15q6 0 14 10.5t12 10.5q28 0 75 -57q41 -49 65 -101q5 14 5 27zM481 115v67h-24q-10 0 -19 14q-14 23 -21 71q-1 12 -5.5 46t-7.5 56q-6 51 -12 96
q-8 58 -20 122l-14 -32l-13 -33q19 -74 19 -140q0 -79 -52 -137q-43 -49 -126 -85q-54 -23 -157 -54v-12q131 0 183 13q63 15 98 60q31 40 68 143q0 -1 1 -13t1 -17q0 -86 24 -130q20 -35 53 -35h24z" />
    <glyph glyph-name="glyph1672" unicode="&#xfedf;&#xfb51;" horiz-adv-x="436" 
d="M405 527q-30 14 -46 23q-18 11 -19 27l-8 3q-18 -36 -18 -86l22 -12q0 -70 -8 -120q-11 -55 -36 -107q-18 37 -36 66l-40 64q-29 47 -58 85q-33 45 -60 72q-30 30 -46 30q-11 0 -16 -20q-4 -12 -4 -38t25 -59q13 -18 34 -37q17 -17 26 -17q5 0 11 3q12 6 17 6q7 0 19 -14
q5 -5 23 -27q22 -33 46 -73l40 -73q-48 -58 -112 -92q-9 -30 -10 -55v-13q91 0 180 21q4 23 4 48t-9 49q-3 8 -20 44q32 53 45 107q13 46 13 101v35l23 -11zM304 148q0 -14 -33 -19q-19 -3 -66 -3q52 32 81 70q18 -35 18 -48zM168 674q0 39 -32 39q-44 0 -91 -62h-9
q-30 0 -30 -26q0 -21 19 -39v7q-1 3 -1 7q0 17 12 17h65q29 0 48 19q19 16 19 38zM133 674q0 -23 -35 -23h-32q35 38 55 38q12 0 12 -15z" />
    <glyph glyph-name="glyph1673" unicode="&#xfee0;&#xfb51;" horiz-adv-x="481" 
d="M319 319q0 61 -56 126q-46 54 -112 92q-61 35 -88 35q-16 0 -16 -24q0 -33 23 -64q15 -22 46 -40q22 -15 32 -15q6 0 14 10.5t12 10.5q28 0 75 -57q41 -49 65 -101q5 14 5 27zM481 115v67h-24q-10 0 -19 14q-14 23 -21 71q-1 12 -5.5 46t-7.5 56q-6 51 -12 96
q-8 58 -20 122l-14 -32l-13 -33q19 -74 19 -140q0 -79 -52 -137q-43 -49 -126 -85q-54 -23 -157 -54v-12q131 0 183 13q63 15 98 60q31 40 68 143q0 -1 1 -13t1 -17q0 -86 24 -130q20 -35 53 -35h24zM168 674q0 39 -32 39q-44 0 -91 -62h-9q-30 0 -30 -26q0 -21 19 -39v7
q-1 3 -1 7q0 17 12 17h65q29 0 48 19q19 16 19 38zM133 674q0 -23 -35 -23h-32q35 38 55 38q12 0 12 -15z" />
    <glyph glyph-name="afii52400" unicode="&#x622;" horiz-adv-x="165" arabic-form="isolated" 
d="M164 646l-5 6q-19 -9 -41 -9q-12 0 -32 6q-39 12 -42 12q-16 0 -24 -8q-4 -2 -15 -17l5 -5q10 5 19 5q4 0 42 -13q18 -5 37 -5q17 0 34 9q12 7 22 19zM132 214q0 44 -7 117q-8 78 -16 139q-9 81 -15 122q-32 -63 -36 -75q8 -69 11 -97q23 -205 23 -266q0 -26 -4 -46l7 -4
q22 39 26 50q11 30 11 60z" />
    <glyph glyph-name="afii57411" unicode="&#x623;" horiz-adv-x="165" arabic-form="isolated" 
d="M143 640q-18 -6 -27 -6q-15 0 -32 10q-18 10 -18 16q0 12 26 12q14 0 25 -11q9 12 9 23q0 20 -18 20q-19 0 -41 -24q-21 -22 -21 -35q0 -7 8 -15q6 -6 19 -12q-39 -14 -39 -31l73 25q13 4 24 10q12 8 12 18zM132 214q0 44 -7 117q-8 78 -16 139q-9 81 -15 122
q-32 -63 -36 -75q8 -69 11 -97q23 -205 23 -266q0 -26 -4 -46l7 -4q22 39 26 50q11 30 11 60z" />
    <glyph glyph-name="afii57412" unicode="&#x624;" horiz-adv-x="346" arabic-form="isolated" 
d="M346 138v44q0 54 -12 86q-15 40 -49 40t-56 -40q-18 -35 -18 -74q0 -45 30 -63q26 -17 78 -17q-28 -40 -47 -60q-34 -38 -67 -56q-42 -24 -89 -24q-12 0 -27.5 3t-34 7t-28.5 6l-6 -13l50 -18q34 -11 53 -14q25 -6 52 -6q70 0 123 71q48 65 48 128zM321 180q-73 0 -73 40
q0 10 8 17.5t19 7.5q15 0 25 -13q13 -13 21 -52zM252 380q-14 -6 -28 -6q-12 0 -31 10q-18 10 -18 16q0 12 25 12q13 0 27 -11q9 16 9 24q0 19 -20 19q-18 0 -40 -24q-21 -22 -21 -34q0 -8 9 -15q5 -6 17 -13q-39 -14 -39 -32l73 26q17 5 25 11q12 7 12 17z" />
    <glyph glyph-name="afii57413" unicode="&#x625;" horiz-adv-x="165" arabic-form="isolated" 
d="M127 -21q-15 -7 -27 -7q-13 0 -32 11q-18 11 -18 16q0 12 26 12q14 0 25 -11q9 10 9 23q0 20 -18 20t-41 -24q-21 -22 -21 -35q0 -7 8 -15q6 -5 19 -13q-39 -14 -39 -31l73 25q14 5 24 11q12 7 12 18zM132 214q0 44 -7 117q-8 78 -16 139q-9 81 -15 122q-32 -63 -36 -75
q8 -69 11 -97q23 -205 23 -266q0 -26 -4 -46l7 -4q22 39 26 50q11 30 11 60z" />
    <glyph glyph-name="afii57414" unicode="&#x626;" horiz-adv-x="510" arabic-form="isolated" 
d="M484 313q0 26 -14.5 41.5t-40.5 15.5q-40 0 -80 -40q-33 -33 -57 -82q-21 -44 -21 -70q0 -20 12.5 -32t30.5 -12h91q21 0 21 -12q0 -11 -43 -33q-39 -20 -96 -38q-60 -19 -108 -19q-127 0 -127 95q0 63 50 149l-17 8l-24 -48q-16 -33 -28 -71q-13 -42 -13 -84
q0 -61 40 -89q36 -27 105 -27q134 0 213 47q86 51 86 149q0 26 -19 29t-33 3q-9 1 -41 1h-31q-38 0 -38 15q0 20 35 58q37 40 71 40q43 0 71 -39q5 40 5 45zM141 380q-13 -6 -27 -6q-13 0 -31 10t-18 16q0 12 25 12q13 0 26 -11q9 16 9 24q0 19 -19 19q-18 0 -41 -24
q-21 -22 -21 -34q0 -7 8 -15q7 -7 19 -13q-39 -14 -39 -32l73 26q16 4 24 11q12 7 12 17z" />
    <glyph glyph-name="afii57415" unicode="&#x627;" horiz-adv-x="165" arabic-form="isolated" 
d="M132 214q0 44 -7 117q-8 78 -16 139q-9 81 -15 122q-32 -63 -36 -75q8 -69 11 -97q23 -205 23 -266q0 -26 -4 -46l7 -4q22 39 26 50q11 30 11 60z" />
    <glyph glyph-name="afii57416" unicode="&#x628;" horiz-adv-x="571" arabic-form="isolated" 
d="M571 115v105q0 84 -27 128q-1 1 -4 5t-7 10t-9 12l-31 -64q47 -34 47 -118v-11h-331q-66 0 -109 23q-49 25 -49 71q0 22 11 50q5 12 17 36l-11 8q-23 -39 -29 -53q-17 -39 -17 -73q0 -71 56 -104q44 -25 120 -25h373zM347 20l-65 32l-29 -56l63 -33z" />
    <glyph glyph-name="afii57417" unicode="&#x629;" horiz-adv-x="226" arabic-form="isolated" 
d="M183 479l-65 34l-29 -56l63 -34zM93 444l-64 33l-29 -57l63 -32zM217 229q0 37 -46 68q-11 7 -85 47l-24 -66l6 -2l-25 -61q-14 -36 -14 -63q0 -24 22 -36q18 -12 47 -12q74 0 101 43q18 27 18 82zM183 199q0 -9 -26 -23q-25 -12 -48 -12q-18 0 -29.5 11.5t-11.5 30.5
q0 14 12 30q1 1 3.5 4l7.5 9t9 11q20 -9 40 -21q43 -25 43 -40z" />
    <glyph glyph-name="afii57418" unicode="&#x62a;" horiz-adv-x="571" arabic-form="isolated" 
d="M387 469l-64 33l-30 -56l63 -33zM297 434l-64 33l-29 -57l64 -32zM571 115v105q0 84 -27 128q-1 1 -4 5t-7 10t-9 12l-31 -64q47 -34 47 -118v-11h-331q-66 0 -109 23q-49 25 -49 71q0 22 11 50q5 12 17 36l-11 8q-23 -39 -29 -53q-17 -39 -17 -73q0 -71 56 -104
q44 -25 120 -25h373z" />
    <glyph glyph-name="afii57419" unicode="&#x62b;" horiz-adv-x="571" arabic-form="isolated" 
d="M310 539l-64 33l-28 -56l62 -34zM387 469l-64 33l-30 -56l63 -33zM297 434l-64 33l-29 -57l64 -32zM571 115v105q0 84 -27 128q-1 1 -4 5t-7 10t-9 12l-31 -64q47 -34 47 -118v-11h-331q-66 0 -109 23q-49 25 -49 71q0 22 11 50q5 12 17 36l-11 8q-23 -39 -29 -53
q-17 -39 -17 -73q0 -71 56 -104q44 -25 120 -25h373z" />
    <glyph glyph-name="afii57420" unicode="&#x62c;" horiz-adv-x="451" arabic-form="isolated" 
d="M302 103l-64 32l-30 -56l61 -35zM189 272q-52 -33 -69 -47q-45 -37 -68 -76q-31 -52 -31 -118q0 -77 39 -124q34 -42 101 -61q54 -16 140 -16h23l88 62l-2 5h-71q-127 0 -204 36q-88 43 -88 127q0 64 60 112q49 40 134 65q63 19 140 32l15 66q-7 0 -32.5 -2.5t-33.5 -2.5
q-22 0 -64 5q-83 11 -106 11q-69 0 -99 -30q-13 -12 -29 -56q36 7 56 9q35 5 56 5q6 0 23 -1t22 -1z" />
    <glyph glyph-name="afii57421" unicode="&#x62d;" horiz-adv-x="451" arabic-form="isolated" 
d="M189 272q-52 -33 -69 -47q-45 -37 -68 -76q-31 -52 -31 -118q0 -77 39 -124q34 -42 101 -61q54 -16 140 -16h23l88 62l-2 5h-71q-127 0 -204 36q-88 43 -88 127q0 64 60 112q49 40 134 65q63 19 140 32l15 66q-7 0 -32.5 -2.5t-33.5 -2.5q-22 0 -64 5q-83 11 -106 11
q-69 0 -99 -30q-13 -12 -29 -56q36 7 56 9q35 5 56 5q6 0 23 -1t22 -1z" />
    <glyph glyph-name="afii57422" unicode="&#x62e;" horiz-adv-x="451" arabic-form="isolated" 
d="M264 478l-64 33l-29 -57l63 -33zM189 272q-52 -33 -69 -47q-45 -37 -68 -76q-31 -52 -31 -118q0 -77 39 -124q34 -42 101 -61q54 -16 140 -16h23l88 62l-2 5h-71q-127 0 -204 36q-88 43 -88 127q0 64 60 112q49 40 134 65q63 19 140 32l15 66q-7 0 -32.5 -2.5t-33.5 -2.5
q-22 0 -64 5q-83 11 -106 11q-69 0 -99 -30q-13 -12 -29 -56q36 7 56 9q35 5 56 5q6 0 23 -1t22 -1z" />
    <glyph glyph-name="afii57423" unicode="&#x62f;" horiz-adv-x="270" arabic-form="isolated" 
d="M270 115v67q0 93 -23 153q-26 72 -95 107l-6 -77q56 -16 81 -70q19 -42 19 -113h-151q-17 0 -26 6q-12 8 -16 24h-9q-7 -29 -7 -54q0 -18 18 -30.5t40 -12.5h175z" />
    <glyph glyph-name="afii57424" unicode="&#x630;" horiz-adv-x="270" arabic-form="isolated" 
d="M166 574l-65 33l-28 -56l62 -34zM270 115v67q0 93 -23 153q-26 72 -95 107l-6 -77q56 -16 81 -70q19 -42 19 -113h-151q-17 0 -26 6q-12 8 -16 24h-9q-7 -29 -7 -54q0 -18 18 -30.5t40 -12.5h175z" />
    <glyph glyph-name="afii57425" unicode="&#x631;" horiz-adv-x="391" arabic-form="isolated" 
d="M391 115v95q0 40 -17 74q-16 30 -48 60l-22 -61q28 -31 41 -57q18 -35 18 -65q0 -35 -35 -81q-35 -44 -84 -74q-55 -32 -104 -32q-29 0 -104 16l-7 -16q6 -2 25.5 -9t29.5 -11q32 -12 58 -19q34 -8 58 -8q28 0 75 29q47 28 80 70q36 45 36 89z" />
    <glyph glyph-name="afii57426" unicode="&#x632;" horiz-adv-x="391" arabic-form="isolated" 
d="M332 478l-64 33l-29 -57l63 -33zM391 115v95q0 40 -17 74q-16 30 -48 60l-22 -61q28 -31 41 -57q18 -35 18 -65q0 -35 -35 -81q-35 -44 -84 -74q-55 -32 -104 -32q-29 0 -104 16l-7 -16q6 -2 25.5 -9t29.5 -11q32 -12 58 -19q34 -8 58 -8q28 0 75 29q47 28 80 70
q36 45 36 89z" />
    <glyph glyph-name="afii57427" unicode="&#x633;" horiz-adv-x="657" arabic-form="isolated" 
d="M657 115v93q0 46 -9 72q-6 15 -22 41l-26 -43q15 -16 24 -33q12 -22 12 -41q0 -20 -19 -20q-29 0 -45 19q-15 16 -24 55l-6 37l-15 -23q5 -24 5 -48q0 -20 -13 -30q-17 -12 -53 -12h-48q0 62 -10 95q-8 25 -27 57l-32 -80q22 -26 32 -53q15 -36 15 -75q0 -59 -73 -90
q-61 -26 -135 -26q-64 0 -98.5 25t-34.5 73q0 54 45 149l-16 7q-22 -46 -29 -65q-31 -77 -31 -138t45 -91q41 -28 120 -28q87 0 143 32q46 25 69 70q17 36 17 71h48q36 0 53 7q13 4 29 19q34 -26 78 -26h31z" />
    <glyph glyph-name="afii57428" unicode="&#x634;" horiz-adv-x="657" arabic-form="isolated" 
d="M549 539l-64 33l-28 -56l62 -34zM626 469l-64 33l-30 -56l64 -33zM536 434l-64 33l-28 -57l63 -32zM657 115v93q0 46 -9 72q-6 15 -22 41l-26 -43q15 -16 24 -33q12 -22 12 -41q0 -20 -19 -20q-29 0 -45 19q-15 16 -24 55l-6 37l-15 -23q5 -24 5 -48q0 -20 -13 -30
q-17 -12 -53 -12h-48q0 62 -10 95q-8 25 -27 57l-32 -80q22 -26 32 -53q15 -36 15 -75q0 -59 -73 -90q-61 -26 -135 -26q-64 0 -98.5 25t-34.5 73q0 54 45 149l-16 7q-22 -46 -29 -65q-31 -77 -31 -138t45 -91q41 -28 120 -28q87 0 143 32q46 25 69 70q17 36 17 71h48
q36 0 53 7q13 4 29 19q34 -26 78 -26h31z" />
    <glyph glyph-name="afii57429" unicode="&#x635;" horiz-adv-x="878" arabic-form="isolated" 
d="M878 115v98q0 51 -24 80q-25 31 -80 31q-36 0 -64 -9q-28 -10 -58 -30l-68 -47q-34 -26 -73 -41q-41 -15 -86 -15h-7q0 62 -10 95q-8 25 -27 57l-32 -80q22 -26 32 -53q15 -36 15 -75q0 -59 -73 -90q-61 -26 -135 -26q-64 0 -98.5 25t-34.5 73q0 54 45 149l-16 7
q-22 -46 -29 -65q-31 -77 -31 -138t45 -91q41 -28 120 -28q113 0 169 51q46 41 56 122h464zM815 212q0 -30 -82 -30h-180l57 30q40 21 62 29q34 12 63 12q34 0 57 -11t23 -30z" />
    <glyph glyph-name="afii57430" unicode="&#x636;" horiz-adv-x="878" arabic-form="isolated" 
d="M619 439l-64 33l-30 -57l63 -33zM878 115v98q0 51 -24 80q-25 31 -80 31q-36 0 -64 -9q-28 -10 -58 -30l-68 -47q-34 -26 -73 -41q-41 -15 -86 -15h-7q0 62 -10 95q-8 25 -27 57l-32 -80q22 -26 32 -53q15 -36 15 -75q0 -59 -73 -90q-61 -26 -135 -26q-64 0 -98.5 25
t-34.5 73q0 54 45 149l-16 7q-22 -46 -29 -65q-31 -77 -31 -138t45 -91q41 -28 120 -28q113 0 169 51q46 41 56 122h464zM815 212q0 -30 -82 -30h-180l57 30q40 21 62 29q34 12 63 12q34 0 57 -11t23 -30z" />
    <glyph glyph-name="afii57431" unicode="&#x637;" horiz-adv-x="465" arabic-form="isolated" 
d="M465 115v98q0 51 -23 80q-27 31 -79 31q-41 0 -100 -27q-23 -11 -87 -49q6 34 7 38q5 38 5 62q0 75 -31 175l5 -2q11 -4 15 -4q7 24 7 27q1 7 6 52q-26 1 -47 10q-22 10 -28 29q-18 -40 -23 -87l24 -13q7 -26 16 -63q12 -48 18 -86q8 -54 8 -93q0 -33 -16 -74
q-36 -22 -60 -29q-21 -7 -50 -7l-60 -1v-67h493zM404 212q0 -30 -93 -30h-170q24 15 53 30q39 20 65 29q38 12 65 12q80 0 80 -41z" />
    <glyph glyph-name="afii57432" unicode="&#x638;" horiz-adv-x="465" arabic-form="isolated" 
d="M359 478l-65 33l-28 -57l63 -33zM465 115v98q0 51 -23 80q-27 31 -79 31q-41 0 -100 -27q-23 -11 -87 -49q6 34 7 38q5 38 5 62q0 75 -31 175l5 -2q11 -4 15 -4q7 24 7 27q1 7 6 52q-26 1 -47 10q-22 10 -28 29q-18 -40 -23 -87l24 -13q7 -26 16 -63q12 -48 18 -86
q8 -54 8 -93q0 -33 -16 -74q-36 -22 -60 -29q-21 -7 -50 -7l-60 -1v-67h493zM404 212q0 -30 -93 -30h-170q24 15 53 30q39 20 65 29q38 12 65 12q80 0 80 -41z" />
    <glyph glyph-name="afii57433" unicode="&#x639;" horiz-adv-x="436" arabic-form="isolated" 
d="M412 -104v4q-48 -2 -73 -2q-86 0 -142 9q-69 11 -105 39q-41 32 -41 86t49 100q42 37 112 70q34 16 117 48l16 61q-46 -11 -86 -27q-33 -15 -76 -36q-50 8 -86 25q-45 21 -45 45q0 22 39 38q29 11 84 19q45 5 78 5q-30 24 -48 32q-28 16 -53 16q-56 0 -97 -47
q-35 -40 -35 -81q0 -46 32 -76q13 -12 52 -32q-7 -7 -15.5 -16t-14 -14.5t-8.5 -9.5q-20 -26 -35 -60q-15 -39 -15 -88q0 -79 53 -121q43 -36 119 -46q41 -7 126 -7z" />
    <glyph glyph-name="afii57434" unicode="&#x63a;" horiz-adv-x="436" arabic-form="isolated" 
d="M195 556l-62 33l-31 -57l61 -32zM412 -104v4q-48 -2 -73 -2q-86 0 -142 9q-69 11 -105 39q-41 32 -41 86t49 100q42 37 112 70q34 16 117 48l16 61q-46 -11 -86 -27q-33 -15 -76 -36q-50 8 -86 25q-45 21 -45 45q0 22 39 38q29 11 84 19q45 5 78 5q-30 24 -48 32
q-28 16 -53 16q-56 0 -97 -47q-35 -40 -35 -81q0 -46 32 -76q13 -12 52 -32q-7 -7 -15.5 -16t-14 -14.5t-8.5 -9.5q-20 -26 -35 -60q-15 -39 -15 -88q0 -79 53 -121q43 -36 119 -46q41 -7 126 -7z" />
    <glyph glyph-name="afii57441" unicode="&#x641;" horiz-adv-x="631" arabic-form="isolated" 
d="M553 511l-62 34l-33 -57l63 -35zM631 115v113q0 70 -15 108q-16 46 -55 46q-34 0 -61 -47q-24 -41 -24 -77q0 -28 24 -46q23 -17 68 -30h-288q-122 0 -179 25t-57 77q0 28 28 83l-15 9q-6 -12 -21 -47q-21 -47 -21 -81q0 -53 34 -84q31 -26 91 -40q49 -9 133 -9h358z
M590 233q-33 7 -45 15q-16 10 -16 28q0 31 27 31q18 0 27 -22q7 -17 7 -52z" />
    <glyph glyph-name="afii57442" unicode="&#x642;" horiz-adv-x="465" arabic-form="isolated" 
d="M420 513l-65 34l-29 -56l63 -34zM330 478l-64 33l-30 -57l64 -33zM465 94v77q0 71 -22 122q-27 63 -72 63q-36 0 -61 -46q-23 -41 -23 -84q0 -38 27 -56q20 -16 56 -16q27 0 59 15q7 -17 7 -46q0 -55 -72 -86q-63 -27 -146 -27q-78 0 -118 22q-42 24 -42 75q0 23 5 51
q4 20 15 49q4 10 20 49l-17 7q-25 -45 -39 -94q-14 -53 -14 -97q0 -67 51 -100q47 -32 134 -32q111 0 178 37q74 41 74 117zM404 239q-30 -11 -42 -11q-15 0 -26 7t-11 19q0 31 36 31q17 0 27 -16q6 -6 16 -30z" />
    <glyph glyph-name="afii57443" unicode="&#x643;" horiz-adv-x="481" arabic-form="isolated" 
d="M338 353q0 27 -8 37.5t-29 10.5l-21 -3q-3 -1 -12 -1q-21 0 -21 13q0 19 23 33q12 8 42 16l7 50q-38 -12 -72 -58q-34 -44 -34 -78q0 -22 23 -22l28 2h16q9 0 15.5 -6t6.5 -14q0 -17 -32.5 -30.5t-76.5 -13.5q-8 0 -38 3q-9 1 -23 1l-7 -9q18 -6 52 -14q28 -6 52 -6
q52 0 80.5 23t28.5 66zM481 115v76l-46 306l18 -6q15 34 15 75l-43 15q-29 12 -29 35l-5 4q-19 -45 -19 -96l21 -10l49 -332h-249q-63 0 -99 14q-45 16 -45 59q0 26 22 78l-13 8q-21 -41 -22 -45q-18 -44 -18 -78q0 -57 42 -81q40 -22 133 -22h288z" />
    <glyph glyph-name="afii57444" unicode="&#x644;" horiz-adv-x="405" arabic-form="isolated" 
d="M405 163q0 43 -9 124q-6 48 -18 133q-10 70 -12 78l22 -7q10 34 10 75l-18 9q-12 6 -26 12q-15 5 -19 33h-6q-22 -43 -22 -96l18 -8l13 -77q17 -106 23 -155q12 -90 12 -128q0 -34 -62 -60q-57 -23 -122 -23q-63 0 -97.5 25t-34.5 73q0 24 8 51q6 24 19 49q10 23 24 47
l-13 8l-33 -65q-19 -41 -25 -67q-9 -36 -9 -70q0 -60 45 -91q41 -28 117 -28q66 0 109 12q50 14 77 47q29 37 29 99z" />
    <glyph glyph-name="afii57445" unicode="&#x645;" horiz-adv-x="270" arabic-form="isolated" 
d="M270 115v67q-16 27 -30 44q-18 23 -40 42q-26 17 -49 17q-34 0 -58 -28q-16 -19 -26 -47l17 -12q10 11 23 22q13 8 25 8q21 0 40 -16q4 -3 31 -30q-74 -8 -104 -17q-45 -13 -65.5 -40t-20.5 -76q0 -10 15 -61q8 -32 27 -93l21 -65q9 35 9 59q0 25 -18 84.5t-18 85.5
q0 28 61 43q48 13 114 13h46z" />
    <glyph glyph-name="afii57446" unicode="&#x646;" horiz-adv-x="420" arabic-form="isolated" 
d="M276 414l-63 32l-28 -54l61 -34zM420 115v67q0 55 -7.5 87.5t-28.5 64.5l-32 -80q19 -21 28 -53q13 -33 13 -75q0 -58 -71 -90q-58 -26 -131 -26q-64 0 -98.5 25t-34.5 73q0 54 45 149l-16 7q-22 -46 -29 -65q-31 -77 -31 -138t45 -91q41 -28 120 -28q122 0 178 45
q50 41 50 128z" />
    <glyph glyph-name="afii57447" unicode="&#x647;" horiz-adv-x="226" arabic-form="isolated" 
d="M210 229q0 36 -47 68q-11 7 -85 47l-24 -66l6 -2l-25 -61q-14 -36 -14 -63q0 -24 22 -36q18 -12 47 -12q74 0 101 43q19 26 19 82zM175 199q0 -9 -26 -23q-26 -12 -47 -12q-18 0 -29.5 11.5t-11.5 30.5q0 13 11 30q4 4 21 24q21 -10 39 -21q43 -25 43 -40z" />
    <glyph glyph-name="afii57448" unicode="&#x648;" horiz-adv-x="346" arabic-form="isolated" 
d="M346 138v44q0 54 -12 86q-15 40 -49 40t-56 -40q-18 -35 -18 -74q0 -45 30 -63q26 -17 78 -17q-28 -40 -47 -60q-34 -38 -67 -56q-42 -24 -89 -24q-12 0 -27.5 3t-34 7t-28.5 6l-6 -13l50 -18q34 -11 53 -14q25 -6 52 -6q70 0 123 71q48 65 48 128zM321 180q-73 0 -73 40
q0 10 8 17.5t19 7.5q15 0 25 -13q13 -13 21 -52z" />
    <glyph glyph-name="afii57449" unicode="&#x649;" horiz-adv-x="510" arabic-form="isolated" 
d="M484 313q0 26 -14.5 41.5t-40.5 15.5q-40 0 -80 -40q-33 -33 -57 -82q-21 -44 -21 -70q0 -20 12.5 -32t30.5 -12h91q21 0 21 -12q0 -11 -43 -33q-39 -20 -96 -38q-60 -19 -108 -19q-127 0 -127 95q0 63 50 149l-17 8l-24 -48q-16 -33 -28 -71q-13 -42 -13 -84
q0 -61 40 -89q36 -27 105 -27q134 0 213 47q86 51 86 149q0 26 -19 29t-33 3q-9 1 -41 1h-31q-38 0 -38 15q0 20 35 58q37 40 71 40q43 0 71 -39q5 40 5 45z" />
    <glyph glyph-name="afii57450" unicode="&#x64a;" horiz-adv-x="510" arabic-form="isolated" 
d="M484 313q0 26 -14.5 41.5t-40.5 15.5q-40 0 -80 -40q-33 -33 -57 -82q-21 -44 -21 -70q0 -20 12.5 -32t30.5 -12h91q21 0 21 -12q0 -11 -43 -33q-39 -20 -96 -38q-60 -19 -108 -19q-127 0 -127 95q0 63 50 149l-17 8l-24 -48q-16 -33 -28 -71q-13 -42 -13 -84
q0 -61 40 -89q36 -27 105 -27q134 0 213 47q86 51 86 149q0 26 -19 29t-33 3q-9 1 -41 1h-31q-38 0 -38 15q0 20 35 58q37 40 71 40q43 0 71 -39q5 40 5 45zM338 -75l-65 33l-29 -55l63 -34zM248 -109l-64 32l-29 -56l63 -33z" />
    <glyph glyph-name="glyph1321" unicode="&#x66e;" horiz-adv-x="196" 
d="M196 115v95q0 68 -11 99q-8 21 -36 55l-30 -63q30 -33 37 -49q11 -25 11 -70h-195v-67h224z" />
    <glyph glyph-name="glyph1322" unicode="&#x66f;" horiz-adv-x="214" 
d="M214 115v101q0 84 -21 145q-25 75 -74 75q-35 0 -57 -46q-19 -39 -19 -95q0 -30 20 -47q19 -14 46 -14q17 0 32 4q19 6 31 10q8 -34 8 -66h-208v-67h242zM150 317q-21 -12 -38 -12q-35 0 -35 31q0 12 7 20.5t17 8.5q15 0 31 -19q13 -13 18 -29z" />
    <glyph glyph-name="glyph1323" unicode="&#x66f;" horiz-adv-x="210" 
d="M210 115v134q0 56 -16 95q-21 51 -61 51q-33 0 -59 -41q-22 -37 -22 -78q0 -47 46 -66q20 -8 87 -18q-35 -10 -78 -10h-135v-67h238zM175 251q-42 3 -51 7q-32 11 -32 40q0 11 8 19.5t19 8.5q22 0 39 -29q9 -18 17 -46z" />
    <glyph glyph-name="uni0671" unicode="&#x671;" horiz-adv-x="165" arabic-form="isolated" 
d="M132 214q0 44 -7 117q-8 78 -16 139q-9 81 -15 122q-32 -63 -36 -75q8 -69 11 -97q23 -205 23 -266q0 -26 -4 -46l7 -4q22 39 26 50q11 30 11 60zM168 674q0 39 -32 39q-44 0 -91 -62h-9q-30 0 -30 -26q0 -21 19 -39v7q-1 3 -1 7q0 17 12 17h65q29 0 48 19q19 16 19 38z
M133 674q0 -23 -35 -23h-32q35 38 55 38q12 0 12 -15z" />
    <glyph glyph-name="glyph1343" unicode="&#x672;" horiz-adv-x="184" 
d="M184 115v67h-55q-13 0 -24 17q-13 19 -21 89q-3 157 -7 192q-6 68 -22 112l-48 -76q15 -13 24 -32q13 -30 18 -111q4 -64 5 -89q8 -116 32 -148q16 -21 43 -21h55zM127 648q-15 -6 -27 -6q-10 0 -29 9q-21 9 -21 17q0 12 26 12q14 0 25 -12q9 16 9 24q0 20 -18 20
q-19 0 -41 -25q-21 -21 -21 -34t27 -27q-8 -6 -16 -6q-4 0 -16 4.5t-18 4.5q-11 0 -27 -27l4 -6q11 15 17 15q2 0 15.5 -4.5t17.5 -4.5t6 1l13.5 4.5t19 6.5t18.5 6q36 12 36 28z" />
    <glyph glyph-name="glyph1345" unicode="&#x673;" horiz-adv-x="184" 
d="M184 115v67h-55q-13 0 -24 17q-13 19 -21 89q-3 157 -7 192q-6 68 -22 112l-48 -76q15 -13 24 -32q13 -30 18 -111q4 -64 5 -89q8 -116 32 -148q16 -21 43 -21h55zM143 -16q-15 -6 -27 -6q-10 0 -29 9q-21 9 -21 17q0 12 26 12q14 0 25 -12q9 16 9 24q0 20 -18 20
q-19 0 -41 -25q-21 -21 -21 -34t27 -27q-7 -6 -16 -6q-4 0 -16 4.5t-18 4.5q-11 0 -27 -27l4 -6q10 15 17 15q2 0 15.5 -4.5t17.5 -4.5t6 1l13.5 4.5t19 6.5t18.5 6q36 12 36 28z" />
    <glyph glyph-name="glyph47" unicode="&#x675;" horiz-adv-x="184" 
d="M184 115v67h-55q-13 0 -24 17q-13 19 -21 89q-3 157 -7 192q-6 68 -22 112l-48 -76q15 -13 24 -32q13 -30 18 -111q4 -64 5 -89q8 -116 32 -148q16 -21 43 -21h55zM221 523q-18 -6 -27 -6q-15 0 -32 10q-18 11 -18 16q0 12 26 12q14 0 25 -11q9 12 9 23q0 20 -18 20
t-41 -24q-21 -23 -21 -35q0 -7 8 -15q6 -6 19 -12q-39 -14 -39 -31l73 25q13 4 24 10q12 7 12 18z" />
    <glyph glyph-name="glyph1349" unicode="&#x676;" horiz-adv-x="346" 
d="M346 138v44q0 54 -12 86q-15 40 -49 40t-56 -40q-18 -35 -18 -74q0 -45 30 -63q26 -17 78 -17q-28 -40 -47 -60q-34 -38 -67 -56q-42 -24 -89 -24q-12 0 -27.5 3t-34 7t-28.5 6l-6 -13l50 -18q34 -11 53 -14q25 -6 52 -6q70 0 123 71q48 65 48 128zM321 180q-73 0 -73 40
q0 10 8 17.5t19 7.5q15 0 25 -13q13 -13 21 -52zM409 413q-18 -6 -27 -6q-15 0 -32 10q-18 11 -18 16q0 12 26 12q14 0 25 -11q9 12 9 23q0 20 -18 20t-41 -24q-21 -23 -21 -35q0 -7 8 -15q6 -6 19 -12q-39 -13 -39 -31l73 25q13 4 24 10q12 7 12 18z" />
    <glyph glyph-name="uni0677" unicode="&#x677;" horiz-adv-x="346" arabic-form="isolated" 
d="M346 138v44q0 54 -12 86q-15 40 -49 40t-56 -40q-18 -35 -18 -74q0 -45 30 -63q26 -17 78 -17q-28 -40 -47 -60q-34 -38 -67 -56q-42 -24 -89 -24q-12 0 -27.5 3t-34 7t-28.5 6l-6 -13l50 -18q34 -11 53 -14q25 -6 52 -6q70 0 123 71q48 65 48 128zM321 180q-73 0 -73 40
q0 10 8 17.5t19 7.5q15 0 25 -13q13 -13 21 -52zM409 413q-18 -6 -27 -6q-15 0 -32 10q-18 11 -18 16q0 12 26 12q14 0 25 -11q9 12 9 23q0 20 -18 20t-41 -24q-21 -23 -21 -35q0 -7 8 -15q6 -6 19 -12q-39 -13 -39 -31l73 25q13 4 24 10q12 7 12 18zM246 387q0 9 -4 13
q-8 4 -14 11q13 33 13 44q0 15 -8.5 26.5t-18.5 11.5q-18 0 -33 -20t-15 -46q0 -11 8 -22q6 -8 19 -15q-11 -14 -39 -35q-28 -24 -48 -32h29q20 0 48 28l27 28l32 -19q0 3 2 12.5t2 14.5zM217 432q0 -4 -4 -11l-17 14q-10 7 -10 17q0 8 8 8t15.5 -8.5t7.5 -19.5z" />
    <glyph glyph-name="glyph" unicode="&#x678;" horiz-adv-x="471" 
d="M471 115v67h-68q-33 0 -63 -9q-41 -12 -63 -37q-29 -31 -29 -79q0 -26 46 -26q4 0 29.5 -1.5t32.5 -1.5q26 0 26 -14q0 -19 -52 -29q-46 -8 -99 -8q-82 0 -131 23q-49 25 -49 74q0 27 22 70q4 7 29 50l-16 8q-40 -64 -47 -78q-25 -50 -25 -96q0 -56 53 -88
q49 -28 133 -28q120 0 173 36q48 33 48 107q0 14 -11 20q-6 3 -26 6q-39 4 -41 4q-6 1 -25 1q-36 0 -36 13q0 16 121 16h68zM456 288q-18 -6 -27 -6q-15 0 -32 10q-18 10 -18 16q0 12 26 12q14 0 25 -11q9 12 9 23q0 20 -18 20q-19 0 -41 -24q-21 -22 -21 -35q0 -7 8 -15
q6 -6 19 -12q-39 -13 -39 -31l73 25q13 4 24 10q12 8 12 18z" />
    <glyph glyph-name="uni0679" unicode="&#x679;" horiz-adv-x="571" arabic-form="isolated" 
d="M571 115v105q0 84 -27 128q-1 1 -4 5t-7 10t-9 12l-31 -64q47 -34 47 -118v-11h-331q-66 0 -109 23q-49 25 -49 71q0 22 11 50q5 12 17 36l-11 8q-23 -39 -29 -53q-17 -39 -17 -73q0 -71 56 -104q44 -25 120 -25h373zM411 415v46q0 54 -49 54q-17 0 -47 -14
q-16 -7 -42 -23q1 4 1.5 8t1.5 7t1 4q3 17 3 29q0 35 -16 83l3 -1l6 -2q7 24 7 38q-14 2 -20 4q-11 4 -16 14q-6 -13 -11 -42l12 -5q2 -10 8 -30q1 -6 3.5 -20t4.5 -21q3 -26 3 -44t-7 -35q-27 -18 -52 -18h-29v-32h235zM382 461q0 -14 -44 -14h-81q21 12 25 14q38 20 62 20
q38 0 38 -20z" />
    <glyph glyph-name="uni067A" unicode="&#x67a;" horiz-adv-x="571" arabic-form="isolated" 
d="M571 115v105q0 84 -27 128q-1 1 -4 5t-7 10t-9 12l-31 -64q47 -34 47 -118v-11h-331q-66 0 -109 23q-49 25 -49 71q0 22 11 50q5 12 17 36l-11 8q-23 -39 -29 -53q-17 -39 -17 -73q0 -71 56 -104q44 -25 120 -25h373zM331 569l-64 33l-29 -57l64 -33zM349 471l-62 34
l-31 -58l64 -32z" />
    <glyph glyph-name="uni067B" unicode="&#x67b;" horiz-adv-x="571" arabic-form="isolated" 
d="M571 115v105q0 84 -27 128q-1 1 -4 5t-7 10t-9 12l-31 -64q47 -34 47 -118v-11h-331q-66 0 -109 23q-49 25 -49 71q0 22 11 50q5 12 17 36l-11 8q-23 -39 -29 -53q-17 -39 -17 -73q0 -71 56 -104q44 -25 120 -25h373zM354 22l-64 33l-29 -57l64 -33zM372 -76l-62 34
l-31 -58l64 -32z" />
    <glyph glyph-name="glyph1368" unicode="&#x67c;" horiz-adv-x="196" 
d="M194 500l-65 33l-29 -56l63 -33zM103 465l-64 33l-28 -56l63 -33zM196 115v95q0 68 -11 99q-8 21 -36 55l-30 -63q30 -33 37 -49q11 -25 11 -70h-195v-67h224zM148 88q0 24 -14.5 41t-35.5 17q-23 0 -38.5 -23t-15.5 -53q0 -45 41 -45q26 0 44.5 19t18.5 44zM124 77
q0 -13 -23 -13q-20 0 -29 4q-13 4 -13 20q0 10 7 18t18 8q10 0 24 -13q16 -13 16 -24z" />
    <glyph glyph-name="glyph1369" unicode="&#x67c;" horiz-adv-x="196" 
d="M194 500l-65 33l-29 -56l63 -33zM103 465l-64 33l-28 -56l63 -33zM196 115v95q0 68 -11 99q-8 21 -36 55l-30 -63q30 -33 37 -49q11 -25 11 -70h-195v-67h224zM148 88q0 24 -14.5 41t-35.5 17q-23 0 -38.5 -23t-15.5 -53q0 -45 41 -45q26 0 44.5 19t18.5 44zM124 77
q0 -13 -23 -13q-20 0 -29 4q-13 4 -13 20q0 10 7 18t18 8q10 0 24 -13q16 -13 16 -24z" />
    <glyph glyph-name="glyph1367" unicode="&#x67c;" horiz-adv-x="571" 
d="M387 469l-64 33l-30 -56l63 -33zM297 434l-64 33l-29 -57l64 -32zM571 115v105q0 84 -27 128q-1 1 -4 5t-7 10t-9 12l-31 -64q47 -34 47 -118v-11h-331q-66 0 -109 23q-49 25 -49 71q0 22 11 50q5 12 17 36l-11 8q-23 -39 -29 -53q-17 -39 -17 -73q0 -71 56 -104
q44 -25 120 -25h373zM367 88q0 24 -14.5 41t-35.5 17q-23 0 -38.5 -23t-15.5 -53q0 -45 41 -45q26 0 44.5 19t18.5 44zM343 77q0 -13 -23 -13q-20 0 -29 4q-13 4 -13 20q0 10 7 18t18 8q10 0 24 -13q16 -13 16 -24z" />
    <glyph glyph-name="glyph1372" unicode="&#x67d;" horiz-adv-x="196" 
d="M196 115v95q0 68 -11 99q-8 21 -36 55l-30 -63q30 -33 37 -49q11 -25 11 -70h-195v-67h224zM173 569l-63 33l-30 -57l64 -33zM160 463l-63 34l-29 -57l63 -33zM84 533l-64 34l-30 -57l65 -33z" />
    <glyph glyph-name="glyph1373" unicode="&#x67d;" horiz-adv-x="196" 
d="M196 115v95q0 68 -11 99q-8 21 -36 55l-30 -63q30 -33 37 -49q11 -25 11 -70h-195v-67h224zM173 569l-63 33l-30 -57l64 -33zM160 463l-63 34l-29 -57l63 -33zM84 533l-64 34l-30 -57l65 -33z" />
    <glyph glyph-name="glyph1371" unicode="&#x67d;" horiz-adv-x="571" 
d="M571 115v105q0 84 -27 128q-1 1 -4 5t-7 10t-9 12l-31 -64q47 -34 47 -118v-11h-331q-66 0 -109 23q-49 25 -49 71q0 22 11 50q5 12 17 36l-11 8q-23 -39 -29 -53q-17 -39 -17 -73q0 -71 56 -104q44 -25 120 -25h373zM385 569l-63 33l-30 -57l64 -33zM372 463l-63 34
l-29 -57l63 -33zM296 533l-64 34l-30 -57l65 -33z" />
    <glyph glyph-name="afii57506" unicode="&#x67e;" horiz-adv-x="571" arabic-form="isolated" 
d="M571 115v105q0 84 -27 128q-1 1 -4 5t-7 10t-9 12l-31 -64q47 -34 47 -118v-11h-331q-66 0 -109 23q-49 25 -49 71q0 22 11 50q5 12 17 36l-11 8q-23 -39 -29 -53q-17 -39 -17 -73q0 -71 56 -104q44 -25 120 -25h373zM397 22l-63 33l-29 -57l64 -33zM384 -84l-62 34
l-30 -57l64 -33zM308 -14l-63 34l-30 -57l64 -33z" />
    <glyph glyph-name="uni067F" unicode="&#x67f;" horiz-adv-x="571" arabic-form="isolated" 
d="M571 115v105q0 84 -27 128q-1 1 -4 5t-7 10t-9 12l-31 -64q47 -34 47 -118v-11h-331q-66 0 -109 23q-49 25 -49 71q0 22 11 50q5 12 17 36l-11 8q-23 -39 -29 -53q-17 -39 -17 -73q0 -71 56 -104q44 -25 120 -25h373zM376 568l-64 34l-29 -58l62 -33zM394 471l-65 32
l-29 -56l64 -32zM304 435l-64 33l-29 -56l63 -33zM256 476l30 56l-65 35l-28 -56z" />
    <glyph glyph-name="uni0680" unicode="&#x680;" horiz-adv-x="571" arabic-form="isolated" 
d="M571 115v105q0 84 -27 128q-1 1 -4 5t-7 10t-9 12l-31 -64q47 -34 47 -118v-11h-331q-66 0 -109 23q-49 25 -49 71q0 22 11 50q5 12 17 36l-11 8q-23 -39 -29 -53q-17 -39 -17 -73q0 -71 56 -104q44 -25 120 -25h373zM391 21l-64 34l-29 -58l62 -33zM409 -76l-65 32
l-29 -56l64 -32zM319 -112l-64 33l-29 -56l63 -33zM271 -71l30 56l-65 35l-28 -56z" />
    <glyph glyph-name="glyph1384" unicode="&#x681;" horiz-adv-x="424" 
d="M424 115v67h-24q-17 5 -64 46q-61 57 -88 75q-54 39 -93 39q-40 0 -68 -26q-18 -15 -29 -46q19 3 40 3q32 0 64 -12q28 -9 62 -31q27 -15 67 -48h-319v-67h452zM260 484q-18 -6 -27 -6q-15 0 -32 10q-18 10 -18 16q0 12 26 12q14 0 25 -11q9 12 9 23q0 20 -18 20
q-19 0 -41 -24q-21 -22 -21 -35q0 -7 8 -15q6 -6 19 -12q-39 -14 -39 -31l73 25q13 4 24 10q12 8 12 18z" />
    <glyph glyph-name="glyph1385" unicode="&#x681;" horiz-adv-x="424" 
d="M424 115v67h-24q-17 5 -64 46q-61 57 -88 75q-54 39 -93 39q-40 0 -68 -26q-18 -15 -29 -46q19 3 40 3q32 0 64 -12q28 -9 62 -31q27 -15 67 -48h-319v-67h452zM260 484q-18 -6 -27 -6q-15 0 -32 10q-18 10 -18 16q0 12 26 12q14 0 25 -11q9 12 9 23q0 20 -18 20
q-19 0 -41 -24q-21 -22 -21 -35q0 -7 8 -15q6 -6 19 -12q-39 -14 -39 -31l73 25q13 4 24 10q12 8 12 18z" />
    <glyph glyph-name="glyph1383" unicode="&#x681;" horiz-adv-x="420" 
d="M420 115v67h-53q-30 0 -41 7q-19 10 -19 43v22q22 4 35 6q21 5 37 6l16 66q-56 -6 -79 -6q-33 0 -75 7q-46 8 -81 8q-69 0 -102 -33q-15 -17 -28 -53q15 3 52 11q26 3 64 3q37 0 64 -4q-69 -37 -80 -45q-51 -34 -76 -72q-33 -50 -33 -117q0 -77 39 -124q34 -42 101 -61
q54 -16 140 -16h23l88 62l-2 5h-71q-127 0 -204 36q-88 43 -88 127q0 54 44 96q35 33 97 60q40 16 100 35q-1 -6 -2.5 -13.5t-1.5 -9.5q-4 -20 -4 -38q0 -41 20 -58t67 -17h53zM299 484q-18 -6 -27 -6q-15 0 -32 10q-18 10 -18 16q0 12 26 12q14 0 25 -11q9 12 9 23
q0 20 -18 20t-41 -24q-21 -22 -21 -35q0 -7 8 -15q6 -6 19 -12q-39 -14 -39 -31l73 25q13 4 24 10q12 8 12 18z" />
    <glyph glyph-name="glyph1388" unicode="&#x682;" horiz-adv-x="424" 
d="M424 115v67h-24q-17 5 -64 46q-61 57 -88 75q-54 39 -93 39q-40 0 -68 -26q-18 -15 -29 -46q19 3 40 3q32 0 64 -12q28 -9 62 -31q27 -15 67 -48h-319v-67h452zM213 569l-64 33l-29 -57l64 -33zM231 471l-62 34l-31 -58l64 -32z" />
    <glyph glyph-name="glyph1389" unicode="&#x682;" horiz-adv-x="424" 
d="M424 115v67h-24q-17 5 -64 46q-61 57 -88 75q-54 39 -93 39q-40 0 -68 -26q-18 -15 -29 -46q19 3 40 3q32 0 64 -12q28 -9 62 -31q27 -15 67 -48h-319v-67h452zM213 569l-64 33l-29 -57l64 -33zM231 471l-62 34l-31 -58l64 -32z" />
    <glyph glyph-name="glyph1387" unicode="&#x682;" horiz-adv-x="420" 
d="M420 115v67h-53q-30 0 -41 7q-19 10 -19 43v22q22 4 35 6q21 5 37 6l16 66q-56 -6 -79 -6q-33 0 -75 7q-46 8 -81 8q-69 0 -102 -33q-15 -17 -28 -53q15 3 52 11q26 3 64 3q37 0 64 -4q-69 -37 -80 -45q-51 -34 -76 -72q-33 -50 -33 -117q0 -77 39 -124q34 -42 101 -61
q54 -16 140 -16h23l88 62l-2 5h-71q-127 0 -204 36q-88 43 -88 127q0 54 44 96q35 33 97 60q40 16 100 35q-1 -6 -2.5 -13.5t-1.5 -9.5q-4 -20 -4 -38q0 -41 20 -58t67 -17h53zM252 569l-64 33l-29 -57l64 -33zM270 471l-62 34l-31 -58l64 -32z" />
    <glyph glyph-name="uni0683" unicode="&#x683;" horiz-adv-x="451" arabic-form="isolated" 
d="M189 272q-52 -33 -69 -47q-45 -37 -68 -76q-31 -52 -31 -118q0 -77 39 -124q34 -42 101 -61q54 -16 140 -16h23l88 62l-2 5h-71q-127 0 -204 36q-88 43 -88 127q0 64 60 112q49 40 134 65q63 19 140 32l15 66q-7 0 -32.5 -2.5t-33.5 -2.5q-22 0 -64 5q-83 11 -106 11
q-69 0 -99 -30q-13 -12 -29 -56q36 7 56 9q35 5 56 5q6 0 23 -1t22 -1zM337 100l-63 33l-30 -57l64 -33zM248 64l-64 34l-30 -57l65 -33z" />
    <glyph glyph-name="uni0684" unicode="&#x684;" horiz-adv-x="451" arabic-form="isolated" 
d="M189 272q-52 -33 -69 -47q-45 -37 -68 -76q-31 -52 -31 -118q0 -77 39 -124q34 -42 101 -61q54 -16 140 -16h23l88 62l-2 5h-71q-127 0 -204 36q-88 43 -88 127q0 64 60 112q49 40 134 65q63 19 140 32l15 66q-7 0 -32.5 -2.5t-33.5 -2.5q-22 0 -64 5q-83 11 -106 11
q-69 0 -99 -30q-13 -12 -29 -56q36 7 56 9q35 5 56 5q6 0 23 -1t22 -1zM283 123l-64 33l-29 -57l64 -33zM301 25l-62 34l-31 -58l64 -32z" />
    <glyph glyph-name="glyph1400" unicode="&#x685;" horiz-adv-x="424" 
d="M424 115v67h-24q-17 5 -64 46q-61 57 -88 75q-54 39 -93 39q-40 0 -68 -26q-18 -15 -29 -46q19 3 40 3q32 0 64 -12q28 -9 62 -31q27 -15 67 -48h-319v-67h452zM225 568l-64 34l-28 -58l62 -33zM303 499l-65 33l-29 -56l63 -34zM212 463l-64 33l-28 -57l63 -32z" />
    <glyph glyph-name="glyph1401" unicode="&#x685;" horiz-adv-x="424" 
d="M424 115v67h-24q-17 5 -64 46q-61 57 -88 75q-54 39 -93 39q-40 0 -68 -26q-18 -15 -29 -46q19 3 40 3q32 0 64 -12q28 -9 62 -31q27 -15 67 -48h-319v-67h452zM225 568l-64 34l-28 -58l62 -33zM303 499l-65 33l-29 -56l63 -34zM212 463l-64 33l-28 -57l63 -32z" />
    <glyph glyph-name="glyph1399" unicode="&#x685;" horiz-adv-x="420" 
d="M420 115v67h-53q-30 0 -41 7q-19 10 -19 43v22q22 4 35 6q21 5 37 6l16 66q-56 -6 -79 -6q-33 0 -75 7q-46 8 -81 8q-69 0 -102 -33q-15 -17 -28 -53q15 3 52 11q26 3 64 3q37 0 64 -4q-69 -37 -80 -45q-51 -34 -76 -72q-33 -50 -33 -117q0 -77 39 -124q34 -42 101 -61
q54 -16 140 -16h23l88 62l-2 5h-71q-127 0 -204 36q-88 43 -88 127q0 54 44 96q35 33 97 60q40 16 100 35q-1 -6 -2.5 -13.5t-1.5 -9.5q-4 -20 -4 -38q0 -41 20 -58t67 -17h53zM248 568l-64 34l-28 -58l62 -33zM326 499l-65 33l-29 -56l63 -34zM235 463l-64 33l-28 -57
l63 -32z" />
    <glyph glyph-name="afii57507" unicode="&#x686;" horiz-adv-x="451" arabic-form="isolated" 
d="M189 272q-52 -33 -69 -47q-45 -37 -68 -76q-31 -52 -31 -118q0 -77 39 -124q34 -42 101 -61q54 -16 140 -16h23l88 62l-2 5h-71q-127 0 -204 36q-88 43 -88 127q0 64 60 112q49 40 134 65q63 19 140 32l15 66q-7 0 -32.5 -2.5t-33.5 -2.5q-22 0 -64 5q-83 11 -106 11
q-69 0 -99 -30q-13 -12 -29 -56q36 7 56 9q35 5 56 5q6 0 23 -1t22 -1zM334 140l-63 33l-29 -57l64 -32zM321 36l-62 33l-31 -57l64 -33zM245 104l-63 34l-30 -56l64 -34z" />
    <glyph glyph-name="uni0687" unicode="&#x687;" horiz-adv-x="451" arabic-form="isolated" 
d="M189 272q-52 -33 -69 -47q-45 -37 -68 -76q-31 -52 -31 -118q0 -77 39 -124q34 -42 101 -61q54 -16 140 -16h23l88 62l-2 5h-71q-127 0 -204 36q-88 43 -88 127q0 64 60 112q49 40 134 65q63 19 140 32l15 66q-7 0 -32.5 -2.5t-33.5 -2.5q-22 0 -64 5q-83 11 -106 11
q-69 0 -99 -30q-13 -12 -29 -56q36 7 56 9q35 5 56 5q6 0 23 -1t22 -1zM344 153l-64 34l-29 -58l62 -33zM362 56l-65 32l-29 -56l64 -32zM272 20l-64 33l-29 -56l63 -33zM224 61l30 56l-65 35l-28 -56z" />
    <glyph glyph-name="uni0688" unicode="&#x688;" horiz-adv-x="270" arabic-form="isolated" 
d="M270 115v67q0 93 -23 153q-26 72 -95 107l-6 -77q56 -16 81 -70q19 -42 19 -113h-151q-17 0 -26 6q-12 8 -16 24h-9q-7 -29 -7 -54q0 -18 18 -30.5t40 -12.5h175zM254 466v46q0 54 -49 54q-17 0 -47 -14q-16 -7 -42 -23q1 4 1.5 8t1.5 7t1 4q3 16 3 29q0 35 -16 83l3 -1
l6 -2q7 24 7 38q-14 2 -20 4q-11 4 -16 14q-6 -13 -11 -42l12 -5q2 -10 8 -30q1 -6 3.5 -20t4.5 -21q3 -25 3 -44q0 -18 -7 -35q-27 -18 -52 -18h-29v-32h235zM225 512q0 -14 -44 -14h-81q21 12 25 14q38 20 62 20q38 0 38 -20z" />
    <glyph glyph-name="glyph1409" unicode="&#x689;" horiz-adv-x="270" 
d="M270 115v67q0 93 -23 153q-26 72 -95 107l-6 -77q56 -16 81 -70q19 -42 19 -113h-151q-17 0 -26 6q-12 8 -16 24h-9q-7 -29 -7 -54q0 -18 18 -30.5t40 -12.5h175zM218 88q0 24 -14.5 41t-35.5 17q-23 0 -38.5 -23t-15.5 -53q0 -45 41 -45q26 0 44.5 19t18.5 44zM194 77
q0 -13 -23 -13q-20 0 -29 4q-13 4 -13 20q0 10 7 18t18 8q10 0 24 -13q16 -13 16 -24z" />
    <glyph glyph-name="glyph1411" unicode="&#x68a;" horiz-adv-x="270" 
d="M270 115v67q0 93 -23 153q-26 72 -95 107l-6 -77q56 -16 81 -70q19 -42 19 -113h-151q-17 0 -26 6q-12 8 -16 24h-9q-7 -29 -7 -54q0 -18 18 -30.5t40 -12.5h175zM211 20l-65 32l-30 -56l64 -33z" />
    <glyph glyph-name="glyph1413" unicode="&#x68b;" horiz-adv-x="270" 
d="M270 115v67q0 93 -23 153q-26 72 -95 107l-6 -77q56 -16 81 -70q19 -42 19 -113h-151q-17 0 -26 6q-12 8 -16 24h-9q-7 -29 -7 -54q0 -18 18 -30.5t40 -12.5h175zM254 466v46q0 54 -49 54q-17 0 -47 -14q-16 -7 -42 -23q1 4 1.5 8t1.5 7t1 4q3 16 3 29q0 35 -16 83l3 -1
l6 -2q7 24 7 38q-14 2 -20 4q-11 4 -16 14q-6 -13 -11 -42l12 -5q2 -10 8 -30q1 -6 3.5 -20t4.5 -21q3 -25 3 -44q0 -18 -7 -35q-27 -18 -52 -18h-29v-32h235zM225 512q0 -14 -44 -14h-81q21 12 25 14q38 20 62 20q38 0 38 -20zM211 20l-65 32l-30 -56l64 -33z" />
    <glyph glyph-name="uni068C" unicode="&#x68c;" horiz-adv-x="270" arabic-form="isolated" 
d="M270 115v67q0 93 -23 153q-26 72 -95 107l-6 -77q56 -16 81 -70q19 -42 19 -113h-151q-17 0 -26 6q-12 8 -16 24h-9q-7 -29 -7 -54q0 -18 18 -30.5t40 -12.5h175zM220 569l-63 33l-30 -57l64 -33zM131 533l-64 34l-30 -57l65 -33z" />
    <glyph glyph-name="uni068D" unicode="&#x68d;" horiz-adv-x="270" arabic-form="isolated" 
d="M270 115v67q0 93 -23 153q-26 72 -95 107l-6 -77q56 -16 81 -70q19 -42 19 -113h-151q-17 0 -26 6q-12 8 -16 24h-9q-7 -29 -7 -54q0 -18 18 -30.5t40 -12.5h175zM244 22l-63 33l-30 -57l64 -33zM155 -14l-64 34l-30 -57l65 -33z" />
    <glyph glyph-name="uni068E" unicode="&#x68e;" horiz-adv-x="270" arabic-form="isolated" 
d="M270 115v67q0 93 -23 153q-26 72 -95 107l-6 -77q56 -16 81 -70q19 -42 19 -113h-151q-17 0 -26 6q-12 8 -16 24h-9q-7 -29 -7 -54q0 -18 18 -30.5t40 -12.5h175zM155 646l-64 34l-28 -58l62 -33zM233 577l-65 33l-29 -56l63 -34zM142 541l-64 33l-28 -57l63 -32z" />
    <glyph glyph-name="glyph1421" unicode="&#x68f;" horiz-adv-x="270" 
d="M270 115v67q0 93 -23 153q-26 72 -95 107l-6 -77q56 -16 81 -70q19 -42 19 -113h-151q-17 0 -26 6q-12 8 -16 24h-9q-7 -29 -7 -54q0 -18 18 -30.5t40 -12.5h175zM205 647l-63 33l-30 -57l64 -33zM192 541l-63 34l-29 -57l63 -33zM116 611l-64 34l-30 -57l65 -33z" />
    <glyph glyph-name="glyph1423" unicode="&#x690;" horiz-adv-x="270" 
d="M270 115v67q0 93 -23 153q-26 72 -95 107l-6 -77q56 -16 81 -70q19 -42 19 -113h-151q-17 0 -26 6q-12 8 -16 24h-9q-7 -29 -7 -54q0 -18 18 -30.5t40 -12.5h175zM211 646l-64 34l-29 -58l62 -33zM229 549l-65 32l-29 -56l64 -32zM139 513l-64 33l-29 -56l63 -33zM91 554
l30 56l-65 35l-28 -56z" />
    <glyph glyph-name="uni0691" unicode="&#x691;" horiz-adv-x="391" arabic-form="isolated" 
d="M391 115v95q0 40 -17 74q-16 30 -48 60l-22 -61q28 -31 41 -57q18 -35 18 -65q0 -35 -35 -81q-35 -44 -84 -74q-55 -32 -104 -32q-29 0 -104 16l-7 -16q6 -2 25.5 -9t29.5 -11q32 -12 58 -19q34 -8 58 -8q28 0 75 29q47 28 80 70q36 45 36 89zM371 415v46q0 54 -49 54
q-17 0 -47 -14q-16 -7 -42 -23q1 4 1.5 8t1.5 7t1 4q3 17 3 29q0 35 -16 83l3 -1l6 -2q7 24 7 38q-14 2 -20 4q-11 4 -16 14q-6 -13 -11 -42l12 -5q2 -10 8 -30q1 -6 3.5 -20t4.5 -21q3 -26 3 -44t-7 -35q-27 -18 -52 -18h-29v-32h235zM342 461q0 -14 -44 -14h-81
q21 12 25 14q38 20 62 20q38 0 38 -20z" />
    <glyph glyph-name="glyph1426" unicode="&#x692;" horiz-adv-x="391" 
d="M391 115v95q0 40 -17 74q-16 30 -48 60l-22 -61q28 -31 41 -57q18 -35 18 -65q0 -35 -35 -81q-35 -44 -84 -74q-55 -32 -104 -32q-29 0 -104 16l-7 -16q6 -2 25.5 -9t29.5 -11q32 -12 58 -19q34 -8 58 -8q28 0 75 29q47 28 80 70q36 45 36 89zM348 507h-34l-30 -55
l-30 55h-34l53 -90h22z" />
    <glyph glyph-name="glyph1429" unicode="&#x693;" horiz-adv-x="391" 
d="M391 115v95q0 40 -17 74q-16 30 -48 60l-22 -61q28 -31 41 -57q18 -35 18 -65q0 -35 -35 -81q-35 -44 -84 -74q-55 -32 -104 -32q-29 0 -104 16l-7 -16q6 -2 25.5 -9t29.5 -11q32 -12 58 -19q34 -8 58 -8q28 0 75 29q47 28 80 70q36 45 36 89zM390 -39q0 24 -14.5 41
t-35.5 17q-23 0 -38.5 -23t-15.5 -53q0 -45 41 -45q26 0 44.5 19t18.5 44zM366 -50q0 -13 -23 -13q-20 0 -29 4q-13 4 -13 20q0 10 7 18t18 8q10 0 24 -13q16 -13 16 -24z" />
    <glyph glyph-name="glyph1431" unicode="&#x694;" horiz-adv-x="391" 
d="M391 115v95q0 40 -17 74q-16 30 -48 60l-22 -61q28 -31 41 -57q18 -35 18 -65q0 -35 -35 -81q-35 -44 -84 -74q-55 -32 -104 -32q-29 0 -104 16l-7 -16q6 -2 25.5 -9t29.5 -11q32 -12 58 -19q34 -8 58 -8q28 0 75 29q47 28 80 70q36 45 36 89zM406 -58l-65 32l-30 -56
l64 -33z" />
    <glyph glyph-name="glyph1433" unicode="&#x695;" horiz-adv-x="391" 
d="M391 115v95q0 40 -17 74q-16 30 -48 60l-22 -61q28 -31 41 -57q18 -35 18 -65q0 -35 -35 -81q-35 -44 -84 -74q-55 -32 -104 -32q-29 0 -104 16l-7 -16q6 -2 25.5 -9t29.5 -11q32 -12 58 -19q34 -8 58 -8q28 0 75 29q47 28 80 70q36 45 36 89zM388 -67h-34l-30 -55
l-30 55h-34l53 -90h22z" />
    <glyph glyph-name="glyph1435" unicode="&#x696;" horiz-adv-x="391" 
d="M391 115v95q0 40 -17 74q-16 30 -48 60l-22 -61q28 -31 41 -57q18 -35 18 -65q0 -35 -35 -81q-35 -44 -84 -74q-55 -32 -104 -32q-29 0 -104 16l-7 -16q6 -2 25.5 -9t29.5 -11q32 -12 58 -19q34 -8 58 -8q28 0 75 29q47 28 80 70q36 45 36 89zM406 -58l-65 32l-30 -56
l64 -33zM234 137l-65 32l-30 -56l64 -33z" />
    <glyph glyph-name="glyph1437" unicode="&#x697;" horiz-adv-x="391" 
d="M391 115v95q0 40 -17 74q-16 30 -48 60l-22 -61q28 -31 41 -57q18 -35 18 -65q0 -35 -35 -81q-35 -44 -84 -74q-55 -32 -104 -32q-29 0 -104 16l-7 -16q6 -2 25.5 -9t29.5 -11q32 -12 58 -19q34 -8 58 -8q28 0 75 29q47 28 80 70q36 45 36 89zM345 476l-63 33l-30 -57
l64 -33zM256 440l-64 34l-30 -57l65 -33z" />
    <glyph glyph-name="afii57508" unicode="&#x698;" horiz-adv-x="391" arabic-form="isolated" 
d="M391 115v95q0 40 -17 74q-16 30 -48 60l-22 -61q28 -31 41 -57q18 -35 18 -65q0 -35 -35 -81q-35 -44 -84 -74q-55 -32 -104 -32q-29 0 -104 16l-7 -16q6 -2 25.5 -9t29.5 -11q32 -12 58 -19q34 -8 58 -8q28 0 75 29q47 28 80 70q36 45 36 89zM304 545l-64 34l-28 -57
l62 -34zM380 476l-64 32l-29 -56l63 -32zM291 440l-64 33l-29 -57l63 -32z" />
    <glyph glyph-name="glyph1439" unicode="&#x699;" horiz-adv-x="391" 
d="M391 115v95q0 40 -17 74q-16 30 -48 60l-22 -61q28 -31 41 -57q18 -35 18 -65q0 -35 -35 -81q-35 -44 -84 -74q-55 -32 -104 -32q-29 0 -104 16l-7 -16q6 -2 25.5 -9t29.5 -11q32 -12 58 -19q34 -8 58 -8q28 0 75 29q47 28 80 70q36 45 36 89zM328 573l-64 34l-29 -58
l62 -33zM346 476l-65 32l-29 -56l64 -32zM256 440l-64 33l-29 -56l63 -33zM208 481l30 56l-65 35l-28 -56z" />
    <glyph glyph-name="glyph1442" unicode="&#x69a;" horiz-adv-x="425" 
d="M425 115v93q0 44 -9 71q-6 19 -22 42l-25 -43q11 -14 19 -26q16 -23 16 -46q0 -22 -24 -22q-21 0 -35 14q-15 15 -26 61l-9 36l-16 -23q6 -26 6 -48q0 -23 -16 -33q-14 -9 -43 -9h-26q-25 0 -43 18q-14 13 -27 43q-4 9 -19 52l-16 -23q6 -23 6 -48q0 -28 -23 -36
q-13 -6 -45 -6h-76v-67h76q35 0 50.5 4.5t34.5 19.5q18 -11 33 -16q22 -8 40 -8h26q37 0 55 7q12 4 32 18q30 -25 76 -25h30zM312 442l-65 32l-30 -56l64 -33zM391 20l-65 32l-30 -56l64 -33z" />
    <glyph glyph-name="glyph1443" unicode="&#x69a;" horiz-adv-x="425" 
d="M425 115v93q0 44 -9 71q-6 19 -22 42l-25 -43q11 -14 19 -26q16 -23 16 -46q0 -22 -24 -22q-21 0 -35 14q-15 15 -26 61l-9 36l-16 -23q6 -26 6 -48q0 -23 -16 -33q-14 -9 -43 -9h-26q-25 0 -43 18q-14 13 -27 43q-4 9 -19 52l-16 -23q6 -23 6 -48q0 -28 -23 -36
q-13 -6 -45 -6h-76v-67h76q35 0 50.5 4.5t34.5 19.5q18 -11 33 -16q22 -8 40 -8h26q37 0 55 7q12 4 32 18q30 -25 76 -25h30zM312 442l-65 32l-30 -56l64 -33zM391 20l-65 32l-30 -56l64 -33z" />
    <glyph glyph-name="glyph1441" unicode="&#x69a;" horiz-adv-x="657" 
d="M657 115v93q0 46 -9 72q-6 15 -22 41l-26 -43q15 -16 24 -33q12 -22 12 -41q0 -20 -19 -20q-29 0 -45 19q-15 16 -24 55l-6 37l-15 -23q5 -24 5 -48q0 -20 -13 -30q-17 -12 -53 -12h-48q0 62 -10 95q-8 25 -27 57l-32 -80q22 -26 32 -53q15 -36 15 -75q0 -59 -73 -90
q-61 -26 -135 -26q-64 0 -98.5 25t-34.5 73q0 54 45 149l-16 7q-22 -46 -29 -65q-31 -77 -31 -138t45 -91q41 -28 120 -28q87 0 143 32q46 25 69 70q17 36 17 71h48q36 0 53 7q13 4 29 19q34 -26 78 -26h31zM546 442l-65 32l-30 -56l64 -33zM624 20l-65 32l-30 -56l64 -33z
" />
    <glyph glyph-name="glyph1446" unicode="&#x69b;" horiz-adv-x="425" 
d="M425 115v93q0 44 -9 71q-6 19 -22 42l-25 -43q11 -14 19 -26q16 -23 16 -46q0 -22 -24 -22q-21 0 -35 14q-15 15 -26 61l-9 36l-16 -23q6 -26 6 -48q0 -23 -16 -33q-14 -9 -43 -9h-26q-25 0 -43 18q-14 13 -27 43q-4 9 -19 52l-16 -23q6 -23 6 -48q0 -28 -23 -36
q-13 -6 -45 -6h-76v-67h76q35 0 50.5 4.5t34.5 19.5q18 -11 33 -16q22 -8 40 -8h26q37 0 55 7q12 4 32 18q30 -25 76 -25h30zM424 22l-63 33l-30 -57l64 -33zM411 -84l-63 34l-29 -57l63 -33zM335 -14l-64 34l-30 -57l65 -33z" />
    <glyph glyph-name="glyph1447" unicode="&#x69b;" horiz-adv-x="425" 
d="M425 115v93q0 44 -9 71q-6 19 -22 42l-25 -43q11 -14 19 -26q16 -23 16 -46q0 -22 -24 -22q-21 0 -35 14q-15 15 -26 61l-9 36l-16 -23q6 -26 6 -48q0 -23 -16 -33q-14 -9 -43 -9h-26q-25 0 -43 18q-14 13 -27 43q-4 9 -19 52l-16 -23q6 -23 6 -48q0 -28 -23 -36
q-13 -6 -45 -6h-76v-67h76q35 0 50.5 4.5t34.5 19.5q18 -11 33 -16q22 -8 40 -8h26q37 0 55 7q12 4 32 18q30 -25 76 -25h30zM424 22l-63 33l-30 -57l64 -33zM411 -84l-63 34l-29 -57l63 -33zM335 -14l-64 34l-30 -57l65 -33z" />
    <glyph glyph-name="glyph1445" unicode="&#x69b;" horiz-adv-x="657" 
d="M657 115v93q0 46 -9 72q-6 15 -22 41l-26 -43q15 -16 24 -33q12 -22 12 -41q0 -20 -19 -20q-29 0 -45 19q-15 16 -24 55l-6 37l-15 -23q5 -24 5 -48q0 -20 -13 -30q-17 -12 -53 -12h-48q0 62 -10 95q-8 25 -27 57l-32 -80q22 -26 32 -53q15 -36 15 -75q0 -59 -73 -90
q-61 -26 -135 -26q-64 0 -98.5 25t-34.5 73q0 54 45 149l-16 7q-22 -46 -29 -65q-31 -77 -31 -138t45 -91q41 -28 120 -28q87 0 143 32q46 25 69 70q17 36 17 71h48q36 0 53 7q13 4 29 19q34 -26 78 -26h31zM657 22l-63 33l-30 -57l64 -33zM644 -84l-63 34l-29 -57l63 -33z
M568 -14l-64 34l-30 -57l65 -33z" />
    <glyph glyph-name="glyph1450" unicode="&#x69c;" horiz-adv-x="425" 
d="M425 115v93q0 44 -9 71q-6 19 -22 42l-25 -43q11 -14 19 -26q16 -23 16 -46q0 -22 -24 -22q-21 0 -35 14q-15 15 -26 61l-9 36l-16 -23q6 -26 6 -48q0 -23 -16 -33q-14 -9 -43 -9h-26q-25 0 -43 18q-14 13 -27 43q-4 9 -19 52l-16 -23q6 -23 6 -48q0 -28 -23 -36
q-13 -6 -45 -6h-76v-67h76q35 0 50.5 4.5t34.5 19.5q18 -11 33 -16q22 -8 40 -8h26q37 0 55 7q12 4 32 18q30 -25 76 -25h30zM424 22l-63 33l-30 -57l64 -33zM411 -84l-63 34l-29 -57l63 -33zM335 -14l-64 34l-30 -57l65 -33zM272 545l-64 34l-28 -58l62 -33zM350 476
l-65 33l-29 -56l63 -34zM259 440l-64 33l-28 -57l63 -32z" />
    <glyph glyph-name="glyph1451" unicode="&#x69c;" horiz-adv-x="425" 
d="M425 115v93q0 44 -9 71q-6 19 -22 42l-25 -43q11 -14 19 -26q16 -23 16 -46q0 -22 -24 -22q-21 0 -35 14q-15 15 -26 61l-9 36l-16 -23q6 -26 6 -48q0 -23 -16 -33q-14 -9 -43 -9h-26q-25 0 -43 18q-14 13 -27 43q-4 9 -19 52l-16 -23q6 -23 6 -48q0 -28 -23 -36
q-13 -6 -45 -6h-76v-67h76q35 0 50.5 4.5t34.5 19.5q18 -11 33 -16q22 -8 40 -8h26q37 0 55 7q12 4 32 18q30 -25 76 -25h30zM424 22l-63 33l-30 -57l64 -33zM411 -84l-63 34l-29 -57l63 -33zM335 -14l-64 34l-30 -57l65 -33zM272 545l-64 34l-28 -58l62 -33zM350 476
l-65 33l-29 -56l63 -34zM259 440l-64 33l-28 -57l63 -32z" />
    <glyph glyph-name="glyph1449" unicode="&#x69c;" horiz-adv-x="657" 
d="M657 115v93q0 46 -9 72q-6 15 -22 41l-26 -43q15 -16 24 -33q12 -22 12 -41q0 -20 -19 -20q-29 0 -45 19q-15 16 -24 55l-6 37l-15 -23q5 -24 5 -48q0 -20 -13 -30q-17 -12 -53 -12h-48q0 62 -10 95q-8 25 -27 57l-32 -80q22 -26 32 -53q15 -36 15 -75q0 -59 -73 -90
q-61 -26 -135 -26q-64 0 -98.5 25t-34.5 73q0 54 45 149l-16 7q-22 -46 -29 -65q-31 -77 -31 -138t45 -91q41 -28 120 -28q87 0 143 32q46 25 69 70q17 36 17 71h48q36 0 53 7q13 4 29 19q34 -26 78 -26h31zM657 22l-63 33l-30 -57l64 -33zM644 -84l-63 34l-29 -57l63 -33z
M568 -14l-64 34l-30 -57l65 -33zM506 545l-64 34l-28 -58l62 -33zM584 476l-65 33l-29 -56l63 -34zM493 440l-64 33l-28 -57l63 -32z" />
    <glyph glyph-name="glyph1454" unicode="&#x69d;" horiz-adv-x="677" 
d="M677 115v98q0 52 -25 80q-27 31 -80 31q-34 0 -64 -9q-23 -8 -56 -30q-10 -6 -69 -47q-32 -23 -83 -41q-44 -15 -76 -15q-35 0 -60 31q-24 29 -38 82l-16 -23q6 -29 6 -48q0 -28 -23 -36q-13 -6 -45 -6h-76v-67h76q35 0 51 4.5t34 19.5q20 -12 34 -17q18 -7 40 -7h470z
M613 212q0 -30 -81 -30h-180l87 45q57 26 95 26q33 0 56 -11t23 -30zM579 22l-63 33l-30 -57l64 -33zM490 -14l-64 34l-30 -57l65 -33z" />
    <glyph glyph-name="glyph1455" unicode="&#x69d;" horiz-adv-x="677" 
d="M677 115v98q0 52 -25 80q-27 31 -80 31q-34 0 -64 -9q-23 -8 -56 -30q-10 -6 -69 -47q-32 -23 -83 -41q-44 -15 -76 -15q-35 0 -60 31q-24 29 -38 82l-16 -23q6 -29 6 -48q0 -28 -23 -36q-13 -6 -45 -6h-76v-67h76q35 0 51 4.5t34 19.5q20 -12 34 -17q18 -7 40 -7h470z
M613 212q0 -30 -81 -30h-180l87 45q57 26 95 26q33 0 56 -11t23 -30zM579 22l-63 33l-30 -57l64 -33zM490 -14l-64 34l-30 -57l65 -33z" />
    <glyph glyph-name="glyph1453" unicode="&#x69d;" horiz-adv-x="878" 
d="M878 115v98q0 51 -24 80q-25 31 -80 31q-36 0 -64 -9q-28 -10 -58 -30l-68 -47q-34 -26 -73 -41q-41 -15 -86 -15h-7q0 62 -10 95q-8 25 -27 57l-32 -80q22 -26 32 -53q15 -36 15 -75q0 -59 -73 -90q-61 -26 -135 -26q-64 0 -98.5 25t-34.5 73q0 54 45 149l-16 7
q-22 -46 -29 -65q-31 -77 -31 -138t45 -91q41 -28 120 -28q113 0 169 51q46 41 56 122h464zM815 212q0 -30 -82 -30h-180l57 30q40 21 62 29q34 12 63 12q34 0 57 -11t23 -30zM736 22l-63 33l-30 -57l64 -33zM647 -14l-64 34l-30 -57l65 -33z" />
    <glyph glyph-name="glyph1458" unicode="&#x69e;" horiz-adv-x="677" 
d="M677 115v98q0 52 -25 80q-27 31 -80 31q-34 0 -64 -9q-23 -8 -56 -30q-10 -6 -69 -47q-32 -23 -83 -41q-44 -15 -76 -15q-35 0 -60 31q-24 29 -38 82l-16 -23q6 -29 6 -48q0 -28 -23 -36q-13 -6 -45 -6h-76v-67h76q35 0 51 4.5t34 19.5q20 -12 34 -17q18 -7 40 -7h470z
M613 212q0 -30 -81 -30h-180l87 45q57 26 95 26q33 0 56 -11t23 -30zM506 545l-64 34l-28 -58l62 -33zM584 476l-65 33l-29 -56l63 -34zM493 440l-64 33l-28 -57l63 -32z" />
    <glyph glyph-name="glyph1459" unicode="&#x69e;" horiz-adv-x="677" 
d="M677 115v98q0 52 -25 80q-27 31 -80 31q-34 0 -64 -9q-23 -8 -56 -30q-10 -6 -69 -47q-32 -23 -83 -41q-44 -15 -76 -15q-35 0 -60 31q-24 29 -38 82l-16 -23q6 -29 6 -48q0 -28 -23 -36q-13 -6 -45 -6h-76v-67h76q35 0 51 4.5t34 19.5q20 -12 34 -17q18 -7 40 -7h470z
M613 212q0 -30 -81 -30h-180l87 45q57 26 95 26q33 0 56 -11t23 -30zM506 545l-64 34l-28 -58l62 -33zM584 476l-65 33l-29 -56l63 -34zM493 440l-64 33l-28 -57l63 -32z" />
    <glyph glyph-name="glyph1457" unicode="&#x69e;" horiz-adv-x="878" 
d="M878 115v98q0 51 -24 80q-25 31 -80 31q-36 0 -64 -9q-28 -10 -58 -30l-68 -47q-34 -26 -73 -41q-41 -15 -86 -15h-7q0 62 -10 95q-8 25 -27 57l-32 -80q22 -26 32 -53q15 -36 15 -75q0 -59 -73 -90q-61 -26 -135 -26q-64 0 -98.5 25t-34.5 73q0 54 45 149l-16 7
q-22 -46 -29 -65q-31 -77 -31 -138t45 -91q41 -28 120 -28q113 0 169 51q46 41 56 122h464zM815 212q0 -30 -82 -30h-180l57 30q40 21 62 29q34 12 63 12q34 0 57 -11t23 -30zM663 545l-64 34l-28 -58l62 -33zM741 476l-65 33l-29 -56l63 -34zM650 440l-64 33l-28 -57
l63 -32z" />
    <glyph glyph-name="glyph1461" unicode="&#x69f;" horiz-adv-x="465" 
d="M465 115v98q0 51 -23 80q-27 31 -79 31q-41 0 -100 -27q-23 -11 -87 -49q6 34 7 38q5 38 5 62q0 75 -31 175l5 -2q11 -4 15 -4q7 24 7 27q1 7 6 52q-26 1 -47 10q-22 10 -28 29q-18 -40 -23 -87l24 -13q7 -26 16 -63q12 -48 18 -86q8 -54 8 -93q0 -33 -16 -74
q-36 -22 -60 -29q-21 -7 -50 -7l-60 -1v-67h493zM404 212q0 -30 -93 -30h-170q24 15 53 30q39 20 65 29q38 12 65 12q80 0 80 -41zM351 545l-64 34l-28 -58l62 -33zM429 476l-65 33l-29 -56l63 -34zM338 440l-64 33l-28 -57l63 -32z" />
    <glyph glyph-name="glyph1464" unicode="&#x6a0;" horiz-adv-x="420" 
d="M376 236q-65 -20 -115 -31q-41 -9 -105 -18q-30 17 -49.5 41t-19.5 43q0 20 31 32t85 12q32 0 92 -15l8 7q-31 37 -45 48q-32 23 -79 23q-61 0 -99.5 -31t-38.5 -78q0 -46 26 -87h-95v-67h98q62 0 143 14q77 15 136 36zM163 584l-64 34l-28 -58l62 -33zM241 515l-65 33
l-29 -56l63 -34zM150 479l-64 33l-28 -57l63 -32z" />
    <glyph glyph-name="glyph1465" unicode="&#x6a0;" horiz-adv-x="316" 
d="M316 115v67h-58q-14 0 -31 6.5t-23 15.5q30 25 39 37q14 19 14 35q0 32 -37 47q-28 11 -72 11q-49 0 -71 -14q-23 -17 -23 -59v-23h8q11 14 25 14q16 0 29 -16l16 -20q-31 -19 -64 -27q-25 -7 -60 -7h-36v-67h36q54 0 93 16q35 12 60 36q14 -26 45 -41q27 -11 52 -11h58z
M155 545l-64 34l-28 -58l62 -33zM233 476l-65 33l-29 -56l63 -34zM142 440l-64 33l-28 -57l63 -32z" />
    <glyph glyph-name="glyph1463" unicode="&#x6a0;" horiz-adv-x="360" 
d="M388 -107l-1 3q-74 0 -126 5q-91 11 -138 38q-67 36 -67 102q0 30 22 61q18 25 49 52q13 12 52 38q19 -42 52 -59.5t93 -17.5h36v67h-36q-30 0 -50 10.5t-42 37.5l22 18q15 14 15 33q0 29 -27 48q-23 16 -58 16q-50 0 -71 -37q-11 -16 -18 -57h7q11 14 20 14q20 0 26 -26
q-40 -39 -57 -57q-32 -37 -49 -73q-21 -47 -21 -99q0 -81 55 -126q45 -35 119 -47q38 -7 114 -7zM178 545l-64 34l-28 -58l62 -33zM256 476l-65 33l-29 -56l63 -34zM165 440l-64 33l-28 -57l63 -32z" />
    <glyph glyph-name="glyph1469" unicode="&#x6a2;" horiz-adv-x="214" 
d="M214 115v101q0 84 -21 145q-25 75 -74 75q-35 0 -57 -46q-19 -39 -19 -95q0 -30 20 -47q19 -14 46 -14q17 0 32 4q19 6 31 10q8 -34 8 -66h-208v-67h242zM150 317q-21 -12 -38 -12q-35 0 -35 31q0 12 7 20.5t17 8.5q15 0 31 -19q13 -13 18 -29zM156 20l-65 32l-30 -56
l64 -33z" />
    <glyph glyph-name="glyph1470" unicode="&#x6a2;" horiz-adv-x="210" 
d="M210 115v134q0 56 -16 95q-21 51 -61 51q-33 0 -59 -41q-22 -37 -22 -78q0 -47 46 -66q20 -8 87 -18q-35 -10 -78 -10h-135v-67h238zM175 251q-42 3 -51 7q-32 11 -32 40q0 11 8 19.5t19 8.5q22 0 39 -29q9 -18 17 -46zM156 20l-65 32l-30 -56l64 -33z" />
    <glyph glyph-name="glyph1468" unicode="&#x6a2;" horiz-adv-x="631" 
d="M631 115v113q0 70 -15 108q-16 46 -55 46q-34 0 -61 -47q-24 -41 -24 -77q0 -28 24 -46q23 -17 68 -30h-288q-122 0 -179 25t-57 77q0 28 28 83l-15 9q-6 -12 -21 -47q-21 -47 -21 -81q0 -53 34 -84q31 -26 91 -40q49 -9 133 -9h358zM590 233q-33 7 -45 15q-16 10 -16 28
q0 31 27 31q18 0 27 -22q7 -17 7 -52zM609 20l-65 32l-30 -56l64 -33z" />
    <glyph glyph-name="glyph1473" unicode="&#x6a3;" horiz-adv-x="214" 
d="M214 115v101q0 84 -21 145q-25 75 -74 75q-35 0 -57 -46q-19 -39 -19 -95q0 -30 20 -47q19 -14 46 -14q17 0 32 4q19 6 31 10q8 -34 8 -66h-208v-67h242zM150 317q-21 -12 -38 -12q-35 0 -35 31q0 12 7 20.5t17 8.5q15 0 31 -19q13 -13 18 -29zM156 20l-65 32l-30 -56
l64 -33zM133 520l-65 32l-30 -56l64 -33z" />
    <glyph glyph-name="glyph1474" unicode="&#x6a3;" horiz-adv-x="210" 
d="M210 115v134q0 56 -16 95q-21 51 -61 51q-33 0 -59 -41q-22 -37 -22 -78q0 -47 46 -66q20 -8 87 -18q-35 -10 -78 -10h-135v-67h238zM175 251q-42 3 -51 7q-32 11 -32 40q0 11 8 19.5t19 8.5q22 0 39 -29q9 -18 17 -46zM156 20l-65 32l-30 -56l64 -33zM133 520l-65 32
l-30 -56l64 -33z" />
    <glyph glyph-name="glyph1472" unicode="&#x6a3;" horiz-adv-x="631" 
d="M631 115v113q0 70 -15 108q-16 46 -55 46q-34 0 -61 -47q-24 -41 -24 -77q0 -28 24 -46q23 -17 68 -30h-288q-122 0 -179 25t-57 77q0 28 28 83l-15 9q-6 -12 -21 -47q-21 -47 -21 -81q0 -53 34 -84q31 -26 91 -40q49 -9 133 -9h358zM590 233q-33 7 -45 15q-16 10 -16 28
q0 31 27 31q18 0 27 -22q7 -17 7 -52zM391 20l-65 32l-30 -56l64 -33zM585 481l-65 32l-30 -56l64 -33z" />
    <glyph glyph-name="uni06A4" unicode="&#x6a4;" horiz-adv-x="631" arabic-form="isolated" 
d="M631 115v113q0 70 -15 108q-16 46 -55 46q-34 0 -61 -47q-24 -41 -24 -77q0 -28 24 -46q23 -17 68 -30h-288q-122 0 -179 25t-57 77q0 28 28 83l-15 9q-6 -12 -21 -47q-21 -47 -21 -81q0 -53 34 -84q31 -26 91 -40q49 -9 133 -9h358zM590 233q-33 7 -45 15q-16 10 -16 28
q0 31 27 31q18 0 27 -22q7 -17 7 -52zM545 584l-64 34l-28 -58l62 -33zM623 515l-65 33l-29 -56l63 -34zM532 479l-64 33l-28 -57l63 -32z" />
    <glyph glyph-name="glyph1481" unicode="&#x6a5;" horiz-adv-x="214" 
d="M214 115v101q0 84 -21 145q-25 75 -74 75q-35 0 -57 -46q-19 -39 -19 -95q0 -30 20 -47q19 -14 46 -14q17 0 32 4q19 6 31 10q8 -34 8 -66h-208v-67h242zM150 317q-21 -12 -38 -12q-35 0 -35 31q0 12 7 20.5t17 8.5q15 0 31 -19q13 -13 18 -29zM205 22l-63 33l-30 -57
l64 -33zM192 -84l-63 34l-29 -57l63 -33zM116 -14l-64 34l-30 -57l65 -33z" />
    <glyph glyph-name="glyph1482" unicode="&#x6a5;" horiz-adv-x="210" 
d="M210 115v134q0 56 -16 95q-21 51 -61 51q-33 0 -59 -41q-22 -37 -22 -78q0 -47 46 -66q20 -8 87 -18q-35 -10 -78 -10h-135v-67h238zM175 251q-42 3 -51 7q-32 11 -32 40q0 11 8 19.5t19 8.5q22 0 39 -29q9 -18 17 -46zM205 22l-63 33l-30 -57l64 -33zM192 -84l-63 34
l-29 -57l63 -33zM116 -14l-64 34l-30 -57l65 -33z" />
    <glyph glyph-name="glyph1480" unicode="&#x6a5;" horiz-adv-x="631" 
d="M631 115v113q0 70 -15 108q-16 46 -55 46q-34 0 -61 -47q-24 -41 -24 -77q0 -28 24 -46q23 -17 68 -30h-288q-122 0 -179 25t-57 77q0 28 28 83l-15 9q-6 -12 -21 -47q-21 -47 -21 -81q0 -53 34 -84q31 -26 91 -40q49 -9 133 -9h358zM590 233q-33 7 -45 15q-16 10 -16 28
q0 31 27 31q18 0 27 -22q7 -17 7 -52zM657 22l-63 33l-30 -57l64 -33zM644 -84l-63 34l-29 -57l63 -33zM568 -14l-64 34l-30 -57l65 -33z" />
    <glyph glyph-name="uni06A6" unicode="&#x6a6;" horiz-adv-x="631" arabic-form="isolated" 
d="M631 115v113q0 70 -15 108q-16 46 -55 46q-34 0 -61 -47q-24 -41 -24 -77q0 -28 24 -46q23 -17 68 -30h-288q-122 0 -179 25t-57 77q0 28 28 83l-15 9q-6 -12 -21 -47q-21 -47 -21 -81q0 -53 34 -84q31 -26 91 -40q49 -9 133 -9h358zM590 233q-33 7 -45 15q-16 10 -16 28
q0 31 27 31q18 0 27 -22q7 -17 7 -52zM609 607l-64 34l-29 -58l62 -33zM627 510l-65 32l-29 -56l64 -32zM537 474l-64 33l-29 -56l63 -33zM489 515l30 56l-65 35l-28 -56z" />
    <glyph glyph-name="glyph1488" unicode="&#x6a7;" horiz-adv-x="465" 
d="M465 94v77q0 71 -22 122q-27 63 -72 63q-36 0 -61 -46q-23 -41 -23 -84q0 -38 27 -56q20 -16 56 -16q27 0 59 15q7 -17 7 -46q0 -55 -72 -86q-63 -27 -146 -27q-78 0 -118 22q-42 24 -42 75q0 23 5 51q4 20 15 49q4 10 20 49l-17 7q-25 -45 -39 -94q-14 -53 -14 -97
q0 -67 51 -100q47 -32 134 -32q111 0 178 37q74 41 74 117zM404 239q-30 -11 -42 -11q-15 0 -26 7t-11 19q0 31 36 31q17 0 27 -16q6 -6 16 -30zM383 469l-65 32l-30 -56l64 -33z" />
    <glyph glyph-name="glyph1490" unicode="&#x6a8;" horiz-adv-x="465" 
d="M465 94v77q0 71 -22 122q-27 63 -72 63q-36 0 -61 -46q-23 -41 -23 -84q0 -38 27 -56q20 -16 56 -16q27 0 59 15q7 -17 7 -46q0 -55 -72 -86q-63 -27 -146 -27q-78 0 -118 22q-42 24 -42 75q0 23 5 51q4 20 15 49q4 10 20 49l-17 7q-25 -45 -39 -94q-14 -53 -14 -97
q0 -67 51 -100q47 -32 134 -32q111 0 178 37q74 41 74 117zM404 239q-30 -11 -42 -11q-15 0 -26 7t-11 19q0 31 36 31q17 0 27 -16q6 -6 16 -30zM335 545l-64 34l-28 -58l62 -33zM413 476l-65 33l-29 -56l63 -34zM322 440l-64 33l-28 -57l63 -32z" />
    <glyph glyph-name="afii57567" unicode="&#x6a9;" horiz-adv-x="650" arabic-form="isolated" 
d="M604 182h-421q-63 0 -99 14q-45 16 -45 59q0 26 22 78l-13 8q-20 -41 -22 -45q-18 -44 -18 -78q0 -57 42 -81q40 -22 133 -22h467v67q-30 57 -77 110q-41 47 -104 94q-15 9 -31 24q-25 18 -25 27t39 26q21 10 78 29l82 27v68l-111 -43q-73 -28 -105 -63q-32 -38 -32 -106
q0 -11 24 -31l46 -36l13 13q61 -37 95.5 -67.5t61.5 -71.5z" />
    <glyph glyph-name="glyph1493" unicode="&#x6aa;" horiz-adv-x="316" 
d="M316 115v67q-8 23 -23 44q-22 30 -49 41q-44 18 -105 30q-64 13 -64 36q0 13 45 33q30 14 79 30l82 27v68l-87 -35q-80 -32 -126 -76q-43 -40 -43 -73q0 -18 25 -36t62 -26q96 -20 108 -25q36 -15 50 -38h-298v-67h344z" />
    <glyph glyph-name="glyph1494" unicode="&#x6aa;" horiz-adv-x="412" 
d="M412 115v67h-51q-23 0 -57 34q-42 42 -60 51q-33 17 -105 30q-64 13 -64 36q0 13 45 33q30 14 79 30l82 27v68l-87 -35q-80 -32 -126 -76q-43 -40 -43 -73q0 -18 25 -36t62 -26q82 -18 96 -22q31 -10 31 -21q0 -20 -94 -20h-173v-67h168q39 0 75 17q44 21 44 58
q59 -75 105 -75h48z" />
    <glyph glyph-name="glyph1492" unicode="&#x6aa;" horiz-adv-x="746" 
d="M746 115v67h-51q-25 0 -99 39l-95 50q-60 27 -265 74q-63 15 -63 36q0 14 46 33q25 14 78 30l82 27v68l-87 -35q-81 -32 -127 -75q-42 -41 -42 -74q0 -19 26 -37q28 -18 61 -25q176 -37 234 -57q40 -13 40 -30q0 -24 -103 -24h-198q-144 0 -144 73q0 13 4 25l-15 7
q-20 -43 -20 -69q0 -66 59 -89q37 -14 116 -14h178q46 0 96 25q56 29 56 63q71 -47 92 -58q55 -30 93 -30h48z" />
    <glyph glyph-name="glyph1497" unicode="&#x6ab;" horiz-adv-x="316" 
d="M316 115v67q-30 57 -77 110q-41 47 -104 94q-12 8 -32 24q-25 18 -25 27t38 26q25 11 80 29l81 27v68l-110 -43q-75 -28 -105 -63q-33 -37 -33 -106q0 -11 24 -31l47 -36l13 13q61 -37 96 -67.5t61 -71.5h-298v-67h344zM280 471q0 24 -14.5 41t-35.5 17q-23 0 -38.5 -23
t-15.5 -53q0 -45 41 -45q26 0 44.5 19t18.5 44zM256 460q0 -13 -23 -13q-20 0 -29 4q-13 4 -13 20q0 10 7 18t18 8q10 0 24 -13q16 -13 16 -24z" />
    <glyph glyph-name="glyph1498" unicode="&#x6ab;" horiz-adv-x="412" 
d="M284 239q-30 38 -42 50q-21 24 -45 45q-30 28 -62 52q-12 8 -32 24q-25 18 -25 27t38 26q25 11 80 29l81 27v68l-110 -43q-75 -28 -105 -63q-33 -37 -33 -106q0 -11 24 -31l47 -36l13 13q26 -14 37 -24q20 -20 20 -45q0 -34 -51 -54q-41 -16 -104 -16h-43v-67h41
q91 0 138 41q44 41 44 109q7 -7 16.5 -17.5t12.5 -13.5q4 -4 24 -30q30 -39 49 -56q34 -33 67 -33h48v67h-51q-18 0 -42 21q-19 14 -35 36zM280 471q0 24 -14.5 41t-35.5 17q-23 0 -38.5 -23t-15.5 -53q0 -45 41 -45q26 0 44.5 19t18.5 44zM256 460q0 -13 -23 -13
q-20 0 -29 4q-13 4 -13 20q0 10 7 18t18 8q10 0 24 -13q16 -13 16 -24z" />
    <glyph glyph-name="glyph1496" unicode="&#x6ab;" horiz-adv-x="746" 
d="M183 115h165q90 0 137 41q44 41 44 109q7 -7 16.5 -17.5t12.5 -13.5q4 -4 24 -30q30 -39 49 -56q35 -33 67 -33h48v67h-51q-18 0 -42 21q-18 15 -35 36q-30 38 -42 50q-18 22 -44 45q-35 31 -63 52q-15 9 -31 24q-25 18 -25 27q0 7 23 19q28 14 94 36l82 27v68l-111 -43
q-73 -28 -105 -63q-32 -38 -32 -106q0 -11 24 -31l46 -36l13 13q27 -14 37 -24q20 -20 20 -45q0 -34 -51 -54q-39 -16 -104 -16h-166q-63 0 -99 14q-45 16 -45 59q0 26 22 78l-13 8q-20 -41 -22 -45q-18 -44 -18 -78q0 -57 42 -81q40 -22 133 -22zM613 471q0 24 -14.5 41
t-35.5 17q-23 0 -38.5 -23t-15.5 -53q0 -45 41 -45q26 0 44.5 19t18.5 44zM589 460q0 -13 -23 -13q-20 0 -29 4q-13 4 -13 20q0 10 7 18t18 8q10 0 24 -13q16 -13 16 -24z" />
    <glyph glyph-name="glyph1501" unicode="&#x6ac;" horiz-adv-x="316" 
d="M316 115v67q-30 57 -77 110q-41 47 -104 94q-12 8 -32 24q-25 18 -25 27t38 26q25 11 80 29l81 27v68l-110 -43q-75 -28 -105 -63q-33 -37 -33 -106q0 -11 24 -31l47 -36l13 13q61 -37 96 -67.5t61 -71.5h-298v-67h344zM187 642l-65 32l-30 -56l64 -33z" />
    <glyph glyph-name="glyph1502" unicode="&#x6ac;" horiz-adv-x="316" 
d="M316 115v67q-30 57 -77 110q-41 47 -104 94q-12 8 -32 24q-25 18 -25 27t38 26q25 11 80 29l81 27v68l-110 -43q-75 -28 -105 -63q-33 -37 -33 -106q0 -11 24 -31l47 -36l13 13q61 -37 96 -67.5t61 -71.5h-298v-67h344zM187 642l-65 32l-30 -56l64 -33z" />
    <glyph glyph-name="glyph1500" unicode="&#x6ac;" horiz-adv-x="481" 
d="M338 353q0 27 -8 37.5t-29 10.5l-21 -3q-3 -1 -12 -1q-21 0 -21 13q0 19 23 33q12 8 42 16l7 50q-38 -12 -72 -58q-34 -44 -34 -78q0 -22 23 -22l28 2h16q9 0 15.5 -6t6.5 -14q0 -17 -32.5 -30.5t-76.5 -13.5q-8 0 -38 3q-9 1 -23 1l-7 -9q18 -6 52 -14q28 -6 52 -6
q52 0 80.5 23t28.5 66zM481 115v76l-46 306l18 -6q15 34 15 75l-43 15q-29 12 -29 35l-5 4q-19 -45 -19 -96l21 -10l49 -332h-249q-63 0 -99 14q-45 16 -45 59q0 26 22 78l-13 8q-21 -41 -22 -45q-18 -44 -18 -78q0 -57 42 -81q40 -22 133 -22h288zM296 587l-65 32l-30 -56
l64 -33z" />
    <glyph glyph-name="uni06AD" unicode="&#x6ad;" horiz-adv-x="481" arabic-form="isolated" 
d="M338 353q0 27 -8 37.5t-29 10.5l-21 -3q-3 -1 -12 -1q-21 0 -21 13q0 19 23 33q12 8 42 16l7 50q-38 -12 -72 -58q-34 -44 -34 -78q0 -22 23 -22l28 2h16q9 0 15.5 -6t6.5 -14q0 -17 -32.5 -30.5t-76.5 -13.5q-8 0 -38 3q-9 1 -23 1l-7 -9q18 -6 52 -14q28 -6 52 -6
q52 0 80.5 23t28.5 66zM481 115v76l-46 306l18 -6q15 34 15 75l-43 15q-29 12 -29 35l-5 4q-19 -45 -19 -96l21 -10l49 -332h-249q-63 0 -99 14q-45 16 -45 59q0 26 22 78l-13 8q-21 -41 -22 -45q-18 -44 -18 -78q0 -57 42 -81q40 -22 133 -22h288zM256 669l-64 34l-28 -58
l62 -33zM334 600l-65 33l-29 -56l63 -34zM243 564l-64 33l-28 -57l63 -32z" />
    <glyph glyph-name="glyph1509" unicode="&#x6ae;" horiz-adv-x="316" 
d="M316 115v67q-30 57 -77 110q-41 47 -104 94q-12 8 -32 24q-25 18 -25 27t38 26q25 11 80 29l81 27v68l-110 -43q-75 -28 -105 -63q-33 -37 -33 -106q0 -11 24 -31l47 -36l13 13q61 -37 96 -67.5t61 -71.5h-298v-67h344zM244 22l-63 33l-30 -57l64 -33zM231 -84l-63 34
l-29 -57l63 -33zM155 -14l-64 34l-30 -57l65 -33z" />
    <glyph glyph-name="glyph1510" unicode="&#x6ae;" horiz-adv-x="316" 
d="M316 115v67q-30 57 -77 110q-41 47 -104 94q-12 8 -32 24q-25 18 -25 27t38 26q25 11 80 29l81 27v68l-110 -43q-75 -28 -105 -63q-33 -37 -33 -106q0 -11 24 -31l47 -36l13 13q61 -37 96 -67.5t61 -71.5h-298v-67h344zM244 22l-63 33l-30 -57l64 -33zM231 -84l-63 34
l-29 -57l63 -33zM155 -14l-64 34l-30 -57l65 -33z" />
    <glyph glyph-name="glyph1508" unicode="&#x6ae;" horiz-adv-x="481" 
d="M338 353q0 27 -8 37.5t-29 10.5l-21 -3q-3 -1 -12 -1q-21 0 -21 13q0 19 23 33q12 8 42 16l7 50q-38 -12 -72 -58q-34 -44 -34 -78q0 -22 23 -22l28 2h16q9 0 15.5 -6t6.5 -14q0 -17 -32.5 -30.5t-76.5 -13.5q-8 0 -38 3q-9 1 -23 1l-7 -9q18 -6 52 -14q28 -6 52 -6
q52 0 80.5 23t28.5 66zM481 115v76l-46 306l18 -6q15 34 15 75l-43 15q-29 12 -29 35l-5 4q-19 -45 -19 -96l21 -10l49 -332h-249q-63 0 -99 14q-45 16 -45 59q0 26 22 78l-13 8q-21 -41 -22 -45q-18 -44 -18 -78q0 -57 42 -81q40 -22 133 -22h288zM345 22l-63 33l-30 -57
l64 -33zM332 -84l-63 34l-29 -57l63 -33zM256 -14l-64 34l-30 -57l65 -33z" />
    <glyph glyph-name="afii57509" unicode="&#x6af;" horiz-adv-x="650" arabic-form="isolated" 
d="M604 182h-421q-63 0 -99 14q-45 16 -45 59q0 26 22 78l-13 8q-20 -41 -22 -45q-18 -44 -18 -78q0 -57 42 -81q40 -22 133 -22h467v67q-30 57 -77 110q-41 47 -104 94q-15 9 -31 24q-25 18 -25 27t39 26q21 10 78 29l82 27v68l-111 -43q-73 -28 -105 -63q-32 -38 -32 -106
q0 -11 24 -31l46 -36l13 13q61 -37 95.5 -67.5t61.5 -71.5zM612 693q-58 -23 -117 -54q-114 -59 -139 -91v-41q34 24 99 55q74 35 157 66v65z" />
    <glyph glyph-name="glyph1513" unicode="&#x6b0;" horiz-adv-x="316" 
d="M316 115v67q-30 57 -77 110q-41 47 -104 94q-12 8 -32 24q-25 18 -25 27t38 26q25 11 80 29l81 27v68l-110 -43q-75 -28 -105 -63q-33 -37 -33 -106q0 -11 24 -31l47 -36l13 13q61 -37 96 -67.5t61 -71.5h-298v-67h344zM277 700q-59 -23 -116 -54q-109 -55 -140 -90v-42
q36 25 100 55q72 35 156 66v65zM280 471q0 24 -14.5 41t-35.5 17q-23 0 -38.5 -23t-15.5 -53q0 -45 41 -45q26 0 44.5 19t18.5 44zM256 460q0 -13 -23 -13q-20 0 -29 4q-13 4 -13 20q0 10 7 18t18 8q10 0 24 -13q16 -13 16 -24z" />
    <glyph glyph-name="glyph1514" unicode="&#x6b0;" horiz-adv-x="412" 
d="M284 239q-30 38 -42 50q-21 24 -45 45q-30 28 -62 52q-12 8 -32 24q-25 18 -25 27t38 26q25 11 80 29l81 27v68l-110 -43q-75 -28 -105 -63q-33 -37 -33 -106q0 -11 24 -31l47 -36l13 13q26 -14 37 -24q20 -20 20 -45q0 -34 -51 -54q-41 -16 -104 -16h-43v-67h41
q91 0 138 41q44 41 44 109q7 -7 16.5 -17.5t12.5 -13.5q4 -4 24 -30q30 -39 49 -56q34 -33 67 -33h48v67h-51q-18 0 -42 21q-19 14 -35 36zM277 700q-59 -23 -116 -54q-109 -55 -140 -90v-42q36 25 100 55q72 35 156 66v65zM280 471q0 24 -14.5 41t-35.5 17q-23 0 -38.5 -23
t-15.5 -53q0 -45 41 -45q26 0 44.5 19t18.5 44zM256 460q0 -13 -23 -13q-20 0 -29 4q-13 4 -13 20q0 10 7 18t18 8q10 0 24 -13q16 -13 16 -24z" />
    <glyph glyph-name="glyph1512" unicode="&#x6b0;" horiz-adv-x="746" 
d="M183 115h165q90 0 137 41q44 41 44 109q7 -7 16.5 -17.5t12.5 -13.5q4 -4 24 -30q30 -39 49 -56q35 -33 67 -33h48v67h-51q-18 0 -42 21q-18 15 -35 36q-30 38 -42 50q-18 22 -44 45q-35 31 -63 52q-15 9 -31 24q-25 18 -25 27q0 7 23 19q28 14 94 36l82 27v68l-111 -43
q-73 -28 -105 -63q-32 -38 -32 -106q0 -11 24 -31l46 -36l13 13q27 -14 37 -24q20 -20 20 -45q0 -34 -51 -54q-39 -16 -104 -16h-166q-63 0 -99 14q-45 16 -45 59q0 26 22 78l-13 8q-20 -41 -22 -45q-18 -44 -18 -78q0 -57 42 -81q40 -22 133 -22zM612 693q-58 -23 -117 -54
q-114 -59 -139 -91v-41q34 24 99 55q74 35 157 66v65zM613 471q0 24 -14.5 41t-35.5 17q-23 0 -38.5 -23t-15.5 -53q0 -45 41 -45q26 0 44.5 19t18.5 44zM589 460q0 -13 -23 -13q-20 0 -29 4q-13 4 -13 20q0 10 7 18t18 8q10 0 24 -13q16 -13 16 -24z" />
    <glyph glyph-name="uni06B1" unicode="&#x6b1;" horiz-adv-x="650" arabic-form="isolated" 
d="M604 182h-421q-63 0 -99 14q-45 16 -45 59q0 26 22 78l-13 8q-20 -41 -22 -45q-18 -44 -18 -78q0 -57 42 -81q40 -22 133 -22h467v67q-30 57 -77 110q-41 47 -104 94q-15 9 -31 24q-25 18 -25 27t39 26q21 10 78 29l82 27v68l-111 -43q-73 -28 -105 -63q-32 -38 -32 -106
q0 -11 24 -31l46 -36l13 13q61 -37 95.5 -67.5t61.5 -71.5zM612 693q-58 -23 -117 -54q-114 -59 -139 -91v-41q34 24 99 55q74 35 157 66v65zM522 696l-56 17l-22 -41l56 -18zM440 661l-56 17l-21 -41l56 -18z" />
    <glyph glyph-name="glyph1521" unicode="&#x6b2;" horiz-adv-x="316" 
d="M316 115v67q-30 57 -77 110q-41 47 -104 94q-12 8 -32 24q-25 18 -25 27t38 26q25 11 80 29l81 27v68l-110 -43q-75 -28 -105 -63q-33 -37 -33 -106q0 -11 24 -31l47 -36l13 13q61 -37 96 -67.5t61 -71.5h-298v-67h344zM277 700q-59 -23 -116 -54q-109 -55 -140 -90v-42
q36 25 100 55q72 35 156 66v65zM251 22l-63 33l-30 -57l64 -33zM162 -14l-64 34l-30 -57l65 -33z" />
    <glyph glyph-name="glyph1522" unicode="&#x6b2;" horiz-adv-x="412" 
d="M284 239q-30 38 -42 50q-21 24 -45 45q-30 28 -62 52q-12 8 -32 24q-25 18 -25 27t38 26q25 11 80 29l81 27v68l-110 -43q-75 -28 -105 -63q-33 -37 -33 -106q0 -11 24 -31l47 -36l13 13q26 -14 37 -24q20 -20 20 -45q0 -34 -51 -54q-41 -16 -104 -16h-43v-67h41
q91 0 138 41q44 41 44 109q7 -7 16.5 -17.5t12.5 -13.5q4 -4 24 -30q30 -39 49 -56q34 -33 67 -33h48v67h-51q-18 0 -42 21q-19 14 -35 36zM277 700q-59 -23 -116 -54q-109 -55 -140 -90v-42q36 25 100 55q72 35 156 66v65zM197 22l-63 33l-30 -57l64 -33zM108 -14l-64 34
l-30 -57l65 -33z" />
    <glyph glyph-name="glyph1520" unicode="&#x6b2;" horiz-adv-x="746" 
d="M183 115h165q90 0 137 41q44 41 44 109q7 -7 16.5 -17.5t12.5 -13.5q4 -4 24 -30q30 -39 49 -56q35 -33 67 -33h48v67h-51q-18 0 -42 21q-18 15 -35 36q-30 38 -42 50q-18 22 -44 45q-35 31 -63 52q-15 9 -31 24q-25 18 -25 27q0 7 23 19q28 14 94 36l82 27v68l-111 -43
q-73 -28 -105 -63q-32 -38 -32 -106q0 -11 24 -31l46 -36l13 13q27 -14 37 -24q20 -20 20 -45q0 -34 -51 -54q-39 -16 -104 -16h-166q-63 0 -99 14q-45 16 -45 59q0 26 22 78l-13 8q-20 -41 -22 -45q-18 -44 -18 -78q0 -57 42 -81q40 -22 133 -22zM612 693q-58 -23 -117 -54
q-114 -59 -139 -91v-41q34 24 99 55q74 35 157 66v65zM353 22l-63 33l-30 -57l64 -33zM264 -14l-64 34l-30 -57l65 -33z" />
    <glyph glyph-name="uni06B3" unicode="&#x6b3;" horiz-adv-x="650" arabic-form="isolated" 
d="M604 182h-421q-63 0 -99 14q-45 16 -45 59q0 26 22 78l-13 8q-20 -41 -22 -45q-18 -44 -18 -78q0 -57 42 -81q40 -22 133 -22h467v67q-30 57 -77 110q-41 47 -104 94q-15 9 -31 24q-25 18 -25 27t39 26q21 10 78 29l82 27v68l-111 -43q-73 -28 -105 -63q-32 -38 -32 -106
q0 -11 24 -31l46 -36l13 13q61 -37 95.5 -67.5t61.5 -71.5zM612 693q-58 -23 -117 -54q-114 -59 -139 -91v-41q34 24 99 55q74 35 157 66v65zM393 22l-64 33l-29 -57l64 -33zM411 -76l-62 34l-31 -58l64 -32z" />
    <glyph glyph-name="glyph1529" unicode="&#x6b4;" horiz-adv-x="316" 
d="M316 115v67q-30 57 -77 110q-41 47 -104 94q-12 8 -32 24q-25 18 -25 27t38 26q25 11 80 29l81 27v68l-110 -43q-75 -28 -105 -63q-33 -37 -33 -106q0 -11 24 -31l47 -36l13 13q61 -37 96 -67.5t61 -71.5h-298v-67h344zM277 700q-59 -23 -116 -54q-109 -55 -140 -90v-42
q36 25 100 55q72 35 156 66v65zM107 700l-53 13l-21 -37l52 -15zM174 680l-51 14l-21 -37l50 -14zM90 645l-52 15l-21 -38l51 -14z" />
    <glyph glyph-name="glyph1530" unicode="&#x6b4;" horiz-adv-x="412" 
d="M284 239q-30 38 -42 50q-21 24 -45 45q-30 28 -62 52q-12 8 -32 24q-25 18 -25 27t38 26q25 11 80 29l81 27v68l-110 -43q-75 -28 -105 -63q-33 -37 -33 -106q0 -11 24 -31l47 -36l13 13q26 -14 37 -24q20 -20 20 -45q0 -34 -51 -54q-41 -16 -104 -16h-43v-67h41
q91 0 138 41q44 41 44 109q7 -7 16.5 -17.5t12.5 -13.5q4 -4 24 -30q30 -39 49 -56q34 -33 67 -33h48v67h-51q-18 0 -42 21q-19 14 -35 36zM277 700q-59 -23 -116 -54q-109 -55 -140 -90v-42q36 25 100 55q72 35 156 66v65zM107 700l-53 13l-21 -37l52 -15zM174 680l-51 14
l-21 -37l50 -14zM90 645l-52 15l-21 -38l51 -14z" />
    <glyph glyph-name="glyph1528" unicode="&#x6b4;" horiz-adv-x="746" 
d="M183 115h165q90 0 137 41q44 41 44 109q7 -7 16.5 -17.5t12.5 -13.5q4 -4 24 -30q30 -39 49 -56q35 -33 67 -33h48v67h-51q-18 0 -42 21q-18 15 -35 36q-30 38 -42 50q-18 22 -44 45q-35 31 -63 52q-15 9 -31 24q-25 18 -25 27q0 7 23 19q28 14 94 36l82 27v68l-111 -43
q-73 -28 -105 -63q-32 -38 -32 -106q0 -11 24 -31l46 -36l13 13q27 -14 37 -24q20 -20 20 -45q0 -34 -51 -54q-39 -16 -104 -16h-166q-63 0 -99 14q-45 16 -45 59q0 26 22 78l-13 8q-20 -41 -22 -45q-18 -44 -18 -78q0 -57 42 -81q40 -22 133 -22zM612 693q-58 -23 -117 -54
q-114 -59 -139 -91v-41q34 24 99 55q74 35 157 66v65zM441 700l-53 13l-21 -37l52 -15zM508 680l-51 14l-21 -37l50 -14zM424 645l-52 15l-21 -38l51 -14z" />
    <glyph glyph-name="glyph1533" unicode="&#x6b5;" horiz-adv-x="165" 
d="M165 115v76l-46 306l20 -6q9 34 9 75l-39 15q-25 12 -25 35l-6 4q-18 -43 -18 -96l20 -10l46 -332h-154v-67h193zM153 713h-34l-30 -55l-30 55h-34l53 -90h22z" />
    <glyph glyph-name="glyph1534" unicode="&#x6b5;" horiz-adv-x="165" 
d="M165 115v76l-46 306l20 -6q9 34 9 75l-39 15q-25 12 -25 35l-6 4q-18 -43 -18 -96l20 -10l46 -332h-154v-67h193zM153 713h-34l-30 -55l-30 55h-34l53 -90h22z" />
    <glyph glyph-name="glyph1532" unicode="&#x6b5;" horiz-adv-x="405" 
d="M405 163q0 43 -9 124q-6 48 -18 133q-10 70 -12 78l22 -7q10 34 10 75l-18 9q-12 6 -26 12q-15 5 -19 33h-6q-22 -43 -22 -96l18 -8l13 -77q17 -106 23 -155q12 -90 12 -128q0 -34 -62 -60q-57 -23 -122 -23q-63 0 -97.5 25t-34.5 73q0 24 8 51q6 24 19 49q10 23 24 47
l-13 8l-33 -65q-19 -41 -25 -67q-9 -36 -9 -70q0 -60 45 -91q41 -28 117 -28q66 0 109 12q50 14 77 47q29 37 29 99zM388 713h-34l-30 -55l-30 55h-34l53 -90h22z" />
    <glyph glyph-name="glyph1537" unicode="&#x6b6;" horiz-adv-x="165" 
d="M165 115v76l-46 306l20 -6q9 34 9 75l-39 15q-25 12 -25 35l-6 4q-18 -43 -18 -96l20 -10l46 -332h-154v-67h193zM136 680l-65 32l-30 -56l64 -33z" />
    <glyph glyph-name="glyph1538" unicode="&#x6b6;" horiz-adv-x="165" 
d="M165 115v76l-46 306l20 -6q9 34 9 75l-39 15q-25 12 -25 35l-6 4q-18 -43 -18 -96l20 -10l46 -332h-154v-67h193zM136 680l-65 32l-30 -56l64 -33z" />
    <glyph glyph-name="glyph1536" unicode="&#x6b6;" horiz-adv-x="405" 
d="M405 163q0 43 -9 124q-6 48 -18 133q-10 70 -12 78l22 -7q10 34 10 75l-18 9q-12 6 -26 12q-15 5 -19 33h-6q-22 -43 -22 -96l18 -8l13 -77q17 -106 23 -155q12 -90 12 -128q0 -34 -62 -60q-57 -23 -122 -23q-63 0 -97.5 25t-34.5 73q0 24 8 51q6 24 19 49q10 23 24 47
l-13 8l-33 -65q-19 -41 -25 -67q-9 -36 -9 -70q0 -60 45 -91q41 -28 117 -28q66 0 109 12q50 14 77 47q29 37 29 99zM386 680l-65 32l-30 -56l64 -33z" />
    <glyph glyph-name="glyph1541" unicode="&#x6b7;" horiz-adv-x="165" 
d="M165 115v76l-46 306l20 -6q9 34 9 75l-39 15q-25 12 -25 35l-6 4q-18 -43 -18 -96l20 -10l46 -332h-154v-67h193zM90 700l-53 13l-21 -37l52 -15zM157 680l-51 14l-21 -37l50 -14zM73 645l-52 15l-21 -38l51 -14z" />
    <glyph glyph-name="glyph1542" unicode="&#x6b7;" horiz-adv-x="165" 
d="M165 115v76l-46 306l20 -6q9 34 9 75l-39 15q-25 12 -25 35l-6 4q-18 -43 -18 -96l20 -10l46 -332h-154v-67h193zM90 700l-53 13l-21 -37l52 -15zM157 680l-51 14l-21 -37l50 -14zM73 645l-52 15l-21 -38l51 -14z" />
    <glyph glyph-name="glyph1540" unicode="&#x6b7;" horiz-adv-x="405" 
d="M405 163q0 43 -9 124q-6 48 -18 133q-10 70 -12 78l22 -7q10 34 10 75l-18 9q-12 6 -26 12q-15 5 -19 33h-6q-22 -43 -22 -96l18 -8l13 -77q17 -106 23 -155q12 -90 12 -128q0 -34 -62 -60q-57 -23 -122 -23q-63 0 -97.5 25t-34.5 73q0 24 8 51q6 24 19 49q10 23 24 47
l-13 8l-33 -65q-19 -41 -25 -67q-9 -36 -9 -70q0 -60 45 -91q41 -28 117 -28q66 0 109 12q50 14 77 47q29 37 29 99zM332 700l-53 13l-21 -37l52 -15zM399 680l-51 14l-21 -37l50 -14zM315 645l-52 15l-21 -38l51 -14z" />
    <glyph glyph-name="glyph1545" unicode="&#x6b8;" horiz-adv-x="165" 
d="M165 115v76l-46 306l20 -6q9 34 9 75l-39 15q-25 12 -25 35l-6 4q-18 -43 -18 -96l20 -10l46 -332h-154v-67h193zM173 22l-63 33l-30 -57l64 -33zM160 -84l-63 34l-29 -57l63 -33zM84 -14l-64 34l-30 -57l65 -33z" />
    <glyph glyph-name="glyph1546" unicode="&#x6b8;" horiz-adv-x="165" 
d="M165 115v76l-46 306l20 -6q9 34 9 75l-39 15q-25 12 -25 35l-6 4q-18 -43 -18 -96l20 -10l46 -332h-154v-67h193zM173 22l-63 33l-30 -57l64 -33zM160 -84l-63 34l-29 -57l63 -33zM84 -14l-64 34l-30 -57l65 -33z" />
    <glyph glyph-name="glyph1544" unicode="&#x6b8;" horiz-adv-x="405" 
d="M405 163q0 43 -9 124q-6 48 -18 133q-10 70 -12 78l22 -7q10 34 10 75l-18 9q-12 6 -26 12q-15 5 -19 33h-6q-22 -43 -22 -96l18 -8l13 -77q17 -106 23 -155q12 -90 12 -128q0 -34 -62 -60q-57 -23 -122 -23q-63 0 -97.5 25t-34.5 73q0 24 8 51q6 24 19 49q10 23 24 47
l-13 8l-33 -65q-19 -41 -25 -67q-9 -36 -9 -70q0 -60 45 -91q41 -28 117 -28q66 0 109 12q50 14 77 47q29 37 29 99zM306 -33l-63 25l-30 -49l64 -25zM293 -115l-63 24l-30 -48l64 -25zM217 -68l-64 25l-29 -49l64 -25z" />
    <glyph glyph-name="glyph1549" unicode="&#x6b9;" horiz-adv-x="196" 
d="M164 476l-64 32l-29 -56l63 -32zM196 115v95q0 68 -11 99q-8 21 -36 55l-30 -63q30 -33 37 -49q11 -25 11 -70h-195v-67h224zM156 20l-65 32l-30 -56l64 -33z" />
    <glyph glyph-name="glyph1550" unicode="&#x6b9;" horiz-adv-x="196" 
d="M164 476l-64 32l-29 -56l63 -32zM196 115v95q0 68 -11 99q-8 21 -36 55l-30 -63q30 -33 37 -49q11 -25 11 -70h-195v-67h224zM156 20l-65 32l-30 -56l64 -33z" />
    <glyph glyph-name="glyph1548" unicode="&#x6b9;" horiz-adv-x="420" 
d="M276 414l-63 32l-28 -54l61 -34zM420 115v67q0 55 -7.5 87.5t-28.5 64.5l-32 -80q19 -21 28 -53q13 -33 13 -75q0 -58 -71 -90q-58 -26 -131 -26q-64 0 -98.5 25t-34.5 73q0 54 45 149l-16 7q-22 -46 -29 -65q-31 -77 -31 -138t45 -91q41 -28 120 -28q122 0 178 45
q50 41 50 128zM280 -111l-65 32l-30 -56l64 -33z" />
    <glyph glyph-name="uni06BA" unicode="&#x6ba;" horiz-adv-x="420" arabic-form="isolated" 
d="M420 115v67q0 55 -7.5 87.5t-28.5 64.5l-32 -80q19 -21 28 -53q13 -33 13 -75q0 -58 -71 -90q-58 -26 -131 -26q-64 0 -98.5 25t-34.5 73q0 54 45 149l-16 7q-22 -46 -29 -65q-31 -77 -31 -138t45 -91q41 -28 120 -28q122 0 178 45q50 41 50 128z" />
    <glyph glyph-name="uni06BB" unicode="&#x6bb;" horiz-adv-x="420" arabic-form="isolated" 
d="M420 115v67q0 55 -7.5 87.5t-28.5 64.5l-32 -80q19 -21 28 -53q13 -33 13 -75q0 -58 -71 -90q-58 -26 -131 -26q-64 0 -98.5 25t-34.5 73q0 54 45 149l-16 7q-22 -46 -29 -65q-31 -77 -31 -138t45 -91q41 -28 120 -28q122 0 178 45q50 41 50 128zM347 384v46q0 54 -49 54
q-17 0 -47 -14q-16 -7 -42 -23q1 4 1.5 8t1.5 7t1 4q3 16 3 29q0 35 -16 83l3 -1l6 -2q7 24 7 38q-14 2 -20 4q-11 4 -16 14q-6 -13 -11 -42l12 -5q2 -10 8 -30q1 -6 3.5 -20t4.5 -21q3 -26 3 -44t-7 -35q-27 -18 -52 -18h-29v-32h235zM318 430q0 -14 -44 -14h-81
q21 12 25 14q38 20 62 20q38 0 38 -20z" />
    <glyph glyph-name="glyph1557" unicode="&#x6bc;" horiz-adv-x="196" 
d="M164 476l-64 32l-29 -56l63 -32zM196 115v95q0 68 -11 99q-8 21 -36 55l-30 -63q30 -33 37 -49q11 -25 11 -70h-195v-67h224zM148 88q0 24 -14.5 41t-35.5 17q-23 0 -38.5 -23t-15.5 -53q0 -45 41 -45q26 0 44.5 19t18.5 44zM124 77q0 -13 -23 -13q-20 0 -29 4
q-13 4 -13 20q0 10 7 18t18 8q10 0 24 -13q16 -13 16 -24z" />
    <glyph glyph-name="glyph1558" unicode="&#x6bc;" horiz-adv-x="196" 
d="M164 476l-64 32l-29 -56l63 -32zM196 115v95q0 68 -11 99q-8 21 -36 55l-30 -63q30 -33 37 -49q11 -25 11 -70h-195v-67h224zM148 88q0 24 -14.5 41t-35.5 17q-23 0 -38.5 -23t-15.5 -53q0 -45 41 -45q26 0 44.5 19t18.5 44zM124 77q0 -13 -23 -13q-20 0 -29 4
q-13 4 -13 20q0 10 7 18t18 8q10 0 24 -13q16 -13 16 -24z" />
    <glyph glyph-name="glyph1556" unicode="&#x6bc;" horiz-adv-x="420" 
d="M276 414l-63 32l-28 -54l61 -34zM420 115v67q0 55 -7.5 87.5t-28.5 64.5l-32 -80q19 -21 28 -53q13 -33 13 -75q0 -58 -71 -90q-58 -26 -131 -26q-64 0 -98.5 25t-34.5 73q0 54 45 149l-16 7q-22 -46 -29 -65q-31 -77 -31 -138t45 -91q41 -28 120 -28q122 0 178 45
q50 41 50 128zM264 -84q0 24 -14.5 41t-35.5 17q-23 0 -38.5 -23t-15.5 -53q0 -45 41 -45q26 0 44.5 19t18.5 44zM240 -95q0 -13 -23 -13q-20 0 -29 4q-13 4 -13 20q0 10 7 18t18 8q10 0 24 -13q16 -13 16 -24z" />
    <glyph glyph-name="glyph1560" unicode="&#x6bd;" horiz-adv-x="420" 
d="M420 115v67q0 55 -7.5 87.5t-28.5 64.5l-32 -80q19 -21 28 -53q13 -33 13 -75q0 -58 -71 -90q-58 -26 -131 -26q-64 0 -98.5 25t-34.5 73q0 54 45 149l-16 7q-22 -46 -29 -65q-31 -77 -31 -138t45 -91q41 -28 120 -28q122 0 178 45q50 41 50 128zM233 545l-64 34l-28 -58
l62 -33zM311 476l-65 33l-29 -56l63 -34zM220 440l-64 33l-28 -57l63 -32z" />
    <glyph glyph-name="afii57470" unicode="&#x647;" horiz-adv-x="360" arabic-form="initial" 
d="M308 180q0 34 -37 93q-28 45 -75 101q-39 46 -64 70q-17 -31 -17 -32q-18 -33 -18 -41q0 -7 27 -26q-12 -3 -18 -8t-14 -20l-39 -67q-5 -11 -5 -22q0 -7 11 -18q14 -12 20 -16q-52 -12 -71 -12h-36v-67h36q36 0 61 9q23 8 66 33q25 -16 69 -37q45 -20 59 -20q15 0 30 30
q15 28 15 50zM171 265q0 -13 -10 -23q-7 -8 -26 -22q-47 27 -47 43q0 17 15 28.5t34 11.5q18 0 27 -11q7 -10 7 -27zM265 176q0 -12 -12 -12q-6 0 -27 8l-47 24q30 19 30 62q4 -4 16.5 -18.5t17.5 -20.5q22 -29 22 -43z" />
    <glyph glyph-name="glyph1563" unicode="&#x6bf;" horiz-adv-x="424" 
d="M424 115v67h-24q-17 5 -64 46q-61 57 -88 75q-54 39 -93 39q-40 0 -68 -26q-18 -15 -29 -46q19 3 40 3q32 0 64 -12q28 -9 62 -31q27 -15 67 -48h-319v-67h452zM276 22l-64 33l-29 -57l64 -33zM262 -84l-62 34l-30 -57l64 -33zM187 -14l-63 34l-31 -57l64 -33zM238 479
l-65 32l-30 -56l64 -33z" />
    <glyph glyph-name="glyph1564" unicode="&#x6bf;" horiz-adv-x="424" 
d="M424 115v67h-24q-17 5 -64 46q-61 57 -88 75q-54 39 -93 39q-40 0 -68 -26q-18 -15 -29 -46q19 3 40 3q32 0 64 -12q28 -9 62 -31q27 -15 67 -48h-319v-67h452zM276 22l-64 33l-29 -57l64 -33zM262 -84l-62 34l-30 -57l64 -33zM187 -14l-63 34l-31 -57l64 -33zM238 479
l-65 32l-30 -56l64 -33z" />
    <glyph glyph-name="glyph1562" unicode="&#x6bf;" horiz-adv-x="420" 
d="M420 115v67h-53q-30 0 -41 7q-19 10 -19 43v22q22 4 35 6q21 5 37 6l16 66q-56 -6 -79 -6q-33 0 -75 7q-46 8 -81 8q-69 0 -102 -33q-15 -17 -28 -53q15 3 52 11q26 3 64 3q37 0 64 -4q-69 -37 -80 -45q-51 -34 -76 -72q-33 -50 -33 -117q0 -77 39 -124q34 -42 101 -61
q54 -16 140 -16h23l88 62l-2 5h-71q-127 0 -204 36q-88 43 -88 127q0 54 44 96q35 33 97 60q40 16 100 35q-1 -6 -2.5 -13.5t-1.5 -9.5q-4 -20 -4 -38q0 -41 20 -58t67 -17h53zM281 97l-63 33l-30 -57l64 -33zM268 -8l-63 34l-30 -58l64 -33zM192 60l-63 34l-30 -56l64 -34z
M267 479l-65 32l-30 -56l64 -33z" />
    <glyph glyph-name="uni06C0" unicode="&#x6c0;" horiz-adv-x="226" arabic-form="isolated" 
d="M210 229q0 36 -47 68q-11 7 -85 47l-24 -66l6 -2l-25 -61q-14 -36 -14 -63q0 -24 22 -36q18 -12 47 -12q74 0 101 43q19 26 19 82zM175 199q0 -9 -26 -23q-26 -12 -47 -12q-18 0 -29.5 11.5t-11.5 30.5q0 13 11 30q4 4 21 24q21 -10 39 -21q43 -25 43 -40zM166 444
q-18 -6 -27 -6q-15 0 -32 10q-18 10 -18 16q0 12 26 12q14 0 25 -11q9 12 9 23q0 20 -18 20q-19 0 -41 -24q-21 -22 -21 -35q0 -7 8 -15q6 -6 19 -12q-39 -14 -39 -31l73 25q13 4 24 10q12 8 12 18z" />
    <glyph glyph-name="uni06C1" unicode="&#x6c1;" horiz-adv-x="310" arabic-form="final" 
d="M310 115v67h-23q-27 0 -62 42q-33 38 -55 38q-82 0 -160 -194l18 -11q24 50 52 88q39 55 66 55q11 0 25 -11l3 -3q3 -3 8.5 -9.5t12.5 -13.5q25 -28 43 -38t44 -10h28z" />
    <glyph glyph-name="glyph1571" unicode="&#x6c4;" horiz-adv-x="346" 
d="M346 138v44q0 54 -12 86q-15 40 -49 40t-56 -40q-18 -35 -18 -74q0 -45 30 -63q26 -17 78 -17q-28 -40 -47 -60q-34 -38 -67 -56q-42 -24 -89 -24q-12 0 -27.5 3t-34 7t-28.5 6l-6 -13l50 -18q34 -11 53 -14q25 -6 52 -6q70 0 123 71q48 65 48 128zM321 180q-73 0 -73 40
q0 10 8 17.5t19 7.5q15 0 25 -13q13 -13 21 -52zM253 31q0 24 -14.5 41t-35.5 17q-23 0 -38.5 -23t-15.5 -53q0 -45 41 -45q26 0 44.5 19t18.5 44zM229 20q0 -13 -23 -13q-20 0 -29 4q-13 4 -13 20q0 10 7 18t18 8q10 0 24 -13q16 -13 16 -24z" />
    <glyph glyph-name="uni06C5" unicode="&#x6c5;" horiz-adv-x="346" arabic-form="isolated" 
d="M346 138v44q0 126 -61 126q-34 0 -56 -40q-18 -35 -18 -74q0 -80 108 -80q-7 -9 -21 -29q-16 -2 -24 -2q-12 0 -47 9q-45 13 -55 13q-24 0 -42 -29l4 -5q13 5 20 5q6 0 51 -13q36 -10 55 -10q4 0 12 2l-4 -5q-30 -32 -63 -52q-41 -24 -89 -24q-18 0 -44 6l-46 10l-6 -13
l50 -18q23 -8 53 -14q25 -6 52 -6q70 0 123 71q48 65 48 128zM321 180q-73 0 -73 40q0 25 27 25q32 0 46 -65z" />
    <glyph glyph-name="uni06C6" unicode="&#x6c6;" horiz-adv-x="346" arabic-form="isolated" 
d="M346 138v44q0 54 -12 86q-15 40 -49 40t-56 -40q-18 -35 -18 -74q0 -45 30 -63q26 -17 78 -17q-28 -40 -47 -60q-34 -38 -67 -56q-42 -24 -89 -24q-12 0 -27.5 3t-34 7t-28.5 6l-6 -13l50 -18q34 -11 53 -14q25 -6 52 -6q70 0 123 71q48 65 48 128zM321 180q-73 0 -73 40
q0 10 8 17.5t19 7.5q15 0 25 -13q13 -13 21 -52zM348 468h-34l-30 -55l-30 55h-34l53 -90h22z" />
    <glyph glyph-name="uni06C7" unicode="&#x6c7;" horiz-adv-x="346" arabic-form="isolated" 
d="M346 138v44q0 54 -12 86q-15 40 -49 40t-56 -40q-18 -35 -18 -74q0 -45 30 -63q26 -17 78 -17q-28 -40 -47 -60q-34 -38 -67 -56q-42 -24 -89 -24q-12 0 -27.5 3t-34 7t-28.5 6l-6 -13l50 -18q34 -11 53 -14q25 -6 52 -6q70 0 123 71q48 65 48 128zM321 180q-73 0 -73 40
q0 10 8 17.5t19 7.5q15 0 25 -13q13 -13 21 -52zM332 425q0 9 -4 13q-7 5 -14 11q13 33 13 44q0 15 -8.5 26.5t-18.5 11.5q-18 0 -33 -20t-15 -46q0 -11 8 -22q6 -8 19 -15q-11 -14 -39 -35q-28 -24 -48 -32h29q20 0 48 28l27 28l32 -19q0 3 2 12.5t2 14.5zM303 470
q0 -4 -4 -11l-17 14q-10 7 -10 17q0 8 8 8t15.5 -8.5t7.5 -19.5z" />
    <glyph glyph-name="uni06C8" unicode="&#x6c8;" horiz-adv-x="346" arabic-form="isolated" 
d="M346 138v44q0 54 -12 86q-15 40 -49 40t-56 -40q-18 -35 -18 -74q0 -45 30 -63q26 -17 78 -17q-28 -40 -47 -60q-34 -38 -67 -56q-42 -24 -89 -24q-12 0 -27.5 3t-34 7t-28.5 6l-6 -13l50 -18q34 -11 53 -14q25 -6 52 -6q70 0 123 71q48 65 48 128zM321 180q-73 0 -73 40
q0 10 8 17.5t19 7.5q15 0 25 -13q13 -13 21 -52zM286 410q0 52 -21 182q-3 -6 -9.5 -17.5t-9.5 -16.5q19 -124 19 -176q0 -1 -2 -21l4 -1q19 28 19 50z" />
    <glyph glyph-name="uni06C9" unicode="&#x6c9;" horiz-adv-x="346" arabic-form="isolated" 
d="M346 138v44q0 54 -12 86q-15 40 -49 40t-56 -40q-18 -35 -18 -74q0 -45 30 -63q26 -17 78 -17q-28 -40 -47 -60q-34 -38 -67 -56q-42 -24 -89 -24q-12 0 -27.5 3t-34 7t-28.5 6l-6 -13l50 -18q34 -11 53 -14q25 -6 52 -6q70 0 123 71q48 65 48 128zM321 180q-73 0 -73 40
q0 10 8 17.5t19 7.5q15 0 25 -13q13 -13 21 -52zM348 378l-53 90h-22l-53 -90h34l30 55l30 -55h34z" />
    <glyph glyph-name="glyph1583" unicode="&#x6ca;" horiz-adv-x="346" 
d="M346 138v44q0 54 -12 86q-15 40 -49 40t-56 -40q-18 -35 -18 -74q0 -45 30 -63q26 -17 78 -17q-28 -40 -47 -60q-34 -38 -67 -56q-42 -24 -89 -24q-12 0 -27.5 3t-34 7t-28.5 6l-6 -13l50 -18q34 -11 53 -14q25 -6 52 -6q70 0 123 71q48 65 48 128zM321 180q-73 0 -73 40
q0 10 8 17.5t19 7.5q15 0 25 -13q13 -13 21 -52zM345 466l-63 33l-30 -57l64 -33zM256 430l-64 34l-30 -57l65 -33z" />
    <glyph glyph-name="uni06CB" unicode="&#x6cb;" horiz-adv-x="346" arabic-form="isolated" 
d="M346 138v44q0 54 -12 86q-15 40 -49 40t-56 -40q-18 -35 -18 -74q0 -45 30 -63q26 -17 78 -17q-28 -40 -47 -60q-34 -38 -67 -56q-42 -24 -89 -24q-12 0 -27.5 3t-34 7t-28.5 6l-6 -13l50 -18q34 -11 53 -14q25 -6 52 -6q70 0 123 71q48 65 48 128zM321 180q-73 0 -73 40
q0 10 8 17.5t19 7.5q15 0 25 -13q13 -13 21 -52zM272 535l-64 34l-28 -58l62 -33zM350 466l-65 33l-29 -56l63 -34zM259 430l-64 33l-28 -57l63 -32z" />
    <glyph glyph-name="afii57555" unicode="&#x6cc;" horiz-adv-x="510" arabic-form="isolated" 
d="M484 313q0 26 -14.5 41.5t-40.5 15.5q-40 0 -80 -40q-33 -33 -57 -82q-21 -44 -21 -70q0 -20 12.5 -32t30.5 -12h91q21 0 21 -12q0 -11 -43 -33q-39 -20 -96 -38q-60 -19 -108 -19q-127 0 -127 95q0 63 50 149l-17 8l-24 -48q-16 -33 -28 -71q-13 -42 -13 -84
q0 -61 40 -89q36 -27 105 -27q134 0 213 47q86 51 86 149q0 26 -19 29t-33 3q-9 1 -41 1h-31q-38 0 -38 15q0 20 35 58q37 40 71 40q43 0 71 -39q5 40 5 45z" />
    <glyph glyph-name="glyph1587" unicode="&#x6cd;" horiz-adv-x="471" 
d="M471 115v67h-68q-35 0 -63 -9q-92 -27 -92 -116q0 -26 46 -26q16 0 30 -1q7 0 14.5 -0.5t11.5 -1t6 -0.5q15 -1 20 -4q6 -3 6 -10q0 -19 -52 -29q-46 -8 -99 -8q-69 0 -114 16q-66 24 -66 81q0 29 22 70q22 40 29 50l-16 8l-114 -59v-24l92 48q-9 -15 -25 -43
q-25 -50 -25 -96q0 -64 66 -94q47 -22 120 -22q98 0 149 23q72 33 72 120q0 14 -11 20q-8 3 -26 6q-48 5 -66 5q-36 0 -36 13q0 16 121 16h68z" />
    <glyph glyph-name="glyph1590" unicode="&#x6ce;" horiz-adv-x="196" 
d="M196 115v95q0 68 -11 99q-8 21 -36 55l-30 -63q30 -33 37 -49q11 -25 11 -70h-195v-67h224zM194 36l-65 33l-29 -56l63 -33zM103 1l-64 33l-28 -56l63 -33zM196 496h-34l-30 -55l-30 55h-34l53 -90h22z" />
    <glyph glyph-name="glyph1591" unicode="&#x6ce;" horiz-adv-x="196" 
d="M196 115v95q0 68 -11 99q-8 21 -36 55l-30 -63q30 -33 37 -49q11 -25 11 -70h-195v-67h224zM194 36l-65 33l-29 -56l63 -33zM103 1l-64 33l-28 -56l63 -33zM196 496h-34l-30 -55l-30 55h-34l53 -90h22z" />
    <glyph glyph-name="glyph1589" unicode="&#x6ce;" horiz-adv-x="471" 
d="M471 115v67h-68q-33 0 -63 -9q-41 -12 -63 -37q-29 -31 -29 -79q0 -26 46 -26q4 0 29.5 -1.5t32.5 -1.5q26 0 26 -14q0 -19 -52 -29q-46 -8 -99 -8q-82 0 -131 23q-49 25 -49 74q0 27 22 70q4 7 29 50l-16 8q-40 -64 -47 -78q-25 -50 -25 -96q0 -56 53 -88
q49 -28 133 -28q120 0 173 36q48 33 48 107q0 14 -11 20q-6 3 -26 6q-39 4 -41 4q-6 1 -25 1q-36 0 -36 13q0 16 121 16h68zM270 339h-34l-30 -55l-30 55h-34l53 -90h22z" />
    <glyph glyph-name="glyph1593" unicode="&#x6cf;" horiz-adv-x="346" 
d="M346 138v44q0 54 -12 86q-15 40 -49 40t-56 -40q-18 -35 -18 -74q0 -45 30 -63q26 -17 78 -17q-28 -40 -47 -60q-34 -38 -67 -56q-42 -24 -89 -24q-12 0 -27.5 3t-34 7t-28.5 6l-6 -13l50 -18q34 -11 53 -14q25 -6 52 -6q70 0 123 71q48 65 48 128zM321 180q-73 0 -73 40
q0 10 8 17.5t19 7.5q15 0 25 -13q13 -13 21 -52zM288 436l-65 32l-30 -56l64 -33z" />
    <glyph glyph-name="uni06D0" unicode="&#x6d0;" horiz-adv-x="510" arabic-form="isolated" 
d="M484 313q0 26 -14.5 41.5t-40.5 15.5q-40 0 -80 -40q-33 -33 -57 -82q-21 -44 -21 -70q0 -20 12.5 -32t30.5 -12h91q21 0 21 -12q0 -11 -43 -33q-39 -20 -96 -38q-60 -19 -108 -19q-127 0 -127 95q0 63 50 149l-17 8l-24 -48q-16 -33 -28 -71q-13 -42 -13 -84
q0 -61 40 -89q36 -27 105 -27q134 0 213 47q86 51 86 149q0 26 -19 29t-33 3q-9 1 -41 1h-31q-38 0 -38 15q0 20 35 58q37 40 71 40q43 0 71 -39q5 40 5 45zM236 -75l-35 10l-15 -28l37 -10zM246 -117l-36 9l-14 -27l37 -10z" />
    <glyph glyph-name="glyph1599" unicode="&#x6d1;" horiz-adv-x="471" 
d="M471 115v67h-68q-33 0 -63 -9q-41 -12 -63 -37q-29 -31 -29 -79q0 -26 46 -26q4 0 29.5 -1.5t32.5 -1.5q26 0 26 -14q0 -19 -52 -29q-46 -8 -99 -8q-82 0 -131 23q-49 25 -49 74q0 27 22 70q4 7 29 50l-16 8q-40 -64 -47 -78q-25 -50 -25 -96q0 -56 53 -88
q49 -28 133 -28q120 0 173 36q48 33 48 107q0 14 -11 20q-6 3 -26 6q-39 4 -41 4q-6 1 -25 1q-36 0 -36 13q0 16 121 16h68zM283 -103l-40 11l-13 -27l40 -11zM270 -142l-40 11l-13 -27l40 -11zM221 -123l-40 12l-13 -28l40 -11z" />
    <glyph glyph-name="uni06D2" unicode="&#x6d2;" horiz-adv-x="650" arabic-form="isolated" 
d="M650 44v4h-553q-37 0 -37 12q0 9 47 32l98 50q13 6 26 27q20 31 21 32q26 30 47 30q24 0 48 -49q4 16 4 48q0 28 -9 47q-10 21 -26 21q-12 0 -25 -11l-3 -4q-4 -4 -11 -11.5t-15 -16.5q-36 -41 -71 -62q-23 -13 -69 -37q-50 -27 -61 -40q-14 -17 -24 -52q-11 -34 -9 -60
q0 -12 11 -18t55 -6h457z" />
    <glyph glyph-name="uni06D3" unicode="&#x6d3;" horiz-adv-x="650" arabic-form="isolated" 
d="M650 44v4h-553q-37 0 -37 12q0 9 47 32l98 50q13 6 26 27q20 31 21 32q26 30 47 30q24 0 48 -49q4 16 4 48q0 28 -9 47q-10 21 -26 21q-12 0 -25 -11l-3 -4q-4 -4 -11 -11.5t-15 -16.5q-36 -41 -71 -62q-23 -13 -69 -37q-50 -27 -61 -40q-14 -17 -24 -52q-11 -34 -9 -60
q0 -12 11 -18t55 -6h457zM260 327q-18 -6 -27 -6q-15 0 -32 10q-18 11 -18 16q0 12 26 12q14 0 25 -11q9 12 9 23q0 20 -18 20q-19 0 -41 -24q-21 -23 -21 -35q0 -7 8 -15q6 -6 19 -12q-39 -13 -39 -31l73 25q13 4 24 10q12 7 12 18z" />
    <glyph glyph-name="glyph1630" unicode="&#x6fa;" horiz-adv-x="425" 
d="M425 115v93q0 44 -9 71q-6 19 -22 42l-25 -43q11 -14 19 -26q16 -23 16 -46q0 -22 -24 -22q-21 0 -35 14q-15 15 -26 61l-9 36l-16 -23q6 -26 6 -48q0 -23 -16 -33q-14 -9 -43 -9h-26q-25 0 -43 18q-14 13 -27 43q-4 9 -19 52l-16 -23q6 -23 6 -48q0 -28 -23 -36
q-13 -6 -45 -6h-76v-67h76q35 0 50.5 4.5t34.5 19.5q18 -11 33 -16q22 -8 40 -8h26q37 0 55 7q12 4 32 18q30 -25 76 -25h30zM391 20l-65 32l-30 -56l64 -33zM272 545l-64 34l-28 -58l62 -33zM350 476l-65 33l-29 -56l63 -34zM259 440l-64 33l-28 -57l63 -32z" />
    <glyph glyph-name="glyph1631" unicode="&#x6fa;" horiz-adv-x="425" 
d="M425 115v93q0 44 -9 71q-6 19 -22 42l-25 -43q11 -14 19 -26q16 -23 16 -46q0 -22 -24 -22q-21 0 -35 14q-15 15 -26 61l-9 36l-16 -23q6 -26 6 -48q0 -23 -16 -33q-14 -9 -43 -9h-26q-25 0 -43 18q-14 13 -27 43q-4 9 -19 52l-16 -23q6 -23 6 -48q0 -28 -23 -36
q-13 -6 -45 -6h-76v-67h76q35 0 50.5 4.5t34.5 19.5q18 -11 33 -16q22 -8 40 -8h26q37 0 55 7q12 4 32 18q30 -25 76 -25h30zM391 20l-65 32l-30 -56l64 -33zM272 545l-64 34l-28 -58l62 -33zM350 476l-65 33l-29 -56l63 -34zM259 440l-64 33l-28 -57l63 -32z" />
    <glyph glyph-name="glyph1629" unicode="&#x6fa;" horiz-adv-x="657" 
d="M657 115v93q0 46 -9 72q-6 15 -22 41l-26 -43q15 -16 24 -33q12 -22 12 -41q0 -20 -19 -20q-29 0 -45 19q-15 16 -24 55l-6 37l-15 -23q5 -24 5 -48q0 -20 -13 -30q-17 -12 -53 -12h-48q0 62 -10 95q-8 25 -27 57l-32 -80q22 -26 32 -53q15 -36 15 -75q0 -59 -73 -90
q-61 -26 -135 -26q-64 0 -98.5 25t-34.5 73q0 54 45 149l-16 7q-22 -46 -29 -65q-31 -77 -31 -138t45 -91q41 -28 120 -28q87 0 143 32q46 25 69 70q17 36 17 71h48q36 0 53 7q13 4 29 19q34 -26 78 -26h31zM624 20l-65 32l-30 -56l64 -33zM506 545l-64 34l-28 -58l62 -33z
M584 476l-65 33l-29 -56l63 -34zM493 440l-64 33l-28 -57l63 -32z" />
    <glyph glyph-name="glyph1634" unicode="&#x6fb;" horiz-adv-x="677" 
d="M428 439l-64 33l-29 -57l64 -33zM677 115v98q0 52 -25 80q-27 31 -80 31q-34 0 -64 -9q-23 -8 -56 -30q-10 -6 -69 -47q-32 -23 -83 -41q-44 -15 -76 -15q-35 0 -60 31q-24 29 -38 82l-16 -23q6 -29 6 -48q0 -28 -23 -36q-13 -6 -45 -6h-76v-67h76q35 0 51 4.5t34 19.5
q20 -12 34 -17q18 -7 40 -7h470zM613 212q0 -30 -81 -30h-180l87 45q57 26 95 26q33 0 56 -11t23 -30zM453 20l-65 32l-30 -56l64 -33z" />
    <glyph glyph-name="glyph1635" unicode="&#x6fb;" horiz-adv-x="677" 
d="M428 439l-64 33l-29 -57l64 -33zM677 115v98q0 52 -25 80q-27 31 -80 31q-34 0 -64 -9q-23 -8 -56 -30q-10 -6 -69 -47q-32 -23 -83 -41q-44 -15 -76 -15q-35 0 -60 31q-24 29 -38 82l-16 -23q6 -29 6 -48q0 -28 -23 -36q-13 -6 -45 -6h-76v-67h76q35 0 51 4.5t34 19.5
q20 -12 34 -17q18 -7 40 -7h470zM613 212q0 -30 -81 -30h-180l87 45q57 26 95 26q33 0 56 -11t23 -30zM453 20l-65 32l-30 -56l64 -33z" />
    <glyph glyph-name="glyph1633" unicode="&#x6fb;" horiz-adv-x="878" 
d="M619 439l-64 33l-30 -57l63 -33zM878 115v98q0 51 -24 80q-25 31 -80 31q-36 0 -64 -9q-28 -10 -58 -30l-68 -47q-34 -26 -73 -41q-41 -15 -86 -15h-7q0 62 -10 95q-8 25 -27 57l-32 -80q22 -26 32 -53q15 -36 15 -75q0 -59 -73 -90q-61 -26 -135 -26q-64 0 -98.5 25
t-34.5 73q0 54 45 149l-16 7q-22 -46 -29 -65q-31 -77 -31 -138t45 -91q41 -28 120 -28q113 0 169 51q46 41 56 122h464zM815 212q0 -30 -82 -30h-180l57 30q40 21 62 29q34 12 63 12q34 0 57 -11t23 -30zM694 20l-65 32l-30 -56l64 -33z" />
    <glyph glyph-name="glyph1638" unicode="&#x6fc;" horiz-adv-x="420" 
d="M212 478l-64 33l-29 -57l64 -33zM376 236q-65 -20 -115 -31q-41 -9 -105 -18q-30 17 -49.5 41t-19.5 43q0 20 31 32t85 12q32 0 92 -15l8 7q-31 37 -45 48q-32 23 -79 23q-61 0 -99.5 -31t-38.5 -78q0 -46 26 -87h-95v-67h98q62 0 143 14q77 15 136 36zM273 20l-65 32
l-30 -56l64 -33z" />
    <glyph glyph-name="glyph1639" unicode="&#x6fc;" horiz-adv-x="316" 
d="M182 478l-64 33l-29 -57l63 -33zM316 115v67h-58q-14 0 -31 6.5t-23 15.5q30 25 39 37q14 19 14 35q0 32 -37 47q-28 11 -72 11q-49 0 -71 -14q-23 -17 -23 -59v-23h8q11 14 25 14q16 0 29 -16l16 -20q-31 -19 -64 -27q-25 -7 -60 -7h-36v-67h36q54 0 93 16q35 12 60 36
q14 -26 45 -41q27 -11 52 -11h58zM215 20l-65 32l-30 -56l64 -33z" />
    <glyph glyph-name="glyph1637" unicode="&#x6fc;" horiz-adv-x="360" 
d="M234 478l-63 33l-30 -57l63 -33zM388 -107l-1 3q-74 0 -126 5q-91 11 -138 38q-67 36 -67 102q0 30 22 61q18 25 49 52q13 12 52 38q19 -42 52 -59.5t93 -17.5h36v67h-36q-30 0 -50 10.5t-42 37.5l22 18q15 14 15 33q0 29 -27 48q-23 16 -58 16q-50 0 -71 -37
q-11 -16 -18 -57h7q11 14 20 14q20 0 26 -26q-40 -39 -57 -57q-32 -37 -49 -73q-21 -47 -21 -99q0 -81 55 -126q45 -35 119 -47q38 -7 114 -7zM281 36l-65 32l-30 -56l64 -33z" />
    <glyph glyph-name="uniFB51" unicode="&#x671;" horiz-adv-x="184" arabic-form="final" 
d="M184 115v67h-55q-13 0 -24 17q-13 19 -21 89q-3 157 -7 192q-6 68 -22 112l-48 -76q15 -13 24 -32q13 -30 18 -111q4 -64 5 -89q8 -116 32 -148q16 -21 43 -21h55zM137 674q0 39 -32 39q-44 0 -91 -62h-9q-30 0 -30 -26q0 -21 19 -39v7q-1 3 -1 7q0 17 12 17h65
q29 0 48 19q19 16 19 38zM102 674q0 -23 -35 -23h-32q35 38 55 38q12 0 12 -15z" />
    <glyph glyph-name="uniFB53" unicode="&#x67b;" horiz-adv-x="571" arabic-form="final" 
d="M571 115v105q0 84 -27 128q-1 1 -4 5t-7 10t-9 12l-31 -64q47 -34 47 -118v-11h-331q-66 0 -109 23q-49 25 -49 71q0 22 11 50q5 12 17 36l-11 8q-23 -39 -29 -53q-17 -39 -17 -73q0 -71 56 -104q44 -25 120 -25h373zM354 22l-64 33l-29 -57l64 -33zM372 -76l-62 34
l-31 -58l64 -32z" />
    <glyph glyph-name="uniFB54" unicode="&#x67b;" horiz-adv-x="196" arabic-form="initial" 
d="M196 115v95q0 68 -11 99q-8 21 -36 55l-30 -63q30 -33 37 -49q11 -25 11 -70h-195v-67h224zM135 22l-64 33l-29 -57l64 -33zM153 -76l-62 34l-31 -58l64 -32z" />
    <glyph glyph-name="uniFB55" unicode="&#x67b;" horiz-adv-x="196" arabic-form="medial" 
d="M196 115v95q0 68 -11 99q-8 21 -36 55l-30 -63q30 -33 37 -49q11 -25 11 -70h-195v-67h224zM135 22l-64 33l-29 -57l64 -33zM153 -76l-62 34l-31 -58l64 -32z" />
    <glyph glyph-name="afii62958" unicode="&#x67e;" horiz-adv-x="571" arabic-form="final" 
d="M571 115v105q0 84 -27 128q-1 1 -4 5t-7 10t-9 12l-31 -64q47 -34 47 -118v-11h-331q-66 0 -109 23q-49 25 -49 71q0 22 11 50q5 12 17 36l-11 8q-23 -39 -29 -53q-17 -39 -17 -73q0 -71 56 -104q44 -25 120 -25h373zM397 22l-63 33l-29 -57l64 -33zM384 -84l-62 34
l-30 -57l64 -33zM308 -14l-63 34l-30 -57l64 -33z" />
    <glyph glyph-name="afii62956" unicode="&#x67e;" horiz-adv-x="196" arabic-form="initial" 
d="M189 22l-63 33l-30 -57l64 -33zM176 -84l-63 34l-29 -57l63 -33zM100 -14l-64 34l-30 -57l65 -33zM196 115v95q0 68 -11 99q-8 21 -36 55l-30 -63q30 -33 37 -49q11 -25 11 -70h-195v-67h224z" />
    <glyph glyph-name="afii52957" unicode="&#x67e;" horiz-adv-x="196" arabic-form="medial" 
d="M189 22l-63 33l-30 -57l64 -33zM176 -84l-63 34l-29 -57l63 -33zM100 -14l-64 34l-30 -57l65 -33zM196 115v95q0 68 -11 99q-8 21 -36 55l-30 -63q30 -33 37 -49q11 -25 11 -70h-195v-67h224z" />
    <glyph glyph-name="uniFB5B" unicode="&#x680;" horiz-adv-x="571" arabic-form="final" 
d="M571 115v105q0 84 -27 128q-1 1 -4 5t-7 10t-9 12l-31 -64q47 -34 47 -118v-11h-331q-66 0 -109 23q-49 25 -49 71q0 22 11 50q5 12 17 36l-11 8q-23 -39 -29 -53q-17 -39 -17 -73q0 -71 56 -104q44 -25 120 -25h373zM391 21l-64 34l-29 -58l62 -33zM409 -76l-65 32
l-29 -56l64 -32zM319 -112l-64 33l-29 -56l63 -33zM271 -71l30 56l-65 35l-28 -56z" />
    <glyph glyph-name="uniFB5C" unicode="&#x680;" horiz-adv-x="196" arabic-form="initial" 
d="M196 115v95q0 68 -11 99q-8 21 -36 55l-30 -63q30 -33 37 -49q11 -25 11 -70h-195v-67h224zM180 21l-64 34l-29 -58l62 -33zM198 -76l-65 32l-29 -56l64 -32zM108 -112l-64 33l-29 -56l63 -33zM60 -71l30 56l-65 35l-28 -56z" />
    <glyph glyph-name="uniFB5D" unicode="&#x680;" horiz-adv-x="196" arabic-form="medial" 
d="M196 115v95q0 68 -11 99q-8 21 -36 55l-30 -63q30 -33 37 -49q11 -25 11 -70h-195v-67h224zM180 21l-64 34l-29 -58l62 -33zM198 -76l-65 32l-29 -56l64 -32zM108 -112l-64 33l-29 -56l63 -33zM60 -71l30 56l-65 35l-28 -56z" />
    <glyph glyph-name="uniFB5F" unicode="&#x67a;" horiz-adv-x="571" arabic-form="final" 
d="M571 115v105q0 84 -27 128q-1 1 -4 5t-7 10t-9 12l-31 -64q47 -34 47 -118v-11h-331q-66 0 -109 23q-49 25 -49 71q0 22 11 50q5 12 17 36l-11 8q-23 -39 -29 -53q-17 -39 -17 -73q0 -71 56 -104q44 -25 120 -25h373zM331 569l-64 33l-29 -57l64 -33zM349 471l-62 34
l-31 -58l64 -32z" />
    <glyph glyph-name="uniFB60" unicode="&#x67a;" horiz-adv-x="196" arabic-form="initial" 
d="M196 115v95q0 68 -11 99q-8 21 -36 55l-30 -63q30 -33 37 -49q11 -25 11 -70h-195v-67h224zM119 569l-64 33l-29 -57l64 -33zM137 471l-62 34l-31 -58l64 -32z" />
    <glyph glyph-name="uniFB61" unicode="&#x67a;" horiz-adv-x="196" arabic-form="medial" 
d="M196 115v95q0 68 -11 99q-8 21 -36 55l-30 -63q30 -33 37 -49q11 -25 11 -70h-195v-67h224zM119 569l-64 33l-29 -57l64 -33zM137 471l-62 34l-31 -58l64 -32z" />
    <glyph glyph-name="uniFB63" unicode="&#x67f;" horiz-adv-x="571" arabic-form="final" 
d="M571 115v105q0 84 -27 128q-1 1 -4 5t-7 10t-9 12l-31 -64q47 -34 47 -118v-11h-331q-66 0 -109 23q-49 25 -49 71q0 22 11 50q5 12 17 36l-11 8q-23 -39 -29 -53q-17 -39 -17 -73q0 -71 56 -104q44 -25 120 -25h373zM376 568l-64 34l-29 -58l62 -33zM394 471l-65 32
l-29 -56l64 -32zM304 435l-64 33l-29 -56l63 -33zM256 476l30 56l-65 35l-28 -56z" />
    <glyph glyph-name="uniFB64" unicode="&#x67f;" horiz-adv-x="196" arabic-form="initial" 
d="M196 115v95q0 68 -11 99q-8 21 -36 55l-30 -63q30 -33 37 -49q11 -25 11 -70h-195v-67h224zM164 568l-64 34l-29 -58l62 -33zM182 471l-65 32l-29 -56l64 -32zM92 435l-64 33l-29 -56l63 -33zM44 476l30 56l-65 35l-28 -56z" />
    <glyph glyph-name="uniFB65" unicode="&#x67f;" horiz-adv-x="196" arabic-form="medial" 
d="M196 115v95q0 68 -11 99q-8 21 -36 55l-30 -63q30 -33 37 -49q11 -25 11 -70h-195v-67h224zM164 568l-64 34l-29 -58l62 -33zM182 471l-65 32l-29 -56l64 -32zM92 435l-64 33l-29 -56l63 -33zM44 476l30 56l-65 35l-28 -56z" />
    <glyph glyph-name="uniFB67" unicode="&#x679;" horiz-adv-x="571" arabic-form="final" 
d="M571 115v105q0 84 -27 128q-1 1 -4 5t-7 10t-9 12l-31 -64q47 -34 47 -118v-11h-331q-66 0 -109 23q-49 25 -49 71q0 22 11 50q5 12 17 36l-11 8q-23 -39 -29 -53q-17 -39 -17 -73q0 -71 56 -104q44 -25 120 -25h373zM411 415v46q0 54 -49 54q-17 0 -47 -14
q-16 -7 -42 -23q1 4 1.5 8t1.5 7t1 4q3 17 3 29q0 35 -16 83l3 -1l6 -2q7 24 7 38q-14 2 -20 4q-11 4 -16 14q-6 -13 -11 -42l12 -5q2 -10 8 -30q1 -6 3.5 -20t4.5 -21q3 -26 3 -44t-7 -35q-27 -18 -52 -18h-29v-32h235zM382 461q0 -14 -44 -14h-81q21 12 25 14q38 20 62 20
q38 0 38 -20z" />
    <glyph glyph-name="uniFB68" unicode="&#x679;" horiz-adv-x="196" arabic-form="initial" 
d="M196 115v95q0 68 -11 99q-8 21 -36 55l-30 -63q30 -33 37 -49q11 -25 11 -70h-195v-67h224zM215 415v46q0 54 -49 54q-17 0 -47 -14q-16 -7 -42 -23q1 4 1.5 8t1.5 7t1 4q3 17 3 29q0 35 -16 83l3 -1l6 -2q7 24 7 38q-14 2 -20 4q-11 4 -16 14q-6 -13 -11 -42l12 -5
q2 -10 8 -30q1 -6 3.5 -20t4.5 -21q3 -26 3 -44t-7 -35q-27 -18 -52 -18h-29v-32h235zM186 461q0 -14 -44 -14h-81q21 12 25 14q38 20 62 20q38 0 38 -20z" />
    <glyph glyph-name="uniFB69" unicode="&#x679;" horiz-adv-x="196" arabic-form="medial" 
d="M196 115v95q0 68 -11 99q-8 21 -36 55l-30 -63q30 -33 37 -49q11 -25 11 -70h-195v-67h224zM215 415v46q0 54 -49 54q-17 0 -47 -14q-16 -7 -42 -23q1 4 1.5 8t1.5 7t1 4q3 17 3 29q0 35 -16 83l3 -1l6 -2q7 24 7 38q-14 2 -20 4q-11 4 -16 14q-6 -13 -11 -42l12 -5
q2 -10 8 -30q1 -6 3.5 -20t4.5 -21q3 -26 3 -44t-7 -35q-27 -18 -52 -18h-29v-32h235zM186 461q0 -14 -44 -14h-81q21 12 25 14q38 20 62 20q38 0 38 -20z" />
    <glyph glyph-name="uniFB6B" unicode="&#x6a4;" horiz-adv-x="631" arabic-form="final" 
d="M631 115v113q0 70 -15 108q-16 46 -55 46q-34 0 -61 -47q-24 -41 -24 -77q0 -28 24 -46q23 -17 68 -30h-288q-122 0 -179 25t-57 77q0 28 28 83l-15 9q-6 -12 -21 -47q-21 -47 -21 -81q0 -53 34 -84q31 -26 91 -40q49 -9 133 -9h358zM590 233q-33 7 -45 15q-16 10 -16 28
q0 31 27 31q18 0 27 -22q7 -17 7 -52zM545 584l-64 34l-28 -58l62 -33zM623 515l-65 33l-29 -56l63 -34zM532 479l-64 33l-28 -57l63 -32z" />
    <glyph glyph-name="uniFB6C" unicode="&#x6a4;" horiz-adv-x="214" arabic-form="initial" 
d="M214 115v101q0 84 -21 145q-25 75 -74 75q-35 0 -57 -46q-19 -39 -19 -95q0 -30 20 -47q19 -14 46 -14q17 0 32 4q19 6 31 10q8 -34 8 -66h-208v-67h242zM150 317q-21 -12 -38 -12q-35 0 -35 31q0 12 7 20.5t17 8.5q15 0 31 -19q13 -13 18 -29zM100 623l-64 34l-28 -58
l62 -33zM178 554l-65 33l-29 -56l63 -34zM87 518l-64 33l-28 -57l63 -32z" />
    <glyph glyph-name="uniFB6D" unicode="&#x6a4;" horiz-adv-x="210" arabic-form="medial" 
d="M210 115v134q0 56 -16 95q-21 51 -61 51q-33 0 -59 -41q-22 -37 -22 -78q0 -47 46 -66q20 -8 87 -18q-35 -10 -78 -10h-135v-67h238zM175 251q-42 3 -51 7q-32 11 -32 40q0 11 8 19.5t19 8.5q22 0 39 -29q9 -18 17 -46zM108 623l-64 34l-28 -58l62 -33zM186 554l-65 33
l-29 -56l63 -34zM95 518l-64 33l-28 -57l63 -32z" />
    <glyph glyph-name="uniFB6F" unicode="&#x6a6;" horiz-adv-x="631" arabic-form="final" 
d="M631 115v113q0 70 -15 108q-16 46 -55 46q-34 0 -61 -47q-24 -41 -24 -77q0 -28 24 -46q23 -17 68 -30h-288q-122 0 -179 25t-57 77q0 28 28 83l-15 9q-6 -12 -21 -47q-21 -47 -21 -81q0 -53 34 -84q31 -26 91 -40q49 -9 133 -9h358zM590 233q-33 7 -45 15q-16 10 -16 28
q0 31 27 31q18 0 27 -22q7 -17 7 -52zM609 607l-64 34l-29 -58l62 -33zM627 510l-65 32l-29 -56l64 -32zM537 474l-64 33l-29 -56l63 -33zM489 515l30 56l-65 35l-28 -56z" />
    <glyph glyph-name="uniFB70" unicode="&#x6a6;" horiz-adv-x="214" arabic-form="initial" 
d="M214 115v101q0 84 -21 145q-25 75 -74 75q-35 0 -57 -46q-19 -39 -19 -95q0 -30 20 -47q19 -14 46 -14q17 0 32 4q19 6 31 10q8 -34 8 -66h-208v-67h242zM150 317q-21 -12 -38 -12q-35 0 -35 31q0 12 7 20.5t17 8.5q15 0 31 -19q13 -13 18 -29zM164 638l-64 34l-29 -58
l62 -33zM182 541l-65 32l-29 -56l64 -32zM92 505l-64 33l-29 -56l63 -33zM44 546l30 56l-65 35l-28 -56z" />
    <glyph glyph-name="uniFB71" unicode="&#x6a6;" horiz-adv-x="210" arabic-form="medial" 
d="M210 115v134q0 56 -16 95q-21 51 -61 51q-33 0 -59 -41q-22 -37 -22 -78q0 -47 46 -66q20 -8 87 -18q-35 -10 -78 -10h-135v-67h238zM175 251q-42 3 -51 7q-32 11 -32 40q0 11 8 19.5t19 8.5q22 0 39 -29q9 -18 17 -46zM164 638l-64 34l-29 -58l62 -33zM182 541l-65 32
l-29 -56l64 -32zM92 505l-64 33l-29 -56l63 -33zM44 546l30 56l-65 35l-28 -56z" />
    <glyph glyph-name="uniFB73" unicode="&#x684;" horiz-adv-x="420" arabic-form="final" 
d="M420 115v67h-53q-30 0 -41 7q-19 10 -19 43v22q22 4 35 6q21 5 37 6l16 66q-56 -6 -79 -6q-33 0 -75 7q-46 8 -81 8q-69 0 -102 -33q-15 -17 -28 -53q15 3 52 11q26 3 64 3q37 0 64 -4q-69 -37 -80 -45q-51 -34 -76 -72q-33 -50 -33 -117q0 -77 39 -124q34 -42 101 -61
q54 -16 140 -16h23l88 62l-2 5h-71q-127 0 -204 36q-88 43 -88 127q0 54 44 96q35 33 97 60q40 16 100 35q-1 -6 -2.5 -13.5t-1.5 -9.5q-4 -20 -4 -38q0 -41 20 -58t67 -17h53zM244 115l-64 33l-29 -57l64 -33zM262 17l-62 34l-31 -58l64 -32z" />
    <glyph glyph-name="uniFB74" unicode="&#x684;" horiz-adv-x="424" arabic-form="initial" 
d="M424 115v67h-24q-17 5 -64 46q-61 57 -88 75q-54 39 -93 39q-40 0 -68 -26q-18 -15 -29 -46q19 3 40 3q32 0 64 -12q28 -9 62 -31q27 -15 67 -48h-319v-67h452zM236 22l-64 33l-29 -57l64 -33zM254 -76l-62 34l-31 -58l64 -32z" />
    <glyph glyph-name="uniFB75" unicode="&#x684;" horiz-adv-x="424" arabic-form="medial" 
d="M424 115v67h-24q-17 5 -64 46q-61 57 -88 75q-54 39 -93 39q-40 0 -68 -26q-18 -15 -29 -46q19 3 40 3q32 0 64 -12q28 -9 62 -31q27 -15 67 -48h-319v-67h452zM236 22l-64 33l-29 -57l64 -33zM254 -76l-62 34l-31 -58l64 -32z" />
    <glyph glyph-name="uniFB77" unicode="&#x683;" horiz-adv-x="420" arabic-form="final" 
d="M420 115v67h-53q-30 0 -41 7q-19 10 -19 43v22q22 4 35 6q21 5 37 6l16 66q-56 -6 -79 -6q-33 0 -75 7q-46 8 -81 8q-69 0 -102 -33q-15 -17 -28 -53q15 3 52 11q26 3 64 3q37 0 64 -4q-69 -37 -80 -45q-51 -34 -76 -72q-33 -50 -33 -117q0 -77 39 -124q34 -42 101 -61
q54 -16 140 -16h23l88 62l-2 5h-71q-127 0 -204 36q-88 43 -88 127q0 54 44 96q35 33 97 60q40 16 100 35q-1 -6 -2.5 -13.5t-1.5 -9.5q-4 -20 -4 -38q0 -41 20 -58t67 -17h53zM282 92l-63 33l-30 -57l64 -33zM193 56l-64 34l-30 -57l65 -33z" />
    <glyph glyph-name="uniFB78" unicode="&#x683;" horiz-adv-x="424" arabic-form="initial" 
d="M424 115v67h-24q-17 5 -64 46q-61 57 -88 75q-54 39 -93 39q-40 0 -68 -26q-18 -15 -29 -46q19 3 40 3q32 0 64 -12q28 -9 62 -31q27 -15 67 -48h-319v-67h452zM290 22l-63 33l-30 -57l64 -33zM201 -14l-64 34l-30 -57l65 -33z" />
    <glyph glyph-name="uniFB79" unicode="&#x683;" horiz-adv-x="424" arabic-form="medial" 
d="M424 115v67h-24q-17 5 -64 46q-61 57 -88 75q-54 39 -93 39q-40 0 -68 -26q-18 -15 -29 -46q19 3 40 3q32 0 64 -12q28 -9 62 -31q27 -15 67 -48h-319v-67h452zM290 22l-63 33l-30 -57l64 -33zM201 -14l-64 34l-30 -57l65 -33z" />
    <glyph glyph-name="afii62961" unicode="&#x686;" horiz-adv-x="420" arabic-form="final" 
d="M420 115v67h-53q-30 0 -41 7q-19 10 -19 43v22q22 4 35 6q21 5 37 6l16 66q-56 -6 -79 -6q-33 0 -75 7q-46 8 -81 8q-69 0 -102 -33q-15 -17 -28 -53q15 3 52 11q26 3 64 3q37 0 64 -4q-69 -37 -80 -45q-51 -34 -76 -72q-33 -50 -33 -117q0 -77 39 -124q34 -42 101 -61
q54 -16 140 -16h23l88 62l-2 5h-71q-127 0 -204 36q-88 43 -88 127q0 54 44 96q35 33 97 60q40 16 100 35q-1 -6 -2.5 -13.5t-1.5 -9.5q-4 -20 -4 -38q0 -41 20 -58t67 -17h53zM281 97l-63 33l-30 -57l64 -33zM268 -8l-63 34l-30 -58l64 -33zM192 60l-63 34l-30 -56l64 -34z
" />
    <glyph glyph-name="afii62959" unicode="&#x686;" horiz-adv-x="424" arabic-form="initial" 
d="M424 115v67h-24q-17 5 -64 46q-61 57 -88 75q-54 39 -93 39q-40 0 -68 -26q-18 -15 -29 -46q19 3 40 3q32 0 64 -12q28 -9 62 -31q27 -15 67 -48h-319v-67h452zM276 22l-64 33l-29 -57l64 -33zM262 -84l-62 34l-30 -57l64 -33zM187 -14l-63 34l-31 -57l64 -33z" />
    <glyph glyph-name="afii62960" unicode="&#x686;" horiz-adv-x="424" arabic-form="medial" 
d="M424 115v67h-24q-17 5 -64 46q-61 57 -88 75q-54 39 -93 39q-40 0 -68 -26q-18 -15 -29 -46q19 3 40 3q32 0 64 -12q28 -9 62 -31q27 -15 67 -48h-319v-67h452zM276 22l-64 33l-29 -57l64 -33zM262 -84l-62 34l-30 -57l64 -33zM187 -14l-63 34l-31 -57l64 -33z" />
    <glyph glyph-name="uniFB7f" unicode="&#x687;" horiz-adv-x="420" arabic-form="final" 
d="M420 115v67h-53q-30 0 -41 7q-19 10 -19 43v22q22 4 35 6q21 5 37 6l16 66q-56 -6 -79 -6q-33 0 -75 7q-46 8 -81 8q-69 0 -102 -33q-15 -17 -28 -53q15 3 52 11q26 3 64 3q37 0 64 -4q-69 -37 -80 -45q-51 -34 -76 -72q-33 -50 -33 -117q0 -77 39 -124q34 -42 101 -61
q54 -16 140 -16h23l88 62l-2 5h-71q-127 0 -204 36q-88 43 -88 127q0 54 44 96q35 33 97 60q40 16 100 35q-1 -6 -2.5 -13.5t-1.5 -9.5q-4 -20 -4 -38q0 -41 20 -58t67 -17h53zM286 134l-64 34l-29 -58l62 -33zM304 37l-65 32l-29 -56l64 -32zM214 1l-64 33l-29 -56l63 -33z
M166 42l30 56l-65 35l-28 -56z" />
    <glyph glyph-name="uniFB80" unicode="&#x687;" horiz-adv-x="424" arabic-form="initial" 
d="M424 115v67h-24q-17 5 -64 46q-61 57 -88 75q-54 39 -93 39q-40 0 -68 -26q-18 -15 -29 -46q19 3 40 3q32 0 64 -12q28 -9 62 -31q27 -15 67 -48h-319v-67h452zM289 21l-64 34l-29 -58l62 -33zM307 -76l-65 32l-29 -56l64 -32zM217 -112l-64 33l-29 -56l63 -33zM169 -71
l30 56l-65 35l-28 -56z" />
    <glyph glyph-name="uniFB81" unicode="&#x687;" horiz-adv-x="424" arabic-form="medial" 
d="M424 115v67h-24q-17 5 -64 46q-61 57 -88 75q-54 39 -93 39q-40 0 -68 -26q-18 -15 -29 -46q19 3 40 3q32 0 64 -12q28 -9 62 -31q27 -15 67 -48h-319v-67h452zM289 21l-64 34l-29 -58l62 -33zM307 -76l-65 32l-29 -56l64 -32zM217 -112l-64 33l-29 -56l63 -33zM169 -71
l30 56l-65 35l-28 -56z" />
    <glyph glyph-name="uniFB83" unicode="&#x68d;" horiz-adv-x="270" arabic-form="final" 
d="M270 115v67q0 93 -23 153q-26 72 -95 107l-6 -77q56 -16 81 -70q19 -42 19 -113h-151q-17 0 -26 6q-12 8 -16 24h-9q-7 -29 -7 -54q0 -18 18 -30.5t40 -12.5h175zM244 22l-63 33l-30 -57l64 -33zM155 -14l-64 34l-30 -57l65 -33z" />
    <glyph glyph-name="uniFB85" unicode="&#x68c;" horiz-adv-x="270" arabic-form="final" 
d="M270 115v67q0 93 -23 153q-26 72 -95 107l-6 -77q56 -16 81 -70q19 -42 19 -113h-151q-17 0 -26 6q-12 8 -16 24h-9q-7 -29 -7 -54q0 -18 18 -30.5t40 -12.5h175zM220 569l-63 33l-30 -57l64 -33zM131 533l-64 34l-30 -57l65 -33z" />
    <glyph glyph-name="uniFB87" unicode="&#x68e;" horiz-adv-x="270" arabic-form="final" 
d="M270 115v67q0 93 -23 153q-26 72 -95 107l-6 -77q56 -16 81 -70q19 -42 19 -113h-151q-17 0 -26 6q-12 8 -16 24h-9q-7 -29 -7 -54q0 -18 18 -30.5t40 -12.5h175zM155 646l-64 34l-28 -58l62 -33zM233 577l-65 33l-29 -56l63 -34zM142 541l-64 33l-28 -57l63 -32z" />
    <glyph glyph-name="uniFB89" unicode="&#x688;" horiz-adv-x="270" arabic-form="final" 
d="M270 115v67q0 93 -23 153q-26 72 -95 107l-6 -77q56 -16 81 -70q19 -42 19 -113h-151q-17 0 -26 6q-12 8 -16 24h-9q-7 -29 -7 -54q0 -18 18 -30.5t40 -12.5h175zM254 466v46q0 54 -49 54q-17 0 -47 -14q-16 -7 -42 -23q1 4 1.5 8t1.5 7t1 4q3 16 3 29q0 35 -16 83l3 -1
l6 -2q7 24 7 38q-14 2 -20 4q-11 4 -16 14q-6 -13 -11 -42l12 -5q2 -10 8 -30q1 -6 3.5 -20t4.5 -21q3 -25 3 -44q0 -18 -7 -35q-27 -18 -52 -18h-29v-32h235zM225 512q0 -14 -44 -14h-81q21 12 25 14q38 20 62 20q38 0 38 -20z" />
    <glyph glyph-name="afii62962" unicode="&#x698;" horiz-adv-x="391" arabic-form="final" 
d="M391 115v95q0 40 -17 74q-16 30 -48 60l-22 -61q28 -31 41 -57q18 -35 18 -65q0 -35 -35 -81q-35 -44 -84 -74q-55 -32 -104 -32q-29 0 -104 16l-7 -16q6 -2 25.5 -9t29.5 -11q32 -12 58 -19q34 -8 58 -8q28 0 75 29q47 28 80 70q36 45 36 89zM304 545l-64 34l-28 -57
l62 -34zM380 476l-64 32l-29 -56l63 -32zM291 440l-64 33l-29 -57l63 -32z" />
    <glyph glyph-name="uniFB8D" unicode="&#x691;" horiz-adv-x="391" arabic-form="final" 
d="M391 115v95q0 40 -17 74q-16 30 -48 60l-22 -61q28 -31 41 -57q18 -35 18 -65q0 -35 -35 -81q-35 -44 -84 -74q-55 -32 -104 -32q-29 0 -104 16l-7 -16q6 -2 25.5 -9t29.5 -11q32 -12 58 -19q34 -8 58 -8q28 0 75 29q47 28 80 70q36 45 36 89zM371 415v46q0 54 -49 54
q-17 0 -47 -14q-16 -7 -42 -23q1 4 1.5 8t1.5 7t1 4q3 17 3 29q0 35 -16 83l3 -1l6 -2q7 24 7 38q-14 2 -20 4q-11 4 -16 14q-6 -13 -11 -42l12 -5q2 -10 8 -30q1 -6 3.5 -20t4.5 -21q3 -26 3 -44t-7 -35q-27 -18 -52 -18h-29v-32h235zM342 461q0 -14 -44 -14h-81
q21 12 25 14q38 20 62 20q38 0 38 -20z" />
    <glyph glyph-name="afii62964" unicode="&#x6a9;" horiz-adv-x="746" arabic-form="final" 
d="M183 115h165q90 0 137 41q44 41 44 109q7 -7 16.5 -17.5t12.5 -13.5q4 -4 24 -30q30 -39 49 -56q35 -33 67 -33h48v67h-51q-18 0 -42 21q-18 15 -35 36q-30 38 -42 50q-18 22 -44 45q-35 31 -63 52q-15 9 -31 24q-25 18 -25 27q0 7 23 19q28 14 94 36l82 27v68l-111 -43
q-73 -28 -105 -63q-32 -38 -32 -106q0 -11 24 -31l46 -36l13 13q27 -14 37 -24q20 -20 20 -45q0 -34 -51 -54q-39 -16 -104 -16h-166q-63 0 -99 14q-45 16 -45 59q0 26 22 78l-13 8q-20 -41 -22 -45q-18 -44 -18 -78q0 -57 42 -81q40 -22 133 -22z" />
    <glyph glyph-name="afii52305" unicode="&#x6a9;" horiz-adv-x="316" arabic-form="initial" 
d="M316 115v67q-30 57 -77 110q-41 47 -104 94q-12 8 -32 24q-25 18 -25 27t38 26q25 11 80 29l81 27v68l-110 -43q-75 -28 -105 -63q-33 -37 -33 -106q0 -11 24 -31l47 -36l13 13q61 -37 96 -67.5t61 -71.5h-298v-67h344z" />
    <glyph glyph-name="afii52306" unicode="&#x6a9;" horiz-adv-x="412" arabic-form="medial" 
d="M284 239q-30 38 -42 50q-21 24 -45 45q-30 28 -62 52q-12 8 -32 24q-25 18 -25 27t38 26q25 11 80 29l81 27v68l-110 -43q-75 -28 -105 -63q-33 -37 -33 -106q0 -11 24 -31l47 -36l13 13q26 -14 37 -24q20 -20 20 -45q0 -34 -51 -54q-41 -16 -104 -16h-43v-67h41
q91 0 138 41q44 41 44 109q7 -7 16.5 -17.5t12.5 -13.5q4 -4 24 -30q30 -39 49 -56q34 -33 67 -33h48v67h-51q-18 0 -42 21q-19 14 -35 36z" />
    <glyph glyph-name="afii62967" unicode="&#x6af;" horiz-adv-x="746" arabic-form="final" 
d="M183 115h165q90 0 137 41q44 41 44 109q7 -7 16.5 -17.5t12.5 -13.5q4 -4 24 -30q30 -39 49 -56q35 -33 67 -33h48v67h-51q-18 0 -42 21q-18 15 -35 36q-30 38 -42 50q-18 22 -44 45q-35 31 -63 52q-15 9 -31 24q-25 18 -25 27q0 7 23 19q28 14 94 36l82 27v68l-111 -43
q-73 -28 -105 -63q-32 -38 -32 -106q0 -11 24 -31l46 -36l13 13q27 -14 37 -24q20 -20 20 -45q0 -34 -51 -54q-39 -16 -104 -16h-166q-63 0 -99 14q-45 16 -45 59q0 26 22 78l-13 8q-20 -41 -22 -45q-18 -44 -18 -78q0 -57 42 -81q40 -22 133 -22zM612 693q-58 -23 -117 -54
q-114 -59 -139 -91v-41q34 24 99 55q74 35 157 66v65z" />
    <glyph glyph-name="afii62965" unicode="&#x6af;" horiz-adv-x="316" arabic-form="initial" 
d="M316 115v67q-30 57 -77 110q-41 47 -104 94q-12 8 -32 24q-25 18 -25 27t38 26q25 11 80 29l81 27v68l-110 -43q-75 -28 -105 -63q-33 -37 -33 -106q0 -11 24 -31l47 -36l13 13q61 -37 96 -67.5t61 -71.5h-298v-67h344zM277 700q-59 -23 -116 -54q-109 -55 -140 -90v-42
q36 25 100 55q72 35 156 66v65z" />
    <glyph glyph-name="afii62966" unicode="&#x6af;" horiz-adv-x="412" arabic-form="medial" 
d="M284 239q-30 38 -42 50q-21 24 -45 45q-30 28 -62 52q-12 8 -32 24q-25 18 -25 27t38 26q25 11 80 29l81 27v68l-110 -43q-75 -28 -105 -63q-33 -37 -33 -106q0 -11 24 -31l47 -36l13 13q26 -14 37 -24q20 -20 20 -45q0 -34 -51 -54q-41 -16 -104 -16h-43v-67h41
q91 0 138 41q44 41 44 109q7 -7 16.5 -17.5t12.5 -13.5q4 -4 24 -30q30 -39 49 -56q34 -33 67 -33h48v67h-51q-18 0 -42 21q-19 14 -35 36zM277 700q-59 -23 -116 -54q-109 -55 -140 -90v-42q36 25 100 55q72 35 156 66v65z" />
    <glyph glyph-name="uniFB97" unicode="&#x6b3;" horiz-adv-x="746" arabic-form="final" 
d="M183 115h165q90 0 137 41q44 41 44 109q7 -7 16.5 -17.5t12.5 -13.5q4 -4 24 -30q30 -39 49 -56q35 -33 67 -33h48v67h-51q-18 0 -42 21q-18 15 -35 36q-30 38 -42 50q-18 22 -44 45q-35 31 -63 52q-15 9 -31 24q-25 18 -25 27q0 7 23 19q28 14 94 36l82 27v68l-111 -43
q-73 -28 -105 -63q-32 -38 -32 -106q0 -11 24 -31l46 -36l13 13q27 -14 37 -24q20 -20 20 -45q0 -34 -51 -54q-39 -16 -104 -16h-166q-63 0 -99 14q-45 16 -45 59q0 26 22 78l-13 8q-20 -41 -22 -45q-18 -44 -18 -78q0 -57 42 -81q40 -22 133 -22zM612 693q-58 -23 -117 -54
q-114 -59 -139 -91v-41q34 24 99 55q74 35 157 66v65zM315 22l-64 33l-29 -57l64 -33zM333 -76l-62 34l-31 -58l64 -32z" />
    <glyph glyph-name="uniFB98" unicode="&#x6b3;" horiz-adv-x="316" arabic-form="initial" 
d="M316 115v67q-30 57 -77 110q-41 47 -104 94q-12 8 -32 24q-25 18 -25 27t38 26q25 11 80 29l81 27v68l-110 -43q-75 -28 -105 -63q-33 -37 -33 -106q0 -11 24 -31l47 -36l13 13q61 -37 96 -67.5t61 -71.5h-298v-67h344zM277 700q-59 -23 -116 -54q-109 -55 -140 -90v-42
q36 25 100 55q72 35 156 66v65zM197 22l-64 33l-29 -57l64 -33zM215 -76l-62 34l-31 -58l64 -32z" />
    <glyph glyph-name="uniFB99" unicode="&#x6b3;" horiz-adv-x="412" arabic-form="medial" 
d="M284 239q-30 38 -42 50q-21 24 -45 45q-30 28 -62 52q-12 8 -32 24q-25 18 -25 27t38 26q25 11 80 29l81 27v68l-110 -43q-75 -28 -105 -63q-33 -37 -33 -106q0 -11 24 -31l47 -36l13 13q26 -14 37 -24q20 -20 20 -45q0 -34 -51 -54q-41 -16 -104 -16h-43v-67h41
q91 0 138 41q44 41 44 109q7 -7 16.5 -17.5t12.5 -13.5q4 -4 24 -30q30 -39 49 -56q34 -33 67 -33h48v67h-51q-18 0 -42 21q-19 14 -35 36zM277 700q-59 -23 -116 -54q-109 -55 -140 -90v-42q36 25 100 55q72 35 156 66v65zM135 22l-64 33l-29 -57l64 -33zM153 -76l-62 34
l-31 -58l64 -32z" />
    <glyph glyph-name="uniFB9B" unicode="&#x6b1;" horiz-adv-x="746" arabic-form="final" 
d="M183 115h165q90 0 137 41q44 41 44 109q7 -7 16.5 -17.5t12.5 -13.5q4 -4 24 -30q30 -39 49 -56q35 -33 67 -33h48v67h-51q-18 0 -42 21q-18 15 -35 36q-30 38 -42 50q-18 22 -44 45q-35 31 -63 52q-15 9 -31 24q-25 18 -25 27q0 7 23 19q28 14 94 36l82 27v68l-111 -43
q-73 -28 -105 -63q-32 -38 -32 -106q0 -11 24 -31l46 -36l13 13q27 -14 37 -24q20 -20 20 -45q0 -34 -51 -54q-39 -16 -104 -16h-166q-63 0 -99 14q-45 16 -45 59q0 26 22 78l-13 8q-20 -41 -22 -45q-18 -44 -18 -78q0 -57 42 -81q40 -22 133 -22zM612 693q-58 -23 -117 -54
q-114 -59 -139 -91v-41q34 24 99 55q74 35 157 66v65zM522 696l-56 17l-22 -41l56 -18zM440 661l-56 17l-21 -41l56 -18z" />
    <glyph glyph-name="uniFB9C" unicode="&#x6b1;" horiz-adv-x="316" arabic-form="initial" 
d="M316 115v67q-30 57 -77 110q-41 47 -104 94q-12 8 -32 24q-25 18 -25 27t38 26q25 11 80 29l81 27v68l-110 -43q-75 -28 -105 -63q-33 -37 -33 -106q0 -11 24 -31l47 -36l13 13q61 -37 96 -67.5t61 -71.5h-298v-67h344zM277 700q-59 -23 -116 -54q-109 -55 -140 -90v-42
q36 25 100 55q72 35 156 66v65zM178 696l-56 17l-22 -41l56 -18zM96 661l-56 17l-21 -41l56 -18z" />
    <glyph glyph-name="uniFB9D" unicode="&#x6b1;" horiz-adv-x="412" arabic-form="medial" 
d="M284 239q-30 38 -42 50q-21 24 -45 45q-30 28 -62 52q-12 8 -32 24q-25 18 -25 27t38 26q25 11 80 29l81 27v68l-110 -43q-75 -28 -105 -63q-33 -37 -33 -106q0 -11 24 -31l47 -36l13 13q26 -14 37 -24q20 -20 20 -45q0 -34 -51 -54q-41 -16 -104 -16h-43v-67h41
q91 0 138 41q44 41 44 109q7 -7 16.5 -17.5t12.5 -13.5q4 -4 24 -30q30 -39 49 -56q34 -33 67 -33h48v67h-51q-18 0 -42 21q-19 14 -35 36zM277 700q-59 -23 -116 -54q-109 -55 -140 -90v-42q36 25 100 55q72 35 156 66v65zM178 696l-56 17l-22 -41l56 -18zM96 661l-56 17
l-21 -41l56 -18z" />
    <glyph glyph-name="uniFB9F" unicode="&#x6ba;" horiz-adv-x="420" arabic-form="final" 
d="M420 115v67q0 55 -7.5 87.5t-28.5 64.5l-32 -80q19 -21 28 -53q13 -33 13 -75q0 -58 -71 -90q-58 -26 -131 -26q-64 0 -98.5 25t-34.5 73q0 54 45 149l-16 7q-22 -46 -29 -65q-31 -77 -31 -138t45 -91q41 -28 120 -28q122 0 178 45q50 41 50 128z" />
    <glyph glyph-name="uniFBA1" unicode="&#x6bb;" horiz-adv-x="420" arabic-form="final" 
d="M420 115v67q0 55 -7.5 87.5t-28.5 64.5l-32 -80q19 -21 28 -53q13 -33 13 -75q0 -58 -71 -90q-58 -26 -131 -26q-64 0 -98.5 25t-34.5 73q0 54 45 149l-16 7q-22 -46 -29 -65q-31 -77 -31 -138t45 -91q41 -28 120 -28q122 0 178 45q50 41 50 128zM347 384v46q0 54 -49 54
q-17 0 -47 -14q-16 -7 -42 -23q1 4 1.5 8t1.5 7t1 4q3 16 3 29q0 35 -16 83l3 -1l6 -2q7 24 7 38q-14 2 -20 4q-11 4 -16 14q-6 -13 -11 -42l12 -5q2 -10 8 -30q1 -6 3.5 -20t4.5 -21q3 -26 3 -44t-7 -35q-27 -18 -52 -18h-29v-32h235zM318 430q0 -14 -44 -14h-81
q21 12 25 14q38 20 62 20q38 0 38 -20z" />
    <glyph glyph-name="uniFBA5" unicode="&#x6c0;" horiz-adv-x="300" arabic-form="final" 
d="M300 115v67h-56q-13 0 -24 41q-8 28 -18 82l-12 67q-9 35 -18 94q-11 -12 -19 -27q-9 -17 -9 -30q0 -8 5 -33q-65 -30 -109 -71t-44 -75q0 -9 30 -15t75 -6q43 0 68 46q11 -61 26 -92q21 -48 49 -48h56zM164 289q-22 -24 -45 -24q-34 0 -49 7q25 36 86 60zM166 523
q-18 -6 -27 -6q-15 0 -32 10q-18 11 -18 16q0 12 26 12q14 0 25 -11q9 12 9 23q0 20 -18 20q-19 0 -41 -24q-21 -23 -21 -35q0 -7 8 -15q6 -6 19 -12q-39 -14 -39 -31l73 25q13 4 24 10q12 7 12 18z" />
    <glyph glyph-name="uniFBA6" unicode="&#x6c1;" horiz-adv-x="226" arabic-form="isolated" 
d="M210 229q0 36 -47 68q-11 7 -85 47l-24 -66l6 -2l-25 -61q-14 -36 -14 -63q0 -24 22 -36q18 -12 47 -12q74 0 101 43q19 26 19 82zM175 199q0 -9 -26 -23q-26 -12 -47 -12q-18 0 -29.5 11.5t-11.5 30.5q0 13 11 30q4 4 21 24q21 -10 39 -21q43 -25 43 -40z" />
    <glyph glyph-name="uniFBA8" unicode="&#x6c1;" horiz-adv-x="196" arabic-form="initial" 
d="M196 115v95q0 68 -11 99q-8 21 -36 55l-30 -63q31 -34 37 -49q11 -25 11 -70h-195v-67h224zM140 -71q0 26 -28 35q-28 7 -28 20q0 20 38 55l-9 13q-55 -37 -55 -95q0 -24 10 -41q13 -22 35 -22q15 0 26 10t11 25z" />
    <glyph glyph-name="uniFBA9" unicode="&#x6c1;" horiz-adv-x="256" arabic-form="medial" 
d="M256 115v67h-15q-58 0 -86 -37q-20 -26 -21 -55q-9 22 -9 67q0 59 23 128l-19 7q-41 -110 -121 -110h-36v-67h36q61 0 92 64q-3 -20 -2 -53q2 -36 12 -70q14 -42 28 -42q4 0 10 31q8 38 32 55q20 15 61 15h15zM187 -130q0 27 -28 36q-27 9 -27 19q0 24 37 55l-8 15
q-55 -39 -55 -95q0 -25 10 -42q13 -22 35 -22q15 0 25.5 9.5t10.5 24.5z" />
    <glyph glyph-name="afii62828" unicode="&#x6be;" horiz-adv-x="300" arabic-form="final" 
d="M300 115v67h-56q-13 0 -24 41q-8 28 -18 82l-12 67q-9 35 -18 94q-11 -12 -19 -27q-9 -17 -9 -30q0 -8 5 -33q-65 -30 -109 -71t-44 -75q0 -9 30 -15t75 -6q43 0 68 46q11 -61 26 -92q21 -48 49 -48h56zM164 289q-22 -24 -45 -24q-34 0 -49 7q25 36 86 60z" />
    <glyph glyph-name="afii62827" unicode="&#x6be;" horiz-adv-x="316" arabic-form="medial" 
d="M316 115v67h-173q53 27 63 39q19 22 19 56q0 24 -9.5 45t-21.5 21q-24 0 -49 -28q-21 -24 -44 -65q-18 -34 -30 -68h-99v-67h87l-1 -29q0 -64 47 -103q40 -32 86 -32q25 0 37 23q9 18 9 48q0 33 -22 59q-18 22 -43 34h144zM186 248q0 -17 -28 -33q-24 -14 -60 -25
q19 37 32 59q24 36 41 36q15 0 15 -37zM202 29q0 -16 -23 -16q-50 0 -75 34q-20 29 -20 71q34 -6 72 -30q46 -28 46 -59z" />
    <glyph glyph-name="uniFBAF" unicode="&#x6d2;" horiz-adv-x="650" arabic-form="final" 
d="M551 -166l99 65v3h-553q-37 0 -37 11q0 19 46 59q184 143 449 143h95v67h-93q-263 0 -433 -132q-44 -40 -63 -67q-12 -21 -22 -63q-12 -39 -11 -62q0 -13 11 -19q12 -5 55 -5h457z" />
    <glyph glyph-name="uniFBB1" unicode="&#x6d3;" horiz-adv-x="650" arabic-form="final" 
d="M551 -166l99 65v3h-553q-37 0 -37 11q0 19 46 59q184 143 449 143h95v67h-93q-263 0 -433 -132q-44 -40 -63 -67q-12 -21 -22 -63q-12 -39 -11 -62q0 -13 11 -19q12 -5 55 -5h457zM533 296q-18 -6 -27 -6q-15 0 -32 10q-18 10 -18 16q0 12 26 12q14 0 25 -11q9 12 9 23
q0 20 -18 20t-41 -24q-21 -22 -21 -35q0 -7 8 -15q6 -6 19 -12q-39 -14 -39 -31l73 25q13 4 24 10q12 8 12 18z" />
    <glyph glyph-name="uniFBD4" unicode="&#x6ad;" horiz-adv-x="481" arabic-form="final" 
d="M338 353q0 27 -8 37.5t-29 10.5l-21 -3q-3 -1 -12 -1q-21 0 -21 13q0 19 23 33q12 8 42 16l7 50q-38 -12 -72 -58q-34 -44 -34 -78q0 -22 23 -22l28 2h16q9 0 15.5 -6t6.5 -14q0 -17 -32.5 -30.5t-76.5 -13.5q-8 0 -38 3q-9 1 -23 1l-7 -9q18 -6 52 -14q28 -6 52 -6
q52 0 80.5 23t28.5 66zM481 115v76l-46 306l18 -6q15 34 15 75l-43 15q-29 12 -29 35l-5 4q-19 -45 -19 -96l21 -10l49 -332h-249q-63 0 -99 14q-45 16 -45 59q0 26 22 78l-13 8q-21 -41 -22 -45q-18 -44 -18 -78q0 -57 42 -81q40 -22 133 -22h288zM256 669l-64 34l-28 -58
l62 -33zM334 600l-65 33l-29 -56l63 -34zM243 564l-64 33l-28 -57l63 -32z" />
    <glyph glyph-name="uniFBD5" unicode="&#x6ad;" horiz-adv-x="316" arabic-form="initial" 
d="M316 115v67q-30 57 -77 110q-41 47 -104 94q-12 8 -32 24q-25 18 -25 27t38 26q25 11 80 29l81 27v68l-110 -43q-75 -28 -105 -63q-33 -37 -33 -106q0 -11 24 -31l47 -36l13 13q61 -37 96 -67.5t61 -71.5h-298v-67h344zM129 668l-53 13l-21 -37l52 -15zM196 648l-51 14
l-21 -37l50 -14zM112 613l-52 15l-21 -38l51 -14z" />
    <glyph glyph-name="uniFBD6" unicode="&#x6ad;" horiz-adv-x="316" arabic-form="medial" 
d="M316 115v67q-30 57 -77 110q-41 47 -104 94q-12 8 -32 24q-25 18 -25 27t38 26q25 11 80 29l81 27v68l-110 -43q-75 -28 -105 -63q-33 -37 -33 -106q0 -11 24 -31l47 -36l13 13q61 -37 96 -67.5t61 -71.5h-298v-67h344zM129 668l-53 13l-21 -37l52 -15zM196 648l-51 14
l-21 -37l50 -14zM112 613l-52 15l-21 -38l51 -14z" />
    <glyph glyph-name="uniFBD8" unicode="&#x6c7;" horiz-adv-x="346" arabic-form="final" 
d="M346 138v44q0 54 -12 86q-15 40 -49 40t-56 -40q-18 -35 -18 -74q0 -45 30 -63q26 -17 78 -17q-28 -40 -47 -60q-34 -38 -67 -56q-42 -24 -89 -24q-12 0 -27.5 3t-34 7t-28.5 6l-6 -13l50 -18q34 -11 53 -14q25 -6 52 -6q70 0 123 71q48 65 48 128zM321 180q-73 0 -73 40
q0 10 8 17.5t19 7.5q15 0 25 -13q13 -13 21 -52zM332 425q0 9 -4 13q-7 5 -14 11q13 33 13 44q0 15 -8.5 26.5t-18.5 11.5q-18 0 -33 -20t-15 -46q0 -11 8 -22q6 -8 19 -15q-11 -14 -39 -35q-28 -24 -48 -32h29q20 0 48 28l27 28l32 -19q0 3 2 12.5t2 14.5zM303 470
q0 -4 -4 -11l-17 14q-10 7 -10 17q0 8 8 8t15.5 -8.5t7.5 -19.5z" />
    <glyph glyph-name="uniFBDA" unicode="&#x6c6;" horiz-adv-x="346" arabic-form="final" 
d="M346 138v44q0 54 -12 86q-15 40 -49 40t-56 -40q-18 -35 -18 -74q0 -45 30 -63q26 -17 78 -17q-28 -40 -47 -60q-34 -38 -67 -56q-42 -24 -89 -24q-12 0 -27.5 3t-34 7t-28.5 6l-6 -13l50 -18q34 -11 53 -14q25 -6 52 -6q70 0 123 71q48 65 48 128zM321 180q-73 0 -73 40
q0 10 8 17.5t19 7.5q15 0 25 -13q13 -13 21 -52zM348 468h-34l-30 -55l-30 55h-34l53 -90h22z" />
    <glyph glyph-name="uniFBDC" unicode="&#x6c8;" horiz-adv-x="346" arabic-form="final" 
d="M346 138v44q0 54 -12 86q-15 40 -49 40t-56 -40q-18 -35 -18 -74q0 -45 30 -63q26 -17 78 -17q-28 -40 -47 -60q-34 -38 -67 -56q-42 -24 -89 -24q-12 0 -27.5 3t-34 7t-28.5 6l-6 -13l50 -18q34 -11 53 -14q25 -6 52 -6q70 0 123 71q48 65 48 128zM321 180q-73 0 -73 40
q0 10 8 17.5t19 7.5q15 0 25 -13q13 -13 21 -52zM286 410q0 52 -21 182q-3 -6 -9.5 -17.5t-9.5 -16.5q19 -124 19 -176q0 -1 -2 -21l4 -1q19 28 19 50z" />
    <glyph glyph-name="uniFBDF" unicode="&#x6cb;" horiz-adv-x="346" arabic-form="final" 
d="M346 138v44q0 54 -12 86q-15 40 -49 40t-56 -40q-18 -35 -18 -74q0 -45 30 -63q26 -17 78 -17q-28 -40 -47 -60q-34 -38 -67 -56q-42 -24 -89 -24q-12 0 -27.5 3t-34 7t-28.5 6l-6 -13l50 -18q34 -11 53 -14q25 -6 52 -6q70 0 123 71q48 65 48 128zM321 180q-73 0 -73 40
q0 10 8 17.5t19 7.5q15 0 25 -13q13 -13 21 -52zM272 535l-64 34l-28 -58l62 -33zM350 466l-65 33l-29 -56l63 -34zM259 430l-64 33l-28 -57l63 -32z" />
    <glyph glyph-name="uniFBE1" unicode="&#x6c5;" horiz-adv-x="346" arabic-form="final" 
d="M346 138v44q0 126 -61 126q-34 0 -56 -40q-18 -35 -18 -74q0 -80 108 -80q-7 -9 -21 -29q-16 -2 -24 -2q-12 0 -47 9q-45 13 -55 13q-24 0 -42 -29l4 -5q13 5 20 5q6 0 51 -13q36 -10 55 -10q4 0 12 2l-4 -5q-30 -32 -63 -52q-41 -24 -89 -24q-18 0 -44 6l-46 10l-6 -13
l50 -18q23 -8 53 -14q25 -6 52 -6q70 0 123 71q48 65 48 128zM321 180q-73 0 -73 40q0 25 27 25q32 0 46 -65z" />
    <glyph glyph-name="uniFBE3" unicode="&#x6c9;" horiz-adv-x="346" arabic-form="final" 
d="M346 138v44q0 54 -12 86q-15 40 -49 40t-56 -40q-18 -35 -18 -74q0 -45 30 -63q26 -17 78 -17q-28 -40 -47 -60q-34 -38 -67 -56q-42 -24 -89 -24q-12 0 -27.5 3t-34 7t-28.5 6l-6 -13l50 -18q34 -11 53 -14q25 -6 52 -6q70 0 123 71q48 65 48 128zM321 180q-73 0 -73 40
q0 10 8 17.5t19 7.5q15 0 25 -13q13 -13 21 -52zM348 378l-53 90h-22l-53 -90h34l30 55l30 -55h34z" />
    <glyph glyph-name="uniFBE5" unicode="&#x6d0;" horiz-adv-x="471" arabic-form="final" 
d="M471 115v67h-68q-33 0 -63 -9q-41 -12 -63 -37q-29 -31 -29 -79q0 -26 46 -26q4 0 29.5 -1.5t32.5 -1.5q26 0 26 -14q0 -19 -52 -29q-46 -8 -99 -8q-82 0 -131 23q-49 25 -49 74q0 27 22 70q4 7 29 50l-16 8q-40 -64 -47 -78q-25 -50 -25 -96q0 -56 53 -88
q49 -28 133 -28q120 0 173 36q48 33 48 107q0 14 -11 20q-6 3 -26 6q-39 4 -41 4q-6 1 -25 1q-36 0 -36 13q0 16 121 16h68zM244 -100l-35 10l-15 -28l37 -10zM254 -142l-36 9l-14 -27l37 -10z" />
    <glyph glyph-name="uniFBE6" unicode="&#x6d0;" horiz-adv-x="196" arabic-form="initial" 
d="M196 115v95q0 68 -11 99q-8 21 -36 55l-30 -63q30 -33 37 -49q11 -25 11 -70h-195v-67h224zM135 22l-64 33l-29 -57l64 -33zM153 -76l-62 34l-31 -58l64 -32z" />
    <glyph glyph-name="uniFBE7" unicode="&#x6d0;" horiz-adv-x="196" arabic-form="medial" 
d="M196 115v95q0 68 -11 99q-8 21 -36 55l-30 -63q30 -33 37 -49q11 -25 11 -70h-195v-67h224zM135 22l-64 33l-29 -57l64 -33zM153 -76l-62 34l-31 -58l64 -32z" />
    <glyph glyph-name="afii52364" unicode="&#x6cc;" horiz-adv-x="471" arabic-form="final" 
d="M471 115v67h-68q-33 0 -63 -9q-41 -12 -63 -37q-29 -31 -29 -79q0 -26 46 -26q4 0 29.5 -1.5t32.5 -1.5q26 0 26 -14q0 -19 -52 -29q-46 -8 -99 -8q-82 0 -131 23q-49 25 -49 74q0 27 22 70q4 7 29 50l-16 8q-40 -64 -47 -78q-25 -50 -25 -96q0 -56 53 -88
q49 -28 133 -28q120 0 173 36q48 33 48 107q0 14 -11 20q-6 3 -26 6q-39 4 -41 4q-6 1 -25 1q-36 0 -36 13q0 16 121 16h68z" />
    <glyph glyph-name="afii62831" unicode="&#x6cc;" horiz-adv-x="196" arabic-form="initial" 
d="M196 115v95q0 68 -11 99q-8 21 -36 55l-30 -63q30 -33 37 -49q11 -25 11 -70h-195v-67h224zM194 36l-65 33l-29 -56l63 -33zM103 1l-64 33l-28 -56l63 -33z" />
    <glyph glyph-name="afii62832" unicode="&#x6cc;" horiz-adv-x="196" arabic-form="medial" 
d="M196 115v95q0 68 -11 99q-8 21 -36 55l-30 -63q30 -33 37 -49q11 -25 11 -70h-195v-67h224zM194 36l-65 33l-29 -56l63 -33zM103 1l-64 33l-28 -56l63 -33z" />
    <glyph glyph-name="afii52399" unicode="&#x621;" horiz-adv-x="330" arabic-form="isolated" 
d="M291 210q-55 -16 -111 -42q-35 11 -56 24q-23 15 -23 31q0 12 20.5 23.5t39.5 11.5q16 0 39 -16q4 -2 17 -12l20 52q-18 20 -20 21q-20 17 -48 17q-32 0 -63 -34q-22 -24 -43 -65q-16 -32 -16 -45q0 -16 21 -29l45 -26q-11 -11 -18 -24q-9 -19 -13 -33l11 -6q36 33 81 55
q37 18 98 33z" />
    <glyph glyph-name="afii62753" unicode="&#x622;" horiz-adv-x="184" arabic-form="final" 
d="M184 115v67h-55q-13 0 -24 17q-13 19 -21 89q-3 157 -7 192q-6 68 -22 112l-48 -76q15 -13 24 -32q13 -30 18 -111q4 -64 5 -89q8 -116 32 -148q16 -21 43 -21h55zM145 646l-5 6q-21 -9 -41 -9q-13 0 -32 6q-39 12 -43 12q-14 0 -24 -8q-2 -1 -14 -17l4 -5q10 5 20 5
q3 0 42 -13q18 -5 36 -5t35 9q14 10 22 19z" />
    <glyph glyph-name="afii62754" unicode="&#x623;" horiz-adv-x="184" arabic-form="final" 
d="M116 640q-19 -6 -28 -6q-14 0 -31 10q-18 10 -18 16q0 12 25 12q13 0 27 -11q9 20 9 23q0 9 -6 14.5t-14 5.5q-18 0 -41 -24q-20 -23 -20 -35q0 -7 8 -15q6 -6 18 -12q-39 -14 -39 -31l73 25q13 4 24 10q13 7 13 18zM184 115v67h-55q-13 0 -24 17q-13 19 -21 89
q-3 157 -7 192q-6 68 -22 112l-48 -76q15 -13 24 -32q13 -30 18 -111q4 -64 5 -89q8 -116 32 -148q16 -21 43 -21h55z" />
    <glyph glyph-name="afii62755" unicode="&#x624;" horiz-adv-x="346" arabic-form="final" 
d="M346 138v44q0 54 -12 86q-15 40 -49 40t-56 -40q-18 -35 -18 -74q0 -45 30 -63q26 -17 78 -17q-28 -40 -47 -60q-34 -38 -67 -56q-42 -24 -89 -24q-12 0 -27.5 3t-34 7t-28.5 6l-6 -13l50 -18q34 -11 53 -14q25 -6 52 -6q70 0 123 71q48 65 48 128zM321 180q-73 0 -73 40
q0 10 8 17.5t19 7.5q15 0 25 -13q13 -13 21 -52zM252 380q-14 -6 -28 -6q-12 0 -31 10q-18 10 -18 16q0 12 25 12q13 0 27 -11q9 16 9 24q0 19 -20 19q-18 0 -40 -24q-21 -22 -21 -34q0 -8 9 -15q5 -6 17 -13q-39 -14 -39 -32l73 26q17 5 25 11q12 7 12 17z" />
    <glyph glyph-name="afii62756" unicode="&#x625;" horiz-adv-x="184" arabic-form="final" 
d="M184 115v67h-55q-13 0 -24 17q-13 19 -21 89q-3 157 -7 192q-6 68 -22 112l-48 -76q15 -13 24 -32q13 -30 18 -111q4 -64 5 -89q8 -116 32 -148q16 -21 43 -21h55zM119 -21q-15 -7 -27 -7q-13 0 -32 11q-18 11 -18 16q0 12 26 12q14 0 25 -11q10 11 10 23q0 20 -19 20
q-18 0 -41 -24q-21 -22 -21 -35q0 -7 8 -15q6 -5 19 -13q-39 -14 -39 -31l73 25q14 5 24 11q12 7 12 18z" />
    <glyph glyph-name="afii62759" unicode="&#x626;" horiz-adv-x="471" arabic-form="final" 
d="M471 115v67h-68q-33 0 -63 -9q-41 -12 -63 -37q-29 -31 -29 -79q0 -26 46 -26q4 0 29.5 -1.5t32.5 -1.5q26 0 26 -14q0 -19 -52 -29q-46 -8 -99 -8q-82 0 -131 23q-49 25 -49 74q0 27 22 70q4 7 29 50l-16 8q-40 -64 -47 -78q-25 -50 -25 -96q0 -56 53 -88
q49 -28 133 -28q120 0 173 36q48 33 48 107q0 14 -11 20q-6 3 -26 6q-39 4 -41 4q-6 1 -25 1q-36 0 -36 13q0 16 121 16h68zM138 329q-14 -6 -29 -6q-12 0 -31 10q-18 11 -18 16q0 12 26 12q13 0 26 -11q9 16 9 24t-6 13.5t-13 5.5q-18 0 -41 -24q-20 -23 -20 -34
q0 -8 8 -16q6 -6 19 -12q-40 -13 -40 -31l72 24q4 2 9.5 4.5t9.5 4t6 2.5q13 7 13 18z" />
    <glyph glyph-name="afii62757" unicode="&#x626;" horiz-adv-x="196" arabic-form="initial" 
d="M196 115v95q0 68 -11 99q-8 21 -36 55l-30 -63q30 -33 37 -49q11 -25 11 -70h-195v-67h224zM153 471q-14 -6 -28 -6q-12 0 -31 10q-18 11 -18 16q0 12 25 12q14 0 27 -11q9 16 9 24t-6 13.5t-14 5.5q-18 0 -40 -25q-21 -21 -21 -34q0 -8 9 -15q6 -6 18 -12
q-39 -13 -39 -32l72 25q11 4 25 11q12 7 12 18z" />
    <glyph glyph-name="afii62758" unicode="&#x626;" horiz-adv-x="196" arabic-form="medial" 
d="M196 115v95q0 68 -11 99q-8 21 -36 55l-30 -63q30 -33 37 -49q11 -25 11 -70h-195v-67h224zM153 471q-14 -6 -28 -6q-12 0 -31 10q-18 11 -18 16q0 12 25 12q14 0 27 -11q9 16 9 24t-6 13.5t-14 5.5q-18 0 -40 -25q-21 -21 -21 -34q0 -8 9 -15q6 -6 18 -12
q-39 -13 -39 -32l72 25q11 4 25 11q12 7 12 18z" />
    <glyph glyph-name="afii62760" unicode="&#x627;" horiz-adv-x="184" arabic-form="final" 
d="M184 115v67h-55q-13 0 -24 17q-13 19 -21 89q-3 157 -7 192q-6 68 -22 112l-48 -76q15 -13 24 -32q13 -30 18 -111q4 -64 5 -89q8 -116 32 -148q16 -21 43 -21h55z" />
    <glyph glyph-name="afii62763" unicode="&#x628;" horiz-adv-x="571" arabic-form="final" 
d="M571 115v105q0 84 -27 128q-1 1 -4 5t-7 10t-9 12l-31 -64q47 -34 47 -118v-11h-331q-66 0 -109 23q-49 25 -49 71q0 22 11 50q5 12 17 36l-11 8q-23 -39 -29 -53q-17 -39 -17 -73q0 -71 56 -104q44 -25 120 -25h373zM347 20l-65 32l-29 -56l63 -33z" />
    <glyph glyph-name="afii62761" unicode="&#x628;" horiz-adv-x="196" arabic-form="initial" 
d="M196 115v95q0 68 -11 99q-8 21 -36 55l-30 -63q30 -33 37 -49q11 -25 11 -70h-195v-67h224zM156 20l-65 32l-30 -56l64 -33z" />
    <glyph glyph-name="afii62762" unicode="&#x628;" horiz-adv-x="196" arabic-form="medial" 
d="M196 115v95q0 68 -11 99q-8 21 -36 55l-30 -63q30 -33 37 -49q11 -25 11 -70h-195v-67h224zM156 20l-65 32l-30 -56l64 -33z" />
    <glyph glyph-name="afii62764" unicode="&#x629;" horiz-adv-x="300" arabic-form="final" 
d="M201 581l-64 33l-29 -56l63 -33zM111 546l-64 33l-28 -56l63 -33zM300 115v67h-56q-13 0 -24 41q-8 28 -18 82l-12 67q-9 35 -18 94q-11 -12 -19 -27q-9 -17 -9 -30q0 -8 5 -33q-65 -30 -109 -71t-44 -75q0 -9 30 -15t75 -6q43 0 68 46q11 -61 26 -92q21 -48 49 -48h56z
M164 289q-22 -24 -45 -24q-34 0 -49 7q25 36 86 60z" />
    <glyph glyph-name="afii62767" unicode="&#x62a;" horiz-adv-x="571" arabic-form="final" 
d="M387 469l-64 33l-30 -56l63 -33zM297 434l-64 33l-29 -57l64 -32zM571 115v105q0 84 -27 128q-1 1 -4 5t-7 10t-9 12l-31 -64q47 -34 47 -118v-11h-331q-66 0 -109 23q-49 25 -49 71q0 22 11 50q5 12 17 36l-11 8q-23 -39 -29 -53q-17 -39 -17 -73q0 -71 56 -104
q44 -25 120 -25h373z" />
    <glyph glyph-name="afii62765" unicode="&#x62a;" horiz-adv-x="196" arabic-form="initial" 
d="M194 500l-65 33l-29 -56l63 -33zM103 465l-64 33l-28 -56l63 -33zM196 115v95q0 68 -11 99q-8 21 -36 55l-30 -63q30 -33 37 -49q11 -25 11 -70h-195v-67h224z" />
    <glyph glyph-name="afii62766" unicode="&#x62a;" horiz-adv-x="196" arabic-form="medial" 
d="M194 500l-65 33l-29 -56l63 -33zM103 465l-64 33l-28 -56l63 -33zM196 115v95q0 68 -11 99q-8 21 -36 55l-30 -63q30 -33 37 -49q11 -25 11 -70h-195v-67h224z" />
    <glyph glyph-name="afii62770" unicode="&#x62b;" horiz-adv-x="571" arabic-form="final" 
d="M310 539l-64 33l-28 -56l62 -34zM387 469l-64 33l-30 -56l63 -33zM297 434l-64 33l-29 -57l64 -32zM571 115v105q0 84 -27 128q-1 1 -4 5t-7 10t-9 12l-31 -64q47 -34 47 -118v-11h-331q-66 0 -109 23q-49 25 -49 71q0 22 11 50q5 12 17 36l-11 8q-23 -39 -29 -53
q-17 -39 -17 -73q0 -71 56 -104q44 -25 120 -25h373z" />
    <glyph glyph-name="afii62768" unicode="&#x62b;" horiz-adv-x="196" arabic-form="initial" 
d="M116 570l-64 34l-28 -57l62 -34zM194 500l-65 33l-29 -56l63 -33zM103 465l-64 33l-28 -56l63 -33zM196 115v95q0 68 -11 99q-8 21 -36 55l-30 -63q30 -33 37 -49q11 -25 11 -70h-195v-67h224z" />
    <glyph glyph-name="afii62769" unicode="&#x62b;" horiz-adv-x="196" arabic-form="medial" 
d="M116 570l-64 34l-28 -57l62 -34zM194 500l-65 33l-29 -56l63 -33zM103 465l-64 33l-28 -56l63 -33zM196 115v95q0 68 -11 99q-8 21 -36 55l-30 -63q30 -33 37 -49q11 -25 11 -70h-195v-67h224z" />
    <glyph glyph-name="afii62773" unicode="&#x62c;" horiz-adv-x="420" arabic-form="final" 
d="M420 115v67h-53q-30 0 -41 7q-19 10 -19 43v22q22 4 35 6q21 5 37 6l16 66q-56 -6 -79 -6q-33 0 -75 7q-46 8 -81 8q-69 0 -102 -33q-15 -17 -28 -53q15 3 52 11q26 3 64 3q37 0 64 -4q-69 -37 -80 -45q-51 -34 -76 -72q-33 -50 -33 -117q0 -77 39 -124q34 -42 101 -61
q54 -16 140 -16h23l88 62l-2 5h-71q-127 0 -204 36q-88 43 -88 127q0 54 44 96q35 33 97 60q40 16 100 35q-1 -6 -2.5 -13.5t-1.5 -9.5q-4 -20 -4 -38q0 -41 20 -58t67 -17h53zM275 72l-63 34l-31 -58l63 -33z" />
    <glyph glyph-name="afii62771" unicode="&#x62c;" horiz-adv-x="424" arabic-form="initial" 
d="M424 115v67h-24q-17 5 -64 46q-61 57 -88 75q-54 39 -93 39q-40 0 -68 -26q-18 -15 -29 -46q19 3 40 3q32 0 64 -12q28 -9 62 -31q27 -15 67 -48h-319v-67h452zM225 29l-62 34l-31 -57l64 -33z" />
    <glyph glyph-name="afii62772" unicode="&#x62c;" horiz-adv-x="424" arabic-form="medial" 
d="M424 115v67h-24q-17 5 -64 46q-61 57 -88 75q-54 39 -93 39q-40 0 -68 -26q-18 -15 -29 -46q19 3 40 3q32 0 64 -12q28 -9 62 -31q27 -15 67 -48h-319v-67h452zM225 29l-62 34l-31 -57l64 -33z" />
    <glyph glyph-name="afii62776" unicode="&#x62d;" horiz-adv-x="420" arabic-form="final" 
d="M420 115v67h-53q-30 0 -41 7q-19 10 -19 43v22q22 4 35 6q21 5 37 6l16 66q-56 -6 -79 -6q-33 0 -75 7q-46 8 -81 8q-69 0 -102 -33q-15 -17 -28 -53q15 3 52 11q26 3 64 3q37 0 64 -4q-69 -37 -80 -45q-51 -34 -76 -72q-33 -50 -33 -117q0 -77 39 -124q34 -42 101 -61
q54 -16 140 -16h23l88 62l-2 5h-71q-127 0 -204 36q-88 43 -88 127q0 54 44 96q35 33 97 60q40 16 100 35q-1 -6 -2.5 -13.5t-1.5 -9.5q-4 -20 -4 -38q0 -41 20 -58t67 -17h53z" />
    <glyph glyph-name="afii62774" unicode="&#x62d;" horiz-adv-x="424" arabic-form="initial" 
d="M424 115v67h-24q-17 5 -64 46q-61 57 -88 75q-54 39 -93 39q-40 0 -68 -26q-18 -15 -29 -46q19 3 40 3q32 0 64 -12q28 -9 62 -31q27 -15 67 -48h-319v-67h452z" />
    <glyph glyph-name="afii62775" unicode="&#x62d;" horiz-adv-x="424" arabic-form="medial" 
d="M424 115v67h-24q-17 5 -64 46q-61 57 -88 75q-54 39 -93 39q-40 0 -68 -26q-18 -15 -29 -46q19 3 40 3q32 0 64 -12q28 -9 62 -31q27 -15 67 -48h-319v-67h452z" />
    <glyph glyph-name="afii62779" unicode="&#x62e;" horiz-adv-x="420" arabic-form="final" 
d="M266 478l-64 33l-30 -57l64 -33zM420 115v67h-53q-30 0 -41 7q-19 10 -19 43v22q22 4 35 6q21 5 37 6l16 66q-56 -6 -79 -6q-33 0 -75 7q-46 8 -81 8q-69 0 -102 -33q-15 -17 -28 -53q15 3 52 11q26 3 64 3q37 0 64 -4q-69 -37 -80 -45q-51 -34 -76 -72q-33 -50 -33 -117
q0 -77 39 -124q34 -42 101 -61q54 -16 140 -16h23l88 62l-2 5h-71q-127 0 -204 36q-88 43 -88 127q0 54 44 96q35 33 97 60q40 16 100 35q-1 -6 -2.5 -13.5t-1.5 -9.5q-4 -20 -4 -38q0 -41 20 -58t67 -17h53z" />
    <glyph glyph-name="afii62777" unicode="&#x62e;" horiz-adv-x="424" arabic-form="initial" 
d="M236 478l-64 33l-28 -57l63 -33zM424 115v67h-24q-17 5 -64 46q-61 57 -88 75q-54 39 -93 39q-40 0 -68 -26q-18 -15 -29 -46q19 3 40 3q32 0 64 -12q28 -9 62 -31q27 -15 67 -48h-319v-67h452z" />
    <glyph glyph-name="afii62778" unicode="&#x62e;" horiz-adv-x="424" arabic-form="medial" 
d="M236 478l-64 33l-28 -57l63 -33zM424 115v67h-24q-17 5 -64 46q-61 57 -88 75q-54 39 -93 39q-40 0 -68 -26q-18 -15 -29 -46q19 3 40 3q32 0 64 -12q28 -9 62 -31q27 -15 67 -48h-319v-67h452z" />
    <glyph glyph-name="afii62780" unicode="&#x62f;" horiz-adv-x="270" arabic-form="final" 
d="M270 115v67q0 93 -23 153q-26 72 -95 107l-6 -77q56 -16 81 -70q19 -42 19 -113h-151q-17 0 -26 6q-12 8 -16 24h-9q-7 -29 -7 -54q0 -18 18 -30.5t40 -12.5h175z" />
    <glyph glyph-name="afii62781" unicode="&#x630;" horiz-adv-x="270" arabic-form="final" 
d="M166 574l-65 33l-28 -56l62 -34zM270 115v67q0 93 -23 153q-26 72 -95 107l-6 -77q56 -16 81 -70q19 -42 19 -113h-151q-17 0 -26 6q-12 8 -16 24h-9q-7 -29 -7 -54q0 -18 18 -30.5t40 -12.5h175z" />
    <glyph glyph-name="afii62782" unicode="&#x631;" horiz-adv-x="391" arabic-form="final" 
d="M391 115v95q0 40 -17 74q-16 30 -48 60l-22 -61q28 -31 41 -57q18 -35 18 -65q0 -35 -35 -81q-35 -44 -84 -74q-55 -32 -104 -32q-29 0 -104 16l-7 -16q6 -2 25.5 -9t29.5 -11q32 -12 58 -19q34 -8 58 -8q28 0 75 29q47 28 80 70q36 45 36 89z" />
    <glyph glyph-name="afii62783" unicode="&#x632;" horiz-adv-x="391" arabic-form="final" 
d="M332 478l-64 33l-29 -57l63 -33zM391 115v95q0 40 -17 74q-16 30 -48 60l-22 -61q28 -31 41 -57q18 -35 18 -65q0 -35 -35 -81q-35 -44 -84 -74q-55 -32 -104 -32q-29 0 -104 16l-7 -16q6 -2 25.5 -9t29.5 -11q32 -12 58 -19q34 -8 58 -8q28 0 75 29q47 28 80 70
q36 45 36 89z" />
    <glyph glyph-name="afii62786" unicode="&#x633;" horiz-adv-x="657" arabic-form="final" 
d="M657 115v93q0 46 -9 72q-6 15 -22 41l-26 -43q15 -16 24 -33q12 -22 12 -41q0 -20 -19 -20q-29 0 -45 19q-15 16 -24 55l-6 37l-15 -23q5 -24 5 -48q0 -20 -13 -30q-17 -12 -53 -12h-48q0 62 -10 95q-8 25 -27 57l-32 -80q22 -26 32 -53q15 -36 15 -75q0 -59 -73 -90
q-61 -26 -135 -26q-64 0 -98.5 25t-34.5 73q0 54 45 149l-16 7q-22 -46 -29 -65q-31 -77 -31 -138t45 -91q41 -28 120 -28q87 0 143 32q46 25 69 70q17 36 17 71h48q36 0 53 7q13 4 29 19q34 -26 78 -26h31z" />
    <glyph glyph-name="afii62784" unicode="&#x633;" horiz-adv-x="425" arabic-form="initial" 
d="M425 115v93q0 44 -9 71q-6 19 -22 42l-25 -43q11 -14 19 -26q16 -23 16 -46q0 -22 -24 -22q-21 0 -35 14q-15 15 -26 61l-9 36l-16 -23q6 -26 6 -48q0 -23 -16 -33q-14 -9 -43 -9h-26q-25 0 -43 18q-14 13 -27 43q-4 9 -19 52l-16 -23q6 -23 6 -48q0 -28 -23 -36
q-13 -6 -45 -6h-76v-67h76q35 0 50.5 4.5t34.5 19.5q18 -11 33 -16q22 -8 40 -8h26q37 0 55 7q12 4 32 18q30 -25 76 -25h30z" />
    <glyph glyph-name="afii62785" unicode="&#x633;" horiz-adv-x="425" arabic-form="medial" 
d="M425 115v93q0 44 -9 71q-6 19 -22 42l-25 -43q11 -14 19 -26q16 -23 16 -46q0 -22 -24 -22q-21 0 -35 14q-15 15 -26 61l-9 36l-16 -23q6 -26 6 -48q0 -23 -16 -33q-14 -9 -43 -9h-26q-25 0 -43 18q-14 13 -27 43q-4 9 -19 52l-16 -23q6 -23 6 -48q0 -28 -23 -36
q-13 -6 -45 -6h-76v-67h76q35 0 50.5 4.5t34.5 19.5q18 -11 33 -16q22 -8 40 -8h26q37 0 55 7q12 4 32 18q30 -25 76 -25h30z" />
    <glyph glyph-name="afii62789" unicode="&#x634;" horiz-adv-x="657" arabic-form="final" 
d="M549 539l-64 33l-28 -56l62 -34zM626 469l-64 33l-30 -56l64 -33zM536 434l-64 33l-28 -57l63 -32zM657 115v93q0 46 -9 72q-6 15 -22 41l-26 -43q15 -16 24 -33q12 -22 12 -41q0 -20 -19 -20q-29 0 -45 19q-15 16 -24 55l-6 37l-15 -23q5 -24 5 -48q0 -20 -13 -30
q-17 -12 -53 -12h-48q0 62 -10 95q-8 25 -27 57l-32 -80q22 -26 32 -53q15 -36 15 -75q0 -59 -73 -90q-61 -26 -135 -26q-64 0 -98.5 25t-34.5 73q0 54 45 149l-16 7q-22 -46 -29 -65q-31 -77 -31 -138t45 -91q41 -28 120 -28q87 0 143 32q46 25 69 70q17 36 17 71h48
q36 0 53 7q13 4 29 19q34 -26 78 -26h31z" />
    <glyph glyph-name="afii62787" unicode="&#x634;" horiz-adv-x="425" arabic-form="initial" 
d="M313 539l-64 33l-29 -56l63 -34zM390 469l-65 33l-29 -56l63 -33zM300 434l-64 33l-29 -57l63 -32zM425 115v93q0 44 -9 71q-6 19 -22 42l-25 -43q11 -14 19 -26q16 -23 16 -46q0 -22 -24 -22q-21 0 -35 14q-15 15 -26 61l-9 36l-16 -23q6 -26 6 -48q0 -23 -16 -33
q-14 -9 -43 -9h-26q-25 0 -43 18q-14 13 -27 43q-4 9 -19 52l-16 -23q6 -23 6 -48q0 -28 -23 -36q-13 -6 -45 -6h-76v-67h76q35 0 50.5 4.5t34.5 19.5q18 -11 33 -16q22 -8 40 -8h26q37 0 55 7q12 4 32 18q30 -25 76 -25h30z" />
    <glyph glyph-name="afii62788" unicode="&#x634;" horiz-adv-x="425" arabic-form="medial" 
d="M313 539l-64 33l-29 -56l63 -34zM390 469l-65 33l-29 -56l63 -33zM300 434l-64 33l-29 -57l63 -32zM425 115v93q0 44 -9 71q-6 19 -22 42l-25 -43q11 -14 19 -26q16 -23 16 -46q0 -22 -24 -22q-21 0 -35 14q-15 15 -26 61l-9 36l-16 -23q6 -26 6 -48q0 -23 -16 -33
q-14 -9 -43 -9h-26q-25 0 -43 18q-14 13 -27 43q-4 9 -19 52l-16 -23q6 -23 6 -48q0 -28 -23 -36q-13 -6 -45 -6h-76v-67h76q35 0 50.5 4.5t34.5 19.5q18 -11 33 -16q22 -8 40 -8h26q37 0 55 7q12 4 32 18q30 -25 76 -25h30z" />
    <glyph glyph-name="afii62792" unicode="&#x635;" horiz-adv-x="878" arabic-form="final" 
d="M878 115v98q0 51 -24 80q-25 31 -80 31q-36 0 -64 -9q-28 -10 -58 -30l-68 -47q-34 -26 -73 -41q-41 -15 -86 -15h-7q0 62 -10 95q-8 25 -27 57l-32 -80q22 -26 32 -53q15 -36 15 -75q0 -59 -73 -90q-61 -26 -135 -26q-64 0 -98.5 25t-34.5 73q0 54 45 149l-16 7
q-22 -46 -29 -65q-31 -77 -31 -138t45 -91q41 -28 120 -28q113 0 169 51q46 41 56 122h464zM815 212q0 -30 -82 -30h-180l57 30q40 21 62 29q34 12 63 12q34 0 57 -11t23 -30z" />
    <glyph glyph-name="afii62790" unicode="&#x635;" horiz-adv-x="677" arabic-form="initial" 
d="M677 115v98q0 52 -25 80q-27 31 -80 31q-34 0 -64 -9q-23 -8 -56 -30q-10 -6 -69 -47q-32 -23 -83 -41q-44 -15 -76 -15q-35 0 -60 31q-24 29 -38 82l-16 -23q6 -29 6 -48q0 -28 -23 -36q-13 -6 -45 -6h-76v-67h76q35 0 51 4.5t34 19.5q20 -12 34 -17q18 -7 40 -7h470z
M613 212q0 -30 -81 -30h-180l87 45q57 26 95 26q33 0 56 -11t23 -30z" />
    <glyph glyph-name="afii62791" unicode="&#x635;" horiz-adv-x="677" arabic-form="medial" 
d="M677 115v98q0 52 -25 80q-27 31 -80 31q-34 0 -64 -9q-23 -8 -56 -30q-10 -6 -69 -47q-32 -23 -83 -41q-44 -15 -76 -15q-35 0 -60 31q-24 29 -38 82l-16 -23q6 -29 6 -48q0 -28 -23 -36q-13 -6 -45 -6h-76v-67h76q35 0 51 4.5t34 19.5q20 -12 34 -17q18 -7 40 -7h470z
M613 212q0 -30 -81 -30h-180l87 45q57 26 95 26q33 0 56 -11t23 -30z" />
    <glyph glyph-name="afii62795" unicode="&#x636;" horiz-adv-x="878" arabic-form="final" 
d="M619 439l-64 33l-30 -57l63 -33zM878 115v98q0 51 -24 80q-25 31 -80 31q-36 0 -64 -9q-28 -10 -58 -30l-68 -47q-34 -26 -73 -41q-41 -15 -86 -15h-7q0 62 -10 95q-8 25 -27 57l-32 -80q22 -26 32 -53q15 -36 15 -75q0 -59 -73 -90q-61 -26 -135 -26q-64 0 -98.5 25
t-34.5 73q0 54 45 149l-16 7q-22 -46 -29 -65q-31 -77 -31 -138t45 -91q41 -28 120 -28q113 0 169 51q46 41 56 122h464zM815 212q0 -30 -82 -30h-180l57 30q40 21 62 29q34 12 63 12q34 0 57 -11t23 -30z" />
    <glyph glyph-name="afii62793" unicode="&#x636;" horiz-adv-x="677" arabic-form="initial" 
d="M428 439l-64 33l-29 -57l64 -33zM677 115v98q0 52 -25 80q-27 31 -80 31q-34 0 -64 -9q-23 -8 -56 -30q-10 -6 -69 -47q-32 -23 -83 -41q-44 -15 -76 -15q-35 0 -60 31q-24 29 -38 82l-16 -23q6 -29 6 -48q0 -28 -23 -36q-13 -6 -45 -6h-76v-67h76q35 0 51 4.5t34 19.5
q20 -12 34 -17q18 -7 40 -7h470zM613 212q0 -30 -81 -30h-180l87 45q57 26 95 26q33 0 56 -11t23 -30z" />
    <glyph glyph-name="afii62794" unicode="&#x636;" horiz-adv-x="677" arabic-form="medial" 
d="M428 439l-64 33l-29 -57l64 -33zM677 115v98q0 52 -25 80q-27 31 -80 31q-34 0 -64 -9q-23 -8 -56 -30q-10 -6 -69 -47q-32 -23 -83 -41q-44 -15 -76 -15q-35 0 -60 31q-24 29 -38 82l-16 -23q6 -29 6 -48q0 -28 -23 -36q-13 -6 -45 -6h-76v-67h76q35 0 51 4.5t34 19.5
q20 -12 34 -17q18 -7 40 -7h470zM613 212q0 -30 -81 -30h-180l87 45q57 26 95 26q33 0 56 -11t23 -30z" />
    <glyph glyph-name="afii62798" unicode="&#x637;" horiz-adv-x="465" arabic-form="final" 
d="M465 115v98q0 51 -23 80q-27 31 -79 31q-41 0 -100 -27q-23 -11 -87 -49q6 34 7 38q5 38 5 62q0 75 -31 175l5 -2q11 -4 15 -4q7 24 7 27q1 7 6 52q-26 1 -47 10q-22 10 -28 29q-18 -40 -23 -87l24 -13q7 -26 16 -63q12 -48 18 -86q8 -54 8 -93q0 -33 -16 -74
q-36 -22 -60 -29q-21 -7 -50 -7l-60 -1v-67h493zM404 212q0 -30 -93 -30h-170q24 15 53 30q39 20 65 29q38 12 65 12q80 0 80 -41z" />
    <glyph glyph-name="afii62796" unicode="&#x637;" horiz-adv-x="465" arabic-form="initial" 
d="M465 115v98q0 51 -23 80q-27 31 -79 31q-41 0 -100 -27q-23 -11 -87 -49q6 34 7 38q5 38 5 62q0 75 -31 175l5 -2q11 -4 15 -4q7 24 7 27q1 7 6 52q-26 1 -47 10q-22 10 -28 29q-18 -40 -23 -87l24 -13q7 -26 16 -63q12 -48 18 -86q8 -54 8 -93q0 -33 -16 -74
q-36 -22 -60 -29q-21 -7 -50 -7l-60 -1v-67h493zM404 212q0 -30 -93 -30h-170q24 15 53 30q39 20 65 29q38 12 65 12q80 0 80 -41z" />
    <glyph glyph-name="afii62797" unicode="&#x637;" horiz-adv-x="465" arabic-form="medial" 
d="M465 115v98q0 51 -23 80q-27 31 -79 31q-41 0 -100 -27q-23 -11 -87 -49q6 34 7 38q5 38 5 62q0 75 -31 175l5 -2q11 -4 15 -4q7 24 7 27q1 7 6 52q-26 1 -47 10q-22 10 -28 29q-18 -40 -23 -87l24 -13q7 -26 16 -63q12 -48 18 -86q8 -54 8 -93q0 -33 -16 -74
q-36 -22 -60 -29q-21 -7 -50 -7l-60 -1v-67h493zM404 212q0 -30 -93 -30h-170q24 15 53 30q39 20 65 29q38 12 65 12q80 0 80 -41z" />
    <glyph glyph-name="afii62801" unicode="&#x638;" horiz-adv-x="465" arabic-form="final" 
d="M359 478l-65 33l-28 -57l63 -33zM465 115v98q0 51 -23 80q-27 31 -79 31q-41 0 -100 -27q-23 -11 -87 -49q6 34 7 38q5 38 5 62q0 75 -31 175l5 -2q11 -4 15 -4q7 24 7 27q1 7 6 52q-26 1 -47 10q-22 10 -28 29q-18 -40 -23 -87l24 -13q7 -26 16 -63q12 -48 18 -86
q8 -54 8 -93q0 -33 -16 -74q-36 -22 -60 -29q-21 -7 -50 -7l-60 -1v-67h493zM404 212q0 -30 -93 -30h-170q24 15 53 30q39 20 65 29q38 12 65 12q80 0 80 -41z" />
    <glyph glyph-name="afii62799" unicode="&#x638;" horiz-adv-x="465" arabic-form="initial" 
d="M359 478l-65 33l-28 -57l63 -33zM465 115v98q0 51 -23 80q-27 31 -79 31q-41 0 -100 -27q-23 -11 -87 -49q6 34 7 38q5 38 5 62q0 75 -31 175l5 -2q11 -4 15 -4q7 24 7 27q1 7 6 52q-26 1 -47 10q-22 10 -28 29q-18 -40 -23 -87l24 -13q7 -26 16 -63q12 -48 18 -86
q8 -54 8 -93q0 -33 -16 -74q-36 -22 -60 -29q-21 -7 -50 -7l-60 -1v-67h493zM404 212q0 -30 -93 -30h-170q24 15 53 30q39 20 65 29q38 12 65 12q80 0 80 -41z" />
    <glyph glyph-name="afii62800" unicode="&#x638;" horiz-adv-x="465" arabic-form="medial" 
d="M359 478l-65 33l-28 -57l63 -33zM465 115v98q0 51 -23 80q-27 31 -79 31q-41 0 -100 -27q-23 -11 -87 -49q6 34 7 38q5 38 5 62q0 75 -31 175l5 -2q11 -4 15 -4q7 24 7 27q1 7 6 52q-26 1 -47 10q-22 10 -28 29q-18 -40 -23 -87l24 -13q7 -26 16 -63q12 -48 18 -86
q8 -54 8 -93q0 -33 -16 -74q-36 -22 -60 -29q-21 -7 -50 -7l-60 -1v-67h493zM404 212q0 -30 -93 -30h-170q24 15 53 30q39 20 65 29q38 12 65 12q80 0 80 -41z" />
    <glyph glyph-name="afii62804" unicode="&#x639;" horiz-adv-x="360" arabic-form="final" 
d="M388 -107l-1 3q-74 0 -126 5q-91 11 -138 38q-67 36 -67 102q0 30 22 61q18 25 49 52q13 12 52 38q19 -42 52 -59.5t93 -17.5h36v67h-36q-30 0 -50 10.5t-42 37.5l22 18q15 14 15 33q0 29 -27 48q-23 16 -58 16q-50 0 -71 -37q-11 -16 -18 -57h7q11 14 20 14q20 0 26 -26
q-40 -39 -57 -57q-32 -37 -49 -73q-21 -47 -21 -99q0 -81 55 -126q45 -35 119 -47q38 -7 114 -7z" />
    <glyph glyph-name="afii62802" unicode="&#x639;" horiz-adv-x="420" arabic-form="initial" 
d="M376 236q-65 -20 -115 -31q-41 -9 -105 -18q-30 17 -49.5 41t-19.5 43q0 20 31 32t85 12q32 0 92 -15l8 7q-31 37 -45 48q-32 23 -79 23q-61 0 -99.5 -31t-38.5 -78q0 -46 26 -87h-95v-67h98q62 0 143 14q77 15 136 36z" />
    <glyph glyph-name="afii62803" unicode="&#x639;" horiz-adv-x="316" arabic-form="medial" 
d="M316 115v67h-58q-14 0 -31 6.5t-23 15.5q30 25 39 37q14 19 14 35q0 32 -37 47q-28 11 -72 11q-49 0 -71 -14q-23 -17 -23 -59v-23h8q11 14 25 14q16 0 29 -16l16 -20q-31 -19 -64 -27q-25 -7 -60 -7h-36v-67h36q54 0 93 16q35 12 60 36q14 -26 45 -41q27 -11 52 -11h58z
" />
    <glyph glyph-name="afii62807" unicode="&#x63a;" horiz-adv-x="360" arabic-form="final" 
d="M234 478l-63 33l-30 -57l63 -33zM388 -107l-1 3q-74 0 -126 5q-91 11 -138 38q-67 36 -67 102q0 30 22 61q18 25 49 52q13 12 52 38q19 -42 52 -59.5t93 -17.5h36v67h-36q-30 0 -50 10.5t-42 37.5l22 18q15 14 15 33q0 29 -27 48q-23 16 -58 16q-50 0 -71 -37
q-11 -16 -18 -57h7q11 14 20 14q20 0 26 -26q-40 -39 -57 -57q-32 -37 -49 -73q-21 -47 -21 -99q0 -81 55 -126q45 -35 119 -47q38 -7 114 -7z" />
    <glyph glyph-name="afii62805" unicode="&#x63a;" horiz-adv-x="420" arabic-form="initial" 
d="M212 478l-64 33l-29 -57l64 -33zM376 236q-65 -20 -115 -31q-41 -9 -105 -18q-30 17 -49.5 41t-19.5 43q0 20 31 32t85 12q32 0 92 -15l8 7q-31 37 -45 48q-32 23 -79 23q-61 0 -99.5 -31t-38.5 -78q0 -46 26 -87h-95v-67h98q62 0 143 14q77 15 136 36z" />
    <glyph glyph-name="afii62806" unicode="&#x63a;" horiz-adv-x="316" arabic-form="medial" 
d="M182 478l-64 33l-29 -57l63 -33zM316 115v67h-58q-14 0 -31 6.5t-23 15.5q30 25 39 37q14 19 14 35q0 32 -37 47q-28 11 -72 11q-49 0 -71 -14q-23 -17 -23 -59v-23h8q11 14 25 14q16 0 29 -16l16 -20q-31 -19 -64 -27q-25 -7 -60 -7h-36v-67h36q54 0 93 16q35 12 60 36
q14 -26 45 -41q27 -11 52 -11h58z" />
    <glyph glyph-name="afii62810" unicode="&#x641;" horiz-adv-x="631" arabic-form="final" 
d="M553 511l-62 34l-33 -57l63 -35zM631 115v113q0 70 -15 108q-16 46 -55 46q-34 0 -61 -47q-24 -41 -24 -77q0 -28 24 -46q23 -17 68 -30h-288q-122 0 -179 25t-57 77q0 28 28 83l-15 9q-6 -12 -21 -47q-21 -47 -21 -81q0 -53 34 -84q31 -26 91 -40q49 -9 133 -9h358z
M590 233q-33 7 -45 15q-16 10 -16 28q0 31 27 31q18 0 27 -22q7 -17 7 -52z" />
    <glyph glyph-name="afii62808" unicode="&#x641;" horiz-adv-x="214" arabic-form="initial" 
d="M162 548l-64 32l-29 -56l63 -33zM214 115v101q0 84 -21 145q-25 75 -74 75q-35 0 -57 -46q-19 -39 -19 -95q0 -30 20 -47q19 -14 46 -14q17 0 32 4q19 6 31 10q8 -34 8 -66h-208v-67h242zM150 317q-21 -12 -38 -12q-35 0 -35 31q0 12 7 20.5t17 8.5q15 0 31 -19
q13 -13 18 -29z" />
    <glyph glyph-name="afii62809" unicode="&#x641;" horiz-adv-x="210" arabic-form="medial" 
d="M176 529l-57 36l-32 -55l55 -37zM210 115v134q0 56 -16 95q-21 51 -61 51q-33 0 -59 -41q-22 -37 -22 -78q0 -47 46 -66q20 -8 87 -18q-35 -10 -78 -10h-135v-67h238zM175 251q-42 3 -51 7q-32 11 -32 40q0 11 8 19.5t19 8.5q22 0 39 -29q9 -18 17 -46z" />
    <glyph glyph-name="afii62813" unicode="&#x642;" horiz-adv-x="465" arabic-form="final" 
d="M420 513l-65 34l-29 -56l63 -34zM330 478l-64 33l-30 -57l64 -33zM465 94v77q0 71 -22 122q-27 63 -72 63q-36 0 -61 -46q-23 -41 -23 -84q0 -38 27 -56q20 -16 56 -16q27 0 59 15q7 -17 7 -46q0 -55 -72 -86q-63 -27 -146 -27q-78 0 -118 22q-42 24 -42 75q0 23 5 51
q4 20 15 49q4 10 20 49l-17 7q-25 -45 -39 -94q-14 -53 -14 -97q0 -67 51 -100q47 -32 134 -32q111 0 178 37q74 41 74 117zM404 239q-30 -11 -42 -11q-15 0 -26 7t-11 19q0 31 36 31q17 0 27 -16q6 -6 16 -30z" />
    <glyph glyph-name="afii62811" unicode="&#x642;" horiz-adv-x="214" arabic-form="initial" 
d="M202 559l-65 33l-29 -56l63 -33zM112 524l-64 32l-29 -56l63 -32zM214 115v101q0 84 -21 145q-25 75 -74 75q-35 0 -57 -46q-19 -39 -19 -95q0 -30 20 -47q19 -14 46 -14q17 0 32 4q19 6 31 10q8 -34 8 -66h-208v-67h242zM150 317q-21 -12 -38 -12q-35 0 -35 31
q0 12 7 20.5t17 8.5q15 0 31 -19q13 -13 18 -29z" />
    <glyph glyph-name="afii62812" unicode="&#x642;" horiz-adv-x="210" arabic-form="medial" 
d="M194 549l-49 32l-34 -52l49 -32zM104 526l-46 31l-33 -52l48 -32zM210 115v134q0 56 -16 95q-21 51 -61 51q-33 0 -59 -41q-22 -37 -22 -78q0 -47 46 -66q20 -8 87 -18q-35 -10 -78 -10h-135v-67h238zM175 251q-42 3 -51 7q-32 11 -32 40q0 11 8 19.5t19 8.5q22 0 39 -29
q9 -18 17 -46z" />
    <glyph glyph-name="afii62816" unicode="&#x643;" horiz-adv-x="481" arabic-form="final" 
d="M338 353q0 27 -8 37.5t-29 10.5l-21 -3q-3 -1 -12 -1q-21 0 -21 13q0 19 23 33q12 8 42 16l7 50q-38 -12 -72 -58q-34 -44 -34 -78q0 -22 23 -22l28 2h16q9 0 15.5 -6t6.5 -14q0 -17 -32.5 -30.5t-76.5 -13.5q-8 0 -38 3q-9 1 -23 1l-7 -9q18 -6 52 -14q28 -6 52 -6
q52 0 80.5 23t28.5 66zM481 115v76l-46 306l18 -6q15 34 15 75l-43 15q-29 12 -29 35l-5 4q-19 -45 -19 -96l21 -10l49 -332h-249q-63 0 -99 14q-45 16 -45 59q0 26 22 78l-13 8q-21 -41 -22 -45q-18 -44 -18 -78q0 -57 42 -81q40 -22 133 -22h288z" />
    <glyph glyph-name="afii57410" unicode="&#x643;" horiz-adv-x="316" arabic-form="initial" 
d="M316 115v67q-30 57 -77 110q-41 47 -104 94q-12 8 -32 24q-25 18 -25 27t38 26q25 11 80 29l81 27v68l-110 -43q-75 -28 -105 -63q-33 -37 -33 -106q0 -11 24 -31l47 -36l13 13q61 -37 96 -67.5t61 -71.5h-298v-67h344z" />
    <glyph glyph-name="afii62815" unicode="&#x643;" horiz-adv-x="316" arabic-form="medial" 
d="M316 115v67q-30 57 -77 110q-41 47 -104 94q-12 8 -32 24q-25 18 -25 27t38 26q25 11 80 29l81 27v68l-110 -43q-75 -28 -105 -63q-33 -37 -33 -106q0 -11 24 -31l47 -36l13 13q61 -37 96 -67.5t61 -71.5h-298v-67h344z" />
    <glyph glyph-name="afii62819" unicode="&#x644;" horiz-adv-x="405" arabic-form="final" 
d="M405 163q0 43 -9 124q-6 48 -18 133q-10 70 -12 78l22 -7q10 34 10 75l-18 9q-12 6 -26 12q-15 5 -19 33h-6q-22 -43 -22 -96l18 -8l13 -77q17 -106 23 -155q12 -90 12 -128q0 -34 -62 -60q-57 -23 -122 -23q-63 0 -97.5 25t-34.5 73q0 24 8 51q6 24 19 49q10 23 24 47
l-13 8l-33 -65q-19 -41 -25 -67q-9 -36 -9 -70q0 -60 45 -91q41 -28 117 -28q66 0 109 12q50 14 77 47q29 37 29 99z" />
    <glyph glyph-name="afii62817" unicode="&#x644;" horiz-adv-x="165" arabic-form="initial" 
d="M165 115v76l-46 306l20 -6q9 34 9 75l-39 15q-25 12 -25 35l-6 4q-18 -43 -18 -96l20 -10l46 -332h-154v-67h193z" />
    <glyph glyph-name="afii62818" unicode="&#x644;" horiz-adv-x="165" arabic-form="medial" 
d="M165 115v76l-46 306l20 -6q9 34 9 75l-39 15q-25 12 -25 35l-6 4q-18 -43 -18 -96l20 -10l46 -332h-154v-67h193z" />
    <glyph glyph-name="afii62822" unicode="&#x645;" horiz-adv-x="270" arabic-form="final" 
d="M270 115v67q-16 27 -30 44q-18 23 -40 42q-26 17 -49 17q-34 0 -58 -28q-16 -19 -26 -47l17 -12q10 11 23 22q13 8 25 8q21 0 40 -16q4 -3 31 -30q-74 -8 -104 -17q-45 -13 -65.5 -40t-20.5 -76q0 -10 15 -61q8 -32 27 -93l21 -65q9 35 9 59q0 25 -18 84.5t-18 85.5
q0 28 61 43q48 13 114 13h46z" />
    <glyph glyph-name="afii62820" unicode="&#x645;" horiz-adv-x="316" arabic-form="initial" 
d="M316 115v67q0 27 -23 73q-18 35 -42 74q-24 -6 -57 -29q-37 -26 -59 -60q-19 -27 -39 -40q-28 -18 -64 -18h-60v-67h62q44 0 68 10.5t46 38.5q31 -25 68 -38q33 -11 59 -11h41zM270 191l-3 -4q-23 2 -48.5 14t-39.5 27q11 21 20 28q14 14 32 18q12 -17 24 -38
q11 -22 15 -45z" />
    <glyph glyph-name="afii62821" unicode="&#x645;" horiz-adv-x="316" arabic-form="medial" 
d="M316 115v67q0 27 -23 73q-18 35 -42 74q-24 -6 -57 -29q-37 -26 -59 -60q-19 -27 -39 -40q-28 -18 -64 -18h-60v-67h62q44 0 68 10.5t46 38.5q31 -25 68 -38q33 -11 59 -11h41zM270 191l-3 -4q-23 2 -48.5 14t-39.5 27q11 21 20 28q14 14 32 18q12 -17 24 -38
q11 -22 15 -45z" />
    <glyph glyph-name="afii62825" unicode="&#x646;" horiz-adv-x="420" arabic-form="final" 
d="M276 414l-63 32l-28 -54l61 -34zM420 115v67q0 55 -7.5 87.5t-28.5 64.5l-32 -80q19 -21 28 -53q13 -33 13 -75q0 -58 -71 -90q-58 -26 -131 -26q-64 0 -98.5 25t-34.5 73q0 54 45 149l-16 7q-22 -46 -29 -65q-31 -77 -31 -138t45 -91q41 -28 120 -28q122 0 178 45
q50 41 50 128z" />
    <glyph glyph-name="afii62823" unicode="&#x646;" horiz-adv-x="196" arabic-form="initial" 
d="M164 476l-64 32l-29 -56l63 -32zM196 115v95q0 68 -11 99q-8 21 -36 55l-30 -63q30 -33 37 -49q11 -25 11 -70h-195v-67h224z" />
    <glyph glyph-name="afii62824" unicode="&#x646;" horiz-adv-x="196" arabic-form="medial" 
d="M164 476l-64 32l-29 -56l63 -32zM196 115v95q0 68 -11 99q-8 21 -36 55l-30 -63q30 -33 37 -49q11 -25 11 -70h-195v-67h224z" />
    <glyph glyph-name="afii62829" unicode="&#x648;" horiz-adv-x="346" arabic-form="final" 
d="M346 138v44q0 54 -12 86q-15 40 -49 40t-56 -40q-18 -35 -18 -74q0 -45 30 -63q26 -17 78 -17q-28 -40 -47 -60q-34 -38 -67 -56q-42 -24 -89 -24q-12 0 -27.5 3t-34 7t-28.5 6l-6 -13l50 -18q34 -11 53 -14q25 -6 52 -6q70 0 123 71q48 65 48 128zM321 180q-73 0 -73 40
q0 10 8 17.5t19 7.5q15 0 25 -13q13 -13 21 -52z" />
    <glyph glyph-name="afii62830" unicode="&#x649;" horiz-adv-x="471" arabic-form="final" 
d="M471 115v67h-68q-33 0 -63 -9q-41 -12 -63 -37q-29 -31 -29 -79q0 -26 46 -26q4 0 29.5 -1.5t32.5 -1.5q26 0 26 -14q0 -19 -52 -29q-46 -8 -99 -8q-82 0 -131 23q-49 25 -49 74q0 27 22 70q4 7 29 50l-16 8q-40 -64 -47 -78q-25 -50 -25 -96q0 -56 53 -88
q49 -28 133 -28q120 0 173 36q48 33 48 107q0 14 -11 20q-6 3 -26 6q-39 4 -41 4q-6 1 -25 1q-36 0 -36 13q0 16 121 16h68z" />
    <glyph glyph-name="afii62833" unicode="&#x64a;" horiz-adv-x="471" arabic-form="final" 
d="M471 115v67h-68q-33 0 -63 -9q-41 -12 -63 -37q-29 -31 -29 -79q0 -26 46 -26q4 0 29.5 -1.5t32.5 -1.5q26 0 26 -14q0 -19 -52 -29q-46 -8 -99 -8q-82 0 -131 23q-49 25 -49 74q0 27 22 70q4 7 29 50l-16 8q-40 -64 -47 -78q-25 -50 -25 -96q0 -56 53 -88
q49 -28 133 -28q120 0 173 36q48 33 48 107q0 14 -11 20q-6 3 -26 6q-39 4 -41 4q-6 1 -25 1q-36 0 -36 13q0 16 121 16h68zM309 -136l-45 31l-35 -37l44 -28zM228 -136l-44 31l-36 -37l45 -28z" />
    <glyph glyph-name=".notdef" 
d="M100 0h400v500h-400v-500zM113 12v475h374v-475h-374z" />
    <glyph glyph-name=".null" horiz-adv-x="0" 
 />
    <glyph glyph-name="nonmarkingreturn" horiz-adv-x="222" 
 />
    <glyph glyph-name="space" unicode=" " horiz-adv-x="222" 
 />
    <glyph glyph-name="space" unicode="&#xa0;" horiz-adv-x="222" 
 />
    <glyph glyph-name="exclam" unicode="!" horiz-adv-x="222" 
d="M91 142h44l21 303v127h-88v-127zM72 0h81v80h-81v-80z" />
    <glyph glyph-name="quotedbl" unicode="&#x22;" horiz-adv-x="284" 
d="M56 370h44l16 109v93h-80v-93zM186 370h42l18 109v93h-80v-93z" />
    <glyph glyph-name="numbersign" unicode="#" horiz-adv-x="445" 
d="M40 -10h59l33 166h123l-33 -166h59l34 166h120v59h-109l30 141h79v59h-68l34 167h-59l-34 -167h-123l35 167h-59l-35 -167h-118v-59h107l-29 -141h-78v-59h66zM145 215l28 141h124l-29 -141h-123z" />
    <glyph glyph-name="dollar" unicode="$" horiz-adv-x="445" 
d="M199 -83h42v71q74 5 120 53q46 49 46 122q0 103 -96 146q-19 8 -70 21v202q69 -14 80 -92l73 11q-11 67 -56 105q-36 30 -97 36v34h-42v-34q-71 -8 -106 -38q-52 -46 -52 -122q0 -88 69 -127q50 -27 89 -34v-224q-41 5 -71 42q-21 29 -28 83l-72 -13q4 -52 27.5 -91
t58.5 -57q30 -15 85 -23v-71zM199 533v-194q-88 26 -88 98q0 37 23.5 63.5t64.5 32.5zM241 47v214q54 -17 74 -40t20 -63q0 -45 -26 -75.5t-68 -35.5z" />
    <glyph glyph-name="percent" unicode="%" horiz-adv-x="711" 
d="M46 436q0 -76 34 -116t88 -40t89 40t35 111q0 73 -35 112t-90 39q-57 0 -89 -41.5t-32 -104.5zM169 534q61 0 61 -100q0 -106 -61 -106t-61 100q0 106 61 106zM169 -21h59l312 603h-57zM417 134q0 -75 33.5 -115t87.5 -40t89 40.5t35 110.5q0 72 -34.5 112t-89.5 40
q-58 0 -89.5 -41.5t-31.5 -106.5zM540 233q61 0 61 -101q0 -104 -62 -104q-61 0 -61 99q0 106 62 106z" />
    <glyph glyph-name="ampersand" unicode="&#x26;" horiz-adv-x="533" 
d="M380 68q47 -55 88 -81l48 56q-50 33 -90 88q32 49 50 123l-72 15q-11 -46 -28 -79l-102 131q107 59 107 139q0 50 -37 86q-38 36 -96 36q-60 0 -101 -38q-40 -37 -40 -89q0 -28 13.5 -56t50.5 -70q-136 -64 -136 -171q0 -59 41 -108q52 -60 140 -60q94 0 164 78zM237 366
l-31 37q-27 30 -27 58q0 27 18.5 45t47.5 18q28 0 46 -18.5t18 -47.5q0 -26 -14.5 -46.5t-57.5 -45.5zM336 123q-20 -31 -54 -51t-66 -20q-51 0 -79 37q-27 37 -27 73q0 64 97 121z" />
    <glyph glyph-name="quotesingle" unicode="'" horiz-adv-x="153" 
d="M53 370h44l19 107v95h-80v-95z" />
    <glyph glyph-name="parenleft" unicode="(" horiz-adv-x="267" 
d="M187 -168h50q-116 188 -116 375q0 71 17 147q14 59 37 113q13 29 62 115h-50q-72 -95 -109 -196q-30 -86 -30 -179q0 -106 40 -204q40 -97 99 -171z" />
    <glyph glyph-name="parenright" unicode=")" horiz-adv-x="267" 
d="M99 -168q56 72 97 171q41 100 41 204q0 93 -30 179q-35 99 -108 196h-51q48 -82 63 -117q23 -49 37 -112q17 -74 17 -146q0 -187 -117 -375h51z" />
    <glyph glyph-name="asterisk" unicode="*" horiz-adv-x="311" 
d="M25 468q34 -10 96 -23q-19 -16 -65 -73l46 -33q22 27 51 83q33 -55 53 -83l47 33q-47 57 -67 73q55 9 98 23l-19 55q-48 -15 -92 -38q7 58 9 97h-57q3 -49 8 -97q-24 14 -90 38z" />
    <glyph glyph-name="plus" unicode="+" horiz-adv-x="468" 
d="M200 92h67v158h155v66h-155v155h-67v-155h-156v-66h156v-158z" />
    <glyph glyph-name="comma" unicode="," horiz-adv-x="222" 
d="M71 0h40q-4 -66 -44 -84l19 -29q65 27 65 113v80h-80v-80z" />
    <glyph glyph-name="hyphen" unicode="-" horiz-adv-x="267" 
d="M26 172h216v71h-216v-71z" />
    <glyph glyph-name="hyphen" unicode="&#xad;" horiz-adv-x="267" 
d="M26 172h216v71h-216v-71z" />
    <glyph glyph-name="period" unicode="." horiz-adv-x="222" 
d="M73 0h80v80h-80v-80z" />
    <glyph glyph-name="slash" unicode="/" horiz-adv-x="222" 
d="M0 -10h57l165 592h-56z" />
    <glyph glyph-name="zero" unicode="0" horiz-adv-x="445" 
d="M33 283q0 -163 57 -233q46 -60 130 -60q95 4 140 74t46 219q0 146 -49 220q-44 72 -137 72q-95 -3 -140.5 -73.5t-46.5 -218.5zM106 283q0 140 36 193q28 40 78 40q48 0 81 -46q33 -47 33 -187q0 -141 -33 -188t-81 -47t-81 46t-33 189z" />
    <glyph glyph-name="one" unicode="1" horiz-adv-x="445" 
d="M298 0v575h-46q-18 -38 -62.5 -77.5t-102.5 -66.5v-67q32 10 74 35q42 26 67 49v-448h70z" />
    <glyph glyph-name="two" unicode="2" horiz-adv-x="445" 
d="M403 68h-281q9 17 29 37q19 19 82 73q79 68 108 101q34 39 47 69q14 34 14 68q0 68 -48 113q-47 46 -131 46q-82 0 -130 -42t-56 -123l72 -8q1 54 31.5 84t81.5 30q48 0 78 -28t30 -70q0 -40 -33 -85q-32 -44 -126 -121q-110 -88 -139 -163q-9 -24 -8 -49h379v68z" />
    <glyph glyph-name="three" unicode="3" horiz-adv-x="445" 
d="M34 151q7 -72 57 -116.5t125 -44.5q85 0 138 52q55 52 55 127q0 56 -28.5 93t-79.5 48q79 36 79 116q3 60 -47 105.5t-120 43.5q-68 0 -114 -39t-58 -109l70 -13q16 103 103 103q42 0 68 -25t26 -64q0 -46 -34 -71t-83 -25h-11l-8 -61q32 8 50 8q49 0 80.5 -31.5
t31.5 -79.5q0 -52 -34 -86t-84 -34q-90 0 -112 113z" />
    <glyph glyph-name="four" unicode="4" horiz-adv-x="445" 
d="M259 0h70v137h77v65h-77v370h-58l-261 -370v-65h249v-137zM259 202h-180l180 258v-258z" />
    <glyph glyph-name="five" unicode="5" horiz-adv-x="445" 
d="M33 150q7 -73 56.5 -116.5t127.5 -43.5q96 0 151 70q45 56 45 134q0 82 -52 134t-126 52q-57 0 -109 -36l31 154h229v66h-285l-56 -293l67 -9q33 55 104 55q55 0 89 -35t34 -94q0 -63 -35 -101.5t-87 -38.5q-43 0 -72 27.5t-38 80.5z" />
    <glyph glyph-name="six" unicode="6" horiz-adv-x="445" 
d="M398 432q-9 68 -52 105.5t-110 37.5q-92 0 -144 -66q-62 -76 -62 -241q0 -150 55 -214t144 -64q76 -3 128 55t51 141q0 81 -50 134q-49 52 -119 52q-90 0 -139 -77q0 150 72 204q26 18 59 18q41 0 70 -30q18 -19 27 -60zM111 186q0 54 33 88.5t81 34.5q49 0 80 -34.5
t31 -93.5t-31.5 -96t-76.5 -37q-47 -3 -82.5 39.5t-34.5 98.5z" />
    <glyph glyph-name="seven" unicode="7" horiz-adv-x="445" 
d="M38 498h280q-121 -142 -174 -335q-24 -90 -26 -163h72q6 85 27 157q28 101 83 199q54 96 109 154v55h-371v-67z" />
    <glyph glyph-name="eight" unicode="8" horiz-adv-x="445" 
d="M141 310q-52 -13 -80.5 -51t-28.5 -94q0 -74 52 -125q53 -50 137 -50t137 50q52 51 52 124q0 111 -108 146q85 31 85 116q0 62 -46 105q-47 44 -121 44q-76 0 -120 -43q-45 -42 -45 -104q0 -86 86 -118zM127 429q0 37 26.5 62.5t66.5 25.5t67 -26t27 -65q0 -38 -26 -63
t-67 -25t-67.5 25.5t-26.5 65.5zM105 165q0 49 32.5 82t82.5 33t84 -33.5t34 -83.5t-33 -82.5t-83 -32.5q-51 0 -84 34.5t-33 82.5z" />
    <glyph glyph-name="nine" unicode="9" horiz-adv-x="445" 
d="M44 132q8 -67 51 -104.5t109 -37.5q209 8 206 308q0 103 -23 159.5t-72 87.5q-47 30 -102 30q-77 0 -129 -54q-51 -53 -51 -140q0 -84 49 -136q50 -51 121 -51q41 0 78 20.5t59 54.5v-14q0 -95 -37 -153q-34 -54 -97 -54q-78 0 -95 91zM332 385q0 -59 -31.5 -94
t-80.5 -35t-81.5 34.5t-32.5 89.5q0 61 34 98q35 38 82 38t78.5 -36t31.5 -95z" />
    <glyph glyph-name="colon" unicode=":" horiz-adv-x="222" 
d="M72 335h80v80h-80v-80zM72 0h80v80h-80v-80z" />
    <glyph glyph-name="semicolon" unicode=";" horiz-adv-x="222" 
d="M71 335h80v80h-80v-80zM71 0h40q-4 -66 -44 -84l19 -29q65 27 65 113v80h-80v-80z" />
    <glyph glyph-name="semicolon" unicode="&#x37e;" horiz-adv-x="222" 
d="M71 335h80v80h-80v-80zM71 0h40q-4 -66 -44 -84l19 -29q65 27 65 113v80h-80v-80z" />
    <glyph glyph-name="less" unicode="&#x3c;" horiz-adv-x="468" 
d="M44 251l379 -163v70l-300 125l300 123v70l-379 -160v-65z" />
    <glyph glyph-name="equal" unicode="=" horiz-adv-x="468" 
d="M422 337v66h-378v-66h378zM422 163v65h-378v-65h378z" />
    <glyph glyph-name="greater" unicode="&#x3e;" horiz-adv-x="468" 
d="M423 251v65l-379 160v-70l300 -123l-300 -125v-70z" />
    <glyph glyph-name="question" unicode="?" horiz-adv-x="445" 
d="M184 141h68q0 62 21 94q11 15 45 45q53 45 69 76q17 32 17 70q0 65 -50 110q-49 46 -134 46q-79 0 -127 -42.5t-57 -122.5l72 -8q16 115 114 115q47 0 78 -31q32 -32 32 -72q0 -23 -11.5 -42t-47.5 -51q-35 -31 -50 -49q-19 -23 -27 -45q-12 -30 -12 -72v-21zM180 0h80
v80h-80v-80z" />
    <glyph glyph-name="at" unicode="@" horiz-adv-x="812" 
d="M453 64q3 -22 8 -34q14 -32 68 -32q85 0 155 79q80 89 80 201q0 80 -38 148q-44 77 -121 117t-175 40q-123 0 -211.5 -56t-135.5 -163q-39 -86 -39 -181q0 -84 32 -159q40 -91 135 -141.5t228 -50.5q173 0 276 92q47 40 68 83h-70q-38 -52 -108.5 -84.5t-167.5 -32.5
q-99 0 -176.5 34t-118.5 100q-41 70 -41 165q0 92 41 172q42 80 117 122q76 43 168 43q119 2 202 -73t78 -173q0 -56 -26.5 -108.5t-70.5 -84.5q-35 -23 -54 -23q-12 0 -20 7.5t-8 18.5q0 4 12 60l56 262h-70l-13 -60q-43 71 -118 71q-47 0 -93.5 -32t-77.5 -93
q-32 -62 -32 -124q-2 -74 43 -126.5t98 -48.5q65 0 120 65zM265 170q0 34 12.5 74.5t32.5 67.5q40 53 90 53q40 0 65.5 -30t25.5 -82q0 -83 -51 -145q-43 -51 -92 -51q-34 0 -58.5 30.5t-24.5 82.5z" />
    <glyph glyph-name="A" unicode="A" horiz-adv-x="533" 
d="M-1 0h80l63 173h239l67 -173h87l-235 572h-81zM164 236l63 168q22 60 31 109q17 -58 41 -119l59 -158h-194z" />
    <glyph glyph-name="B" unicode="B" horiz-adv-x="533" 
d="M59 0h218q103 0 155 38q26 19 42.5 54t16.5 74q0 51 -28 87.5t-80 51.5q39 18 59.5 50.5t20.5 70.5q-2 67 -50 108.5t-139 37.5h-215v-572zM134 332v173h115q60 0 86 -8t39 -30q14 -23 14 -50q0 -60 -57 -78q-21 -7 -73 -7h-124zM134 68v197h133q77 1 109 -23t36 -76
q0 -81 -83 -96q-20 -2 -52 -2h-143z" />
    <glyph glyph-name="C" unicode="C" horiz-adv-x="578" 
d="M470 201q-15 -71 -59 -108.5t-108 -37.5q-82 -2 -135.5 63t-49.5 173q-2 94 47 161.5t143 64.5q117 0 153 -119l75 18q-23 79 -81.5 122.5t-144.5 43.5q-117 2 -195.5 -79t-74.5 -212q0 -84 31 -155t87 -108q59 -38 151 -38q90 0 152 49.5t85 141.5z" />
    <glyph glyph-name="D" unicode="D" horiz-adv-x="578" 
d="M61 0h207q79 0 128.5 21.5t84.5 69.5q54 74 54 199q0 157 -90 234q-36 30 -84 40q-37 8 -102 8h-198v-572zM138 68v437h120q66 0 98 -12q45 -17 73 -67.5t28 -134.5q0 -126 -57 -183q-43 -40 -140 -40h-122z" />
    <glyph glyph-name="E" unicode="E" horiz-adv-x="533" 
d="M63 0h428v68h-352v194h317v68h-317v175h338v67h-414v-572z" />
    <glyph glyph-name="F" unicode="F" horiz-adv-x="489" 
d="M66 0h75v260h269v68h-269v177h311v67h-386v-572z" />
    <glyph glyph-name="G" unicode="G" horiz-adv-x="622" 
d="M330 225h168v-107q-22 -20 -71 -40q-45 -19 -96 -19q-60 0 -109.5 25.5t-74.5 75.5q-26 54 -26 128q0 62 21 116q52 113 188 113q137 -6 165 -123l69 18q-16 59 -44.5 94.5t-78.5 55.5q-51 20 -112 20q-182 0 -251 -143q-35 -73 -35 -155q-4 -129 80 -213.5t212 -80.5
q123 0 237 90v212h-242v-67z" />
    <glyph glyph-name="H" unicode="H" horiz-adv-x="578" 
d="M64 0h76v270h297v-270h76v572h-76v-234h-297v234h-76v-572z" />
    <glyph glyph-name="I" unicode="I" horiz-adv-x="222" 
d="M75 0h75v572h-75v-572z" />
    <glyph glyph-name="J" unicode="J" horiz-adv-x="400" 
d="M23 163q-2 -85 37.5 -129t116.5 -44q107 0 143 81q18 39 18 111v390h-76v-394q0 -49 -8 -71.5t-29 -35.5q-19 -13 -48 -13q-41 0 -62 25.5t-23 88.5z" />
    <glyph glyph-name="K" unicode="K" horiz-adv-x="533" 
d="M59 0h75v198l94 92l204 -290h100l-251 340l241 232h-103l-285 -283v283h-75v-572z" />
    <glyph glyph-name="L" unicode="L" horiz-adv-x="445" 
d="M59 0h357v68h-282v504h-75v-572z" />
    <glyph glyph-name="M" unicode="M" horiz-adv-x="667" 
d="M60 0h72v487l166 -487h68l166 479v-479h74v572h-102l-137 -398l-31 -91q-8 27 -27 84l-136 405h-113v-572z" />
    <glyph glyph-name="N" unicode="N" horiz-adv-x="578" 
d="M61 0h72v450l302 -450h77v572h-73v-449l-300 449h-78v-572z" />
    <glyph glyph-name="O" unicode="O" horiz-adv-x="622" 
d="M39 279q-4 -117 75.5 -205t198.5 -84q114 -3 196 81.5t78 213.5q3 129 -75.5 214.5t-198.5 83.5q-121 0 -198 -81q-76 -80 -76 -223zM116 277q0 130 58 185t139 55q89 0 142 -63t53 -168q0 -110 -56 -171q-56 -60 -140 -60t-140 59q-56 61 -56 163z" />
    <glyph glyph-name="P" unicode="P" horiz-adv-x="533" 
d="M61 0h77v233h146q121 0 168 50q47 52 47 124q0 67 -36.5 108.5t-98.5 51.5q-32 5 -87 5h-216v-572zM138 300v205h146q49 0 71 -5q30 -8 47.5 -34t17.5 -62q0 -104 -135 -104h-147z" />
    <glyph glyph-name="Q" unicode="Q" horiz-adv-x="622" 
d="M496 61q86 84 86 226q4 128 -74.5 213t-199.5 83q-118 4 -197 -82t-76 -215q-3 -127 75.5 -212.5t196.5 -83.5q77 0 141 36q60 -47 123 -70l22 52q-42 16 -97 53zM329 158l-19 -55q40 -10 76 -33q-37 -15 -77 -15q-85 0 -141 59q-55 59 -55 172q0 112 54 171.5t142 59.5
q86 1 142 -63.5t53 -166.5q0 -123 -67 -184q-41 37 -108 55z" />
    <glyph glyph-name="R" unicode="R" horiz-adv-x="578" 
d="M63 0h76v254h88q25 0 41 -2q31 -8 56.5 -33.5t71.5 -99.5l76 -119h96l-100 156q-29 45 -63 76q-20 16 -46 28q81 12 121.5 53t40.5 103q0 48 -24 87t-64 54q-39 15 -117 15h-253v-572zM139 320v189h181q62 0 92.5 -25t30.5 -68q-7 -100 -142 -96h-162z" />
    <glyph glyph-name="S" unicode="S" horiz-adv-x="533" 
d="M36 184q2 -90 66.5 -142t177.5 -52q92 0 152 50t60 122q0 94 -98 139q-33 16 -127 37q-91 21 -114 41q-22 19 -22 50q0 38 33 62.5t98 24.5q128 0 140 -110l73 6q-3 77 -61.5 123.5t-153.5 46.5q-88 3 -146.5 -43.5t-55.5 -113.5q0 -82 81 -125q31 -16 111 -36
q83 -20 102 -28q67 -27 67 -80q0 -43 -38 -70.5t-105 -27.5q-76 2 -120.5 36.5t-47.5 95.5z" />
    <glyph glyph-name="T" unicode="T" horiz-adv-x="489" 
d="M207 0h77v505h189v67h-454v-67h188v-505z" />
    <glyph glyph-name="U" unicode="U" horiz-adv-x="578" 
d="M437 572v-330q0 -108 -36 -146q-34 -37 -118 -37q-101 0 -131 73q-13 35 -13 110v330h-76v-330q-1 -134 51.5 -191.5t175.5 -60.5q79 0 131.5 31t71.5 84q20 52 20 137v330h-76z" />
    <glyph glyph-name="V" unicode="V" horiz-adv-x="533" 
d="M226 0h77l224 572h-77l-155 -416q-18 -46 -30 -93l-30 93l-150 416h-81z" />
    <glyph glyph-name="W" unicode="W" horiz-adv-x="755" 
d="M162 0h77l122 436q2 7 7.5 29.5t9.5 37.5q1 -11 18 -67l120 -436h73l157 572h-76l-90 -368q-23 -98 -28 -124q-14 95 -45 203l-82 289h-92l-108 -386q-5 -16 -26 -106q-7 39 -25 117l-87 375h-77z" />
    <glyph glyph-name="X" unicode="X" horiz-adv-x="533" 
d="M4 0h90l144 200q1 2 10.5 16.5t17.5 26.5q14 -24 25 -39l144 -204h94l-217 303l201 269h-83l-114 -152q-26 -32 -46 -64q-7 12 -46 70l-104 146h-91l196 -273z" />
    <glyph glyph-name="Y" unicode="Y" horiz-adv-x="533" 
d="M223 0h76v243l228 329h-88l-111 -168q-38 -58 -62 -101q-23 42 -59 97l-113 172h-91l220 -329v-243z" />
    <glyph glyph-name="Z" unicode="Z" horiz-adv-x="489" 
d="M16 0h452v68h-365l35 40l322 397v67h-411v-67h320q-26 -26 -60 -68l-293 -367v-70z" />
    <glyph glyph-name="bracketleft" unicode="[" horiz-adv-x="222" 
d="M54 -159h156v59h-86v615h86v57h-156v-731z" />
    <glyph glyph-name="backslash" unicode="\" horiz-adv-x="222" 
d="M166 -10h56l-165 592h-57z" />
    <glyph glyph-name="bracketright" unicode="]" horiz-adv-x="222" 
d="M171 -159v731h-156v-57h85v-615h-85v-59h156z" />
    <glyph glyph-name="asciicircum" unicode="^" horiz-adv-x="375" 
d="M93 269l94 234l97 -234h71l-139 313h-57l-138 -313h72z" />
    <glyph glyph-name="underscore" unicode="_" horiz-adv-x="445" 
d="M-12 -159h466v51h-466v-51z" />
    <glyph glyph-name="grave" unicode="`" horiz-adv-x="267" 
d="M181 467l-52 109h-94l90 -109h56z" />
    <glyph glyph-name="a" unicode="a" horiz-adv-x="445" 
d="M324 52q1 -28 14 -52h73q-15 26 -19 50q-4 23 -4 124v94q0 48 -3 64q-9 44 -44.5 68t-112.5 24q-162 -1 -187 -127l68 -10q12 45 35.5 62t73.5 17q53 0 80 -24q20 -18 20 -60q0 -10 -1 -19q-41 -14 -125 -24q-40 -4 -62 -11q-45 -12 -73 -42.5t-28 -76.5q0 -53 37.5 -86
t104.5 -33q80 0 153 62zM317 208v-26q0 -47 -10 -70q-15 -31 -47 -49t-72 -18t-62 19t-22 47q0 42 37 56q20 8 62 14q77 12 114 27z" />
    <glyph glyph-name="b" unicode="b" horiz-adv-x="445" 
d="M117 0v52q42 -62 116 -62t126 58q53 59 53 165q0 95 -48 153t-128 58q-69 0 -113 -56v204h-71v-572h65zM116 211q0 72 33 113.5t81 41.5t79 -40.5t31 -117.5q0 -76 -32.5 -118t-80.5 -42q-56 0 -90 55q-21 33 -21 108z" />
    <glyph glyph-name="c" unicode="c" horiz-adv-x="400" 
d="M324 152q-8 -51 -35.5 -77.5t-68.5 -26.5q-54 0 -85.5 39.5t-31.5 120.5q0 80 32 119t88 39q76 0 94 -83l69 10q-12 63 -55 97t-111 34q-84 2 -138.5 -58t-50.5 -160q0 -102 51.5 -159t137.5 -57q69 0 115 40.5t58 112.5z" />
    <glyph glyph-name="d" unicode="d" horiz-adv-x="445" 
d="M322 0h65v572h-70v-205q-39 57 -114 57q-78 3 -128.5 -59.5t-46.5 -157.5q0 -96 50 -156.5t128 -60.5q77 0 116 62v-52zM100 207q0 80 30 119.5t80 39.5q51 0 82 -42t31 -123q0 -74 -31 -113.5t-80 -39.5q-48 0 -80 41t-32 118z" />
    <glyph glyph-name="e" unicode="e" horiz-adv-x="445" 
d="M337 133q-30 -85 -109 -85q-54 0 -88 37t-38 104h310v19q0 101 -52 158.5t-137 57.5q-88 0 -141 -58.5t-53 -161.5q0 -100 53.5 -157t144.5 -57q72 0 118.5 35t64.5 99zM106 247q3 54 36 86.5t82 32.5q53 0 87 -40q21 -25 27 -79h-232z" />
    <glyph glyph-name="f" unicode="f" horiz-adv-x="222" 
d="M69 0h71v360h80v55h-80v38q0 38 12.5 51.5t45.5 13.5q22 0 41 -4l11 61q-34 7 -66 7q-85 0 -107 -61q-8 -22 -8 -62v-44h-62v-55h62v-360z" />
    <glyph glyph-name="g" unicode="g" horiz-adv-x="445" 
d="M40 -35q-2 -64 42.5 -98.5t121.5 -34.5q127 0 167 87q20 42 20 137v359h-65v-51q-46 60 -121 60q-81 3 -131 -59.5t-48 -154.5q0 -87 46 -148q47 -62 133 -62q69 0 115 54q0 -65 -5 -90q-19 -74 -111 -74q-47 0 -72 19q-19 15 -24 47zM98 215q0 72 32 111.5t81 39.5
q50 0 82.5 -40t32.5 -114q0 -77 -31.5 -115.5t-82.5 -38.5t-82.5 39.5t-31.5 117.5z" />
    <glyph glyph-name="h" unicode="h" horiz-adv-x="445" 
d="M52 0h71v227q-4 67 26.5 100.5t83.5 36.5q87 0 87 -101v-263h70v263q2 85 -33 120.5t-110 40.5q-75 0 -124 -57v205h-71v-572z" />
    <glyph glyph-name="i" unicode="i" horiz-adv-x="178" 
d="M53 492h71v80h-71v-80zM53 0h71v415h-71v-415z" />
    <glyph glyph-name="j" unicode="j" horiz-adv-x="178" 
d="M52 491h71v81h-71v-81zM-36 -161q24 -7 55 -7q59 0 84 39q20 29 20 107v437h-71v-436q0 -57 -11 -71q-11 -15 -31 -15q-14 0 -33 6z" />
    <glyph glyph-name="k" unicode="k" horiz-adv-x="400" 
d="M53 0h71v164l49 48l137 -212h86l-174 261l158 154h-90l-166 -169v326h-71v-572z" />
    <glyph glyph-name="l" unicode="l" horiz-adv-x="178" 
d="M52 0h70v572h-70v-572z" />
    <glyph glyph-name="m" unicode="m" horiz-adv-x="667" 
d="M52 0h71v215q-2 78 25 111.5t78 37.5q74 0 74 -95v-269h70v241q0 61 28 92t73 31q24 0 42.5 -12t24.5 -31q7 -17 7 -60v-261h70v284q0 140 -128 140q-79 0 -129 -72q-24 72 -116 72q-85 0 -126 -68v59h-64v-415z" />
    <glyph glyph-name="n" unicode="n" horiz-adv-x="445" 
d="M52 0h71v227q0 79 32 108q34 29 78 29q47 -4 67.5 -28.5t18.5 -83.5v-252h71v255q0 52 -4 69q-9 45 -44.5 72.5t-93.5 27.5q-85 0 -132 -68v59h-64v-415z" />
    <glyph glyph-name="o" unicode="o" horiz-adv-x="445" 
d="M27 207q0 -103 52.5 -160t141.5 -57q90 5 143.5 59t50.5 164q0 99 -54 155t-140 56q-78 0 -130 -46q-64 -55 -64 -171zM99 207q0 78 33.5 118.5t88.5 40.5q54 0 88 -40.5t34 -115.5q0 -79 -33.5 -120.5t-88.5 -41.5t-88.5 41t-33.5 118z" />
    <glyph glyph-name="p" unicode="p" horiz-adv-x="445" 
d="M52 -159h71v202q41 -53 109 -53q75 -2 130 62.5t51 158.5q2 92 -47 154t-129 59q-74 0 -121 -63v54h-64v-574zM116 205q0 79 35 122q35 42 79 42q48 0 79.5 -40.5t31.5 -117.5q0 -79 -32 -121t-81 -42q-50 0 -81 40t-31 117z" />
    <glyph glyph-name="q" unicode="q" horiz-adv-x="445" 
d="M317 -159h71v574h-64v-56q-44 65 -120 65q-76 3 -127.5 -58t-48.5 -154q0 -104 53 -163q54 -59 128 -59q68 0 108 54v-203zM100 209q0 78 31 119t79 41t81 -44t33 -122q0 -75 -31 -115t-79 -40q-49 0 -81.5 42t-32.5 119z" />
    <glyph glyph-name="r" unicode="r" horiz-adv-x="267" 
d="M52 0h71v217q0 42 11 83q18 52 68 52q26 0 51 -16l24 66q-35 22 -72 22q-26 0 -46 -15t-43 -57v63h-64v-415z" />
    <glyph glyph-name="s" unicode="s" horiz-adv-x="400" 
d="M25 124q23 -134 177 -134q73 0 120 38.5t47 93.5q0 70 -64 97q-27 13 -103 33q-25 6 -62 17q-17 7 -27 19q-9 12 -9 25q0 23 22.5 38t67.5 15q82 0 90 -67l70 9q-14 112 -165 116q-66 0 -105 -28q-48 -33 -48 -91q0 -65 61 -95q34 -16 107 -34q57 -15 72 -24
q21 -14 21 -37q0 -29 -24.5 -48t-70.5 -19q-96 0 -108 87z" />
    <glyph glyph-name="t" unicode="t" horiz-adv-x="222" 
d="M206 63q-20 -3 -31 -3q-28 0 -36 18q-4 8 -4 39v243h71v55h-71v145l-69 -43v-102h-52v-55h52v-238q0 -63 8 -84q9 -19 30 -31t60 -12q24 0 52 6z" />
    <glyph glyph-name="u" unicode="u" horiz-adv-x="445" 
d="M324 0h64v415h-71v-222q4 -73 -25.5 -105t-84.5 -36q-32 0 -53.5 15.5t-27.5 42.5q-4 17 -4 75v230h-70v-257q0 -45 3 -66q12 -61 69 -88q33 -14 69 -14q83 0 131 71v-61z" />
    <glyph glyph-name="v" unicode="v" horiz-adv-x="400" 
d="M168 0h66l156 415h-72l-92 -253q-8 -24 -26 -79q-11 40 -27 83l-89 249h-74z" />
    <glyph glyph-name="w" unicode="w" horiz-adv-x="578" 
d="M129 0h74l84 319l16 -71l66 -248h73l130 415h-69l-71 -240l-24 -80l-20 79l-63 241h-72l-66 -243q-6 -23 -11 -43.5t-8 -30.5t-3 -12l-24 89l-66 240h-72z" />
    <glyph glyph-name="x" unicode="x" horiz-adv-x="400" 
d="M6 0h85l109 164l22 -35l86 -129h86l-154 220l143 195h-83l-71 -99l-32 -45q-11 21 -28 46l-64 98h-88l140 -199z" />
    <glyph glyph-name="y" unicode="y" horiz-adv-x="400" 
d="M50 -160q27 -8 45 -8q65 0 101 67q17 33 40 94l157 422h-70l-89 -242q-19 -53 -29 -95q-13 51 -30 96l-86 241h-76l158 -416q-7 -15 -7 -17q-15 -42 -22 -52q-19 -30 -60 -30q-19 0 -40 7z" />
    <glyph glyph-name="z" unicode="z" horiz-adv-x="400" 
d="M16 0h367v60h-192q-43 0 -89 -3l44 48l225 263v47h-340v-57h169q20 0 80 2l-264 -303v-57z" />
    <glyph glyph-name="braceleft" unicode="{" horiz-adv-x="268" 
d="M22 239v-64q62 -2 75 -59q6 -26 6 -97q0 -68 5 -101q4 -32 21 -51q17 -20 42 -29q17 -6 56 -6h21v61h-12q-36 0 -49 10t-16 37q-2 20 -2 91q0 86 -19 121q-19 37 -63 55q37 18 54 41t23 64q5 30 5 129q0 50 13 65t54 15h12v61h-21q-34 0 -49 -3q-33 -10 -50.5 -33.5
t-21.5 -69.5q-3 -21 -3 -87q0 -65 -6 -92q-13 -56 -75 -58z" />
    <glyph glyph-name="bar" unicode="|" horiz-adv-x="208" 
d="M74 -168h61v750h-61v-750z" />
    <glyph glyph-name="braceright" unicode="}" horiz-adv-x="268" 
d="M244 239q-59 1 -74 58q-6 27 -6 97q0 67 -5 102q-4 30 -22 51q-17 22 -41 29q-18 6 -56 6h-21v-61h11q37 0 50 -10t16 -37q2 -18 2 -91q0 -83 18 -119t64 -57q-66 -27 -79 -110q-3 -25 -3 -124q0 -50 -13 -65t-55 -15h-11v-61h21q36 0 49 4q32 10 50 33t22 70q3 20 3 85
q0 66 6 92q14 58 74 59v64z" />
    <glyph glyph-name="asciitilde" unicode="~" horiz-adv-x="468" 
d="M34 218q33 30 55 41.5t47 11.5q30 0 77 -21q48 -22 68 -26q23 -5 44 -5q64 0 109 44v83q-51 -54 -102 -54q-17 0 -67 18q-79 35 -123 35q-66 0 -108 -47v-80z" />
    <glyph glyph-name="exclamdown" unicode="&#xa1;" horiz-adv-x="267" 
d="M174 415h-81v-80h81v80zM156 272h-45l-20 -303v-127h87v127z" />
    <glyph glyph-name="cent" unicode="&#xa2;" horiz-adv-x="445" 
d="M291 349q26 -22 37 -66l68 10q-17 84 -88 116l44 151l-43 12l-44 -151q-23 4 -39 4q-50 0 -95 -26.5t-67 -74.5t-22 -119q0 -73 27.5 -124t74.5 -73l-45 -156l43 -12l46 155q22 -6 41 -6q66 0 114 42t61 113l-70 8q-7 -49 -36 -77.5t-70 -28.5q-12 0 -24 4zM249 367
l-87 -298q-48 36 -48 140q0 75 31.5 117t83.5 42q11 0 20 -1z" />
    <glyph glyph-name="sterling" unicode="&#xa3;" horiz-adv-x="445" 
d="M155 316q-23 72 -23 113q0 39 29.5 67t71.5 28t70.5 -26.5t34.5 -73.5l70 11q-11 70 -56.5 108.5t-116.5 38.5q-69 0 -118 -36q-59 -47 -59 -126q0 -34 19 -104h-60v-58h76q7 -22 7 -48q0 -52 -25 -91.5t-64 -61.5l26 -68q58 37 119 37q20 0 36 -4q8 -1 52 -14
q45 -13 50 -14q15 -4 34 -4q35 0 94 25l-22 64q-46 -21 -75 -21q-26 0 -91 16q-39 10 -73 10q-26 0 -56 -9q69 73 69 149q0 19 -7 34h110v58h-122z" />
    <glyph glyph-name="currency" unicode="&#xa4;" horiz-adv-x="445" 
d="M84 375q-29 -44 -29 -91q0 -49 29 -93l-55 -52l45 -47l54 55q43 -29 92 -29q52 0 93 29l55 -55l45 47l-55 52q29 44 29 93q0 47 -29 91l55 53l-45 47l-55 -55q-41 29 -93 29q-49 0 -92 -29l-54 55l-45 -47zM119 284q0 41 30 71t71 30q42 0 72 -30t30 -71q0 -42 -30 -72
t-72 -30q-41 0 -71 30t-30 72z" />
    <glyph glyph-name="yen" unicode="&#xa5;" horiz-adv-x="445" 
d="M187 0h70v127h161v54h-161v56h161v58h-134l159 277h-84l-107 -198q-25 -47 -32 -63q-10 25 -30 60l-113 201h-78l158 -277h-133v-58h163v-56h-163v-54h163v-127z" />
    <glyph glyph-name="brokenbar" unicode="&#xa6;" horiz-adv-x="208" 
d="M135 582h-61v-308h61v308zM135 140h-61v-308h61v308z" />
    <glyph glyph-name="section" unicode="&#xa7;" horiz-adv-x="445" 
d="M56 -28q9 -66 53 -103t118 -37q64 -2 110 36.5t44 91.5q0 63 -62 109q45 19 61 37q28 31 28 75q0 56 -53 103q-31 22 -84 55q-95 57 -119 86q-14 17 -14 37q0 25 22.5 43.5t57.5 18.5t55 -19t29 -66l73 8q-17 135 -163 135q-64 0 -104 -37q-39 -36 -39 -86q0 -48 50 -97
q-40 -12 -63.5 -42t-23.5 -68q0 -61 51 -105q29 -23 81 -55q108 -67 133 -96q14 -17 14 -37q0 -28 -23.5 -48t-61.5 -20q-42 0 -65 21t-35 71zM284 95q-35 26 -90 58q-63 39 -81 59q-18 22 -18 48q0 40 59 75q24 -20 80 -54q65 -40 88 -66q20 -26 20 -47q0 -43 -58 -73z" />
    <glyph glyph-name="dieresis" unicode="&#xa8;" horiz-adv-x="267" 
d="M24 496h73v80h-73v-80zM170 496h73v80h-73v-80z" />
    <glyph glyph-name="copyright" unicode="&#xa9;" horiz-adv-x="589" 
d="M296 582q-74 0 -145 -38q-69 -37 -110 -109q-40 -70 -40 -148q0 -75 39 -146q39 -70 109 -109q71 -39 147 -39t146 39q72 40 109 109q39 71 39 146q0 77 -39 148q-38 71 -110 109q-71 38 -145 38zM296 533q64 0 122.5 -32t90.5 -90q33 -58 33 -124q0 -64 -33 -122.5
t-91 -90.5q-59 -32 -122 -32q-96 -4 -173 72.5t-73 172.5q0 67 33.5 125.5t91.5 88.5q59 32 121 32zM390 240q-8 -35 -34.5 -55.5t-62.5 -20.5q-44 0 -71 31.5t-27 89.5q0 59 28.5 92t74.5 33q63 0 89 -61l46 12q-13 43 -47.5 67.5t-85.5 24.5q-73 0 -115.5 -44t-42.5 -122
t42.5 -123t112.5 -45q54 0 92 29t50 78z" />
    <glyph glyph-name="ordfeminine" unicode="&#xaa;" horiz-adv-x="296" 
d="M214 333q2 -21 8 -34h59q-16 19 -16 72v23v94q0 46 -26 70q-27 24 -91 24q-53 0 -83.5 -22t-35.5 -59l54 -13q6 49 65 49q37 -5 48.5 -14.5t12.5 -45.5l-38 -8l-57 -9q-23 -3 -39 -8q-56 -20 -56 -75q0 -37 25.5 -61t69.5 -24q51 0 100 41zM208 431q0 -32 -3 -40
q-7 -22 -28.5 -37t-49.5 -15q-23 0 -37 11t-14 27q0 14 11 25q10 10 46 15q48 8 75 14z" />
    <glyph glyph-name="guillemotleft" unicode="&#xab;" horiz-adv-x="445" 
d="M132 206l103 178h-58l-125 -178l125 -178h57zM284 206l103 178h-59l-123 -178l123 -178h59z" />
    <glyph glyph-name="logicalnot" unicode="&#xac;" horiz-adv-x="468" 
d="M422 165v238h-378v-66h312v-172h66z" />
    <glyph glyph-name="registered" unicode="&#xae;" horiz-adv-x="589" 
d="M296 582q-74 0 -145 -38q-69 -37 -110 -109q-40 -70 -40 -148q0 -75 39 -146q39 -70 109 -109q71 -39 147 -39t146 39q72 40 109 109q39 71 39 146q0 77 -39 148q-38 71 -110 109q-71 38 -145 38zM296 533q64 0 122.5 -32t90.5 -90q33 -58 33 -124q0 -64 -33 -122.5
t-91 -90.5q-59 -32 -122 -32q-96 -4 -173 72.5t-73 172.5q0 67 33.5 125.5t91.5 88.5q59 32 121 32zM167 124h51v136h30q28 0 41 -12q20 -14 53 -74l29 -50h62l-38 63q-30 46 -47 63q-9 9 -27 17q41 2 66 27.5t25 61.5q0 24 -15.5 46t-40.5 31q-24 9 -80 9h-109v-318z
M218 303v96h58q36 0 50 -5t23 -18q8 -11 8 -24q0 -49 -77 -49h-62z" />
    <glyph glyph-name="overscore" unicode="&#xaf;" horiz-adv-x="267" 
d="M12 479h243v58h-243v-58z" />
    <glyph glyph-name="overscore" unicode="&#x2c9;" horiz-adv-x="267" 
d="M12 479h243v58h-243v-58z" />
    <glyph glyph-name="degree" unicode="&#xb0;" horiz-adv-x="320" 
d="M50 474q0 -45 32 -77t76 -32q46 0 77.5 32t31.5 77t-31.5 76.5t-77.5 31.5q-44 0 -76 -32t-32 -76zM92 474q0 27 20 46.5t46 19.5q28 0 47 -19.5t19 -46.5t-19 -46.5t-47 -19.5q-26 0 -46 19.5t-20 46.5z" />
    <glyph glyph-name="plusminus" unicode="&#xb1;" horiz-adv-x="439" 
d="M187 101h65v158h157v65h-157v156h-65v-156h-157v-65h157v-158zM409 0v66h-379v-66h379z" />
    <glyph glyph-name="twosuperior" unicode="&#xb2;" horiz-adv-x="267" 
d="M10 286h243v47h-151q11 13 46 39q64 44 80 66q24 30 24 62q0 35 -29.5 57.5t-84.5 22.5q-53 0 -81 -20t-39 -65l59 -6q8 27 20 35.5t39 8.5q26 0 40 -11.5t14 -30.5q0 -16 -14 -33q-11 -12 -68 -53q-56 -41 -80 -74q-16 -23 -18 -45z" />
    <glyph glyph-name="threesuperior" unicode="&#xb3;" horiz-adv-x="267" 
d="M13 363q17 -84 120 -84q55 0 87 26.5t32 64.5q0 58 -67 74q54 17 54 63q0 33 -26.5 53t-80.5 20q-48 0 -72 -16t-40 -58l56 -9q8 22 20.5 30.5t34.5 8.5q23 0 35 -9.5t12 -25.5q0 -40 -62 -40l-8 -42q5 0 8 1h13q62 0 62 -43q0 -22 -17 -37t-44 -15q-22 0 -39 12
q-13 7 -21 32z" />
    <glyph glyph-name="acute" unicode="&#xb4;" horiz-adv-x="267" 
d="M87 467h58l86 109h-92z" />
    <glyph glyph-name="mu1" unicode="&#xb5;" horiz-adv-x="461" 
d="M397 415h-68v-177q0 -95 -11 -123q-11 -29 -35 -44q-25 -17 -55 -17t-53 16.5t-33 44.5q-10 27 -10 124v176h-70v-574h70v201q23 -29 41 -38q26 -14 58 -14q38 0 63 16q22 13 41 43v-49h62v415z" />
    <glyph glyph-name="paragraph" unicode="&#xb6;" horiz-adv-x="429" 
d="M158 -159h64v664h87v-664h67v664h56v67h-247q-89 0 -137 -43.5t-48 -120.5q0 -69 43 -112t115 -47v-408z" />
    <glyph glyph-name="middot" unicode="&#xb7;" horiz-adv-x="222" 
d="M72 242h80v80h-80v-80z" />
    <glyph glyph-name="middot" unicode="&#x2219;" horiz-adv-x="222" 
d="M72 242h80v80h-80v-80z" />
    <glyph glyph-name="cedilla" unicode="&#xb8;" horiz-adv-x="267" 
d="M84 -60q62 0 62 -26q0 -12 -12 -20q-14 -10 -51 -10q-3 0 -37 2l-4 -46q21 -4 56 -4q54 0 83.5 21.5t29.5 51.5q0 22 -17.5 38.5t-49.5 19.5l13 42h-52z" />
    <glyph glyph-name="onesuperior" unicode="&#xb9;" horiz-adv-x="267" 
d="M129 286h57v294h-42q-18 -23 -47.5 -43.5t-54.5 -29.5v-48q47 12 87 44v-217z" />
    <glyph glyph-name="ordmasculine" unicode="&#xba;" horiz-adv-x="292" 
d="M146 582q-58 0 -93 -39.5t-35 -108.5q0 -68 35.5 -106.5t92.5 -38.5t92.5 39.5t35.5 107.5q0 67 -35 106.5t-93 39.5zM146 531q32 0 51 -24t19 -70q0 -48 -19 -72.5t-51 -24.5t-51 24.5t-19 71.5q0 95 70 95z" />
    <glyph glyph-name="guillemotright" unicode="&#xbb;" horiz-adv-x="445" 
d="M309 206l-102 -178h58l124 178l-124 178h-58zM158 206l-103 -178h59l122 178l-122 178h-59z" />
    <glyph glyph-name="onequarter" unicode="&#xbc;" horiz-adv-x="668" 
d="M99 -22h61l430 604h-61zM129 286h57v294h-42q-18 -23 -47.5 -43.5t-54.5 -29.5v-48q47 12 87 44v-217zM558 -12h57v60h40v43h-40v190h-48l-158 -185v-48h149v-60zM558 91h-90l90 102v-102z" />
    <glyph glyph-name="onehalf" unicode="&#xbd;" horiz-adv-x="668" 
d="M89 -22h61l430 604h-61zM129 286h57v294h-42q-18 -23 -47.5 -43.5t-54.5 -29.5v-48q47 12 87 44v-217zM410 -12h243v48h-151q8 8 46 37q65 46 80 67q24 29 24 62q0 35 -29 57t-85 22q-53 0 -81 -20t-39 -65l59 -6q8 26 20.5 35.5t38.5 9.5q54 0 54 -43q0 -16 -14 -33
q-13 -13 -68 -52q-57 -41 -80 -75q-17 -23 -18 -44z" />
    <glyph glyph-name="threequarters" unicode="&#xbe;" horiz-adv-x="668" 
d="M99 -22h61l430 604h-61zM13 363q17 -84 120 -84q55 0 87 26.5t32 64.5q0 58 -67 74q54 17 54 63q0 33 -26.5 53t-80.5 20q-48 0 -72 -16t-40 -58l56 -9q8 22 20.5 30.5t34.5 8.5q23 0 35 -9.5t12 -25.5q0 -40 -62 -40l-8 -42q10 0 23 1q60 0 60 -43q0 -22 -17 -37
t-44 -15q-22 0 -39 12q-13 7 -21 32zM558 -12h57v60h40v43h-40v190h-48l-158 -185v-48h149v-60zM558 91h-90l90 102v-102z" />
    <glyph glyph-name="questiondown" unicode="&#xbf;" horiz-adv-x="489" 
d="M286 415h-80v-80h80v80zM282 274h-68q-5 -67 -11 -79.5t-55 -60.5q-50 -45 -68.5 -76t-18.5 -70q0 -63 50 -110q49 -46 134 -46q79 0 127.5 43t58.5 122l-72 9q-19 -115 -115 -115q-46 0 -78 30.5t-32 72.5q0 23 11.5 42t46.5 50q32 28 51 49q18 23 27 45q12 31 12 74v20
z" />
    <glyph glyph-name="Agrave" unicode="&#xc0;" horiz-adv-x="533" 
d="M-1 0h80l63 173h239l67 -173h87l-235 572h-81zM164 236l63 168q22 60 31 109q17 -58 41 -119l59 -158h-194zM321 608l-52 109h-94l90 -109h56z" />
    <glyph glyph-name="Aacute" unicode="&#xc1;" horiz-adv-x="533" 
d="M-1 0h80l63 173h239l67 -173h87l-235 572h-81zM164 236l63 168q22 60 31 109q17 -58 41 -119l59 -158h-194zM211 608h58l86 109h-92z" />
    <glyph glyph-name="Acircumflex" unicode="&#xc2;" horiz-adv-x="533" 
d="M-1 0h80l63 173h239l67 -173h87l-235 572h-81zM164 236l63 168q22 60 31 109q17 -58 41 -119l59 -158h-194zM259 673l44 -65h79l-88 109h-75l-84 -109h81z" />
    <glyph glyph-name="Atilde" unicode="&#xc3;" horiz-adv-x="533" 
d="M-1 0h80l63 173h239l67 -173h87l-235 572h-81zM164 236l63 168q22 60 31 109q17 -58 41 -119l59 -158h-194zM136 608h52q-1 17 8 28q7 9 21 9t39 -13q41 -23 65 -23q33 0 54 23t22 66h-51q-2 -19 -8.5 -26.5t-19.5 -7.5q-15 0 -37 12q-40 21 -66 21q-34 0 -57 -24
q-22 -25 -22 -65z" />
    <glyph glyph-name="Adieresis" unicode="&#xc4;" horiz-adv-x="533" 
d="M-1 0h80l63 173h239l67 -173h87l-235 572h-81zM164 236l63 168q22 60 31 109q17 -58 41 -119l59 -158h-194zM148 608h73v80h-73v-80zM294 608h73v80h-73v-80z" />
    <glyph glyph-name="Aring" unicode="&#xc5;" horiz-adv-x="533" 
d="M-1 0h80l63 173h239l67 -173h87l-235 572h-81zM164 236l63 168q22 60 31 109q17 -58 41 -119l59 -158h-194zM187 626q0 -31 21 -52t50 -21t49.5 20.5t20.5 50.5t-20.5 51t-50.5 21q-28 0 -49 -21t-21 -49zM217 626q0 17 12 29t29 12q18 0 30 -12.5t12 -29.5
q0 -18 -12.5 -30.5t-29.5 -12.5t-29 12.5t-12 31.5z" />
    <glyph glyph-name="AE" unicode="&#xc6;" horiz-adv-x="800" 
d="M0 0h83l78 165h220v-165h375v68h-298v193h267v68h-267v176h288v67h-470zM193 232l132 273h56v-273h-188z" />
    <glyph glyph-name="Ccedilla" unicode="&#xc7;" horiz-adv-x="578" 
d="M470 201q-15 -71 -59 -108.5t-108 -37.5q-82 -2 -135.5 63t-49.5 173q-2 94 47 161.5t143 64.5q117 0 153 -119l75 18q-23 79 -81.5 122.5t-144.5 43.5q-117 2 -195.5 -79t-74.5 -212q0 -84 31 -155t87 -108q59 -38 151 -38q90 0 152 49.5t85 141.5zM242 -60q62 0 62 -26
q0 -12 -12 -20q-14 -10 -51 -10q-3 0 -37 2l-4 -46q21 -4 56 -4q54 0 83.5 21.5t29.5 51.5q0 22 -17.5 38.5t-49.5 19.5l13 42h-52z" />
    <glyph glyph-name="Egrave" unicode="&#xc8;" horiz-adv-x="533" 
d="M63 0h428v68h-352v194h317v68h-317v175h338v67h-414v-572zM331 608l-52 109h-94l90 -109h56z" />
    <glyph glyph-name="Eacute" unicode="&#xc9;" horiz-adv-x="533" 
d="M63 0h428v68h-352v194h317v68h-317v175h338v67h-414v-572zM219 608h58l86 109h-92z" />
    <glyph glyph-name="Ecircumflex" unicode="&#xca;" horiz-adv-x="533" 
d="M63 0h428v68h-352v194h317v68h-317v175h338v67h-414v-572zM276 673l44 -65h79l-88 109h-75l-84 -109h81z" />
    <glyph glyph-name="Edieresis" unicode="&#xcb;" horiz-adv-x="533" 
d="M63 0h428v68h-352v194h317v68h-317v175h338v67h-414v-572zM166 608h73v80h-73v-80zM312 608h73v80h-73v-80z" />
    <glyph glyph-name="Igrave" unicode="&#xcc;" horiz-adv-x="222" 
d="M75 0h75v572h-75v-572zM168 608l-52 109h-94l90 -109h56z" />
    <glyph glyph-name="Iacute" unicode="&#xcd;" horiz-adv-x="222" 
d="M75 0h75v572h-75v-572zM55 608h58l86 109h-92z" />
    <glyph glyph-name="Icircumflex" unicode="&#xce;" horiz-adv-x="222" 
d="M75 0h75v572h-75v-572zM112 673l44 -65h79l-88 109h-75l-84 -109h81z" />
    <glyph glyph-name="Idieresis" unicode="&#xcf;" horiz-adv-x="222" 
d="M75 0h75v572h-75v-572zM2 608h73v80h-73v-80zM148 608h73v80h-73v-80z" />
    <glyph glyph-name="Eth" unicode="&#xd0;" horiz-adv-x="578" 
d="M61 0h207q56 0 84 6q55 14 92 43.5t63 89.5q28 62 28 151q0 157 -90 234q-36 30 -84 40q-37 8 -101 8h-199v-260h-62v-52h62v-260zM138 68v192h157v52h-157v193h120q62 0 91 -10q30 -9 54 -33q54 -54 54 -171q0 -128 -57 -183q-43 -40 -140 -40h-122z" />
    <glyph glyph-name="Ntilde" unicode="&#xd1;" horiz-adv-x="578" 
d="M61 0h72v450l302 -450h77v572h-73v-449l-300 449h-78v-572zM168 608h52q-1 17 8 28q7 9 21 9t39 -13q41 -23 65 -23q33 0 54 23t22 66h-51q-2 -19 -8.5 -26.5t-19.5 -7.5q-15 0 -37 12q-40 21 -66 21q-34 0 -57 -24q-22 -25 -22 -65z" />
    </font>
</defs>
</svg>
