<?xml version="1.0" standalone="no"?>
<!DOCTYPE svg PUBLIC "-//W3C//DTD SVG 1.1//EN" "http://www.w3.org/Graphics/SVG/1.1/DTD/svg11.dtd" >
<svg xmlns="http://www.w3.org/2000/svg" xmlns:xlink="http://www.w3.org/1999/xlink" version="1.1">
<metadata>
Created by FontForge 20201107 at Sun Oct 23 19:51:20 2005
 By 
Copyright (c) BPG InfoTech, 2005. All rights reserved.
</metadata>
<defs>
<font id="BPGGlaho" horiz-adv-x="1139" >
  <font-face 
    font-family="BPG Glaho"
    font-weight="400"
    font-stretch="normal"
    units-per-em="2048"
    panose-1="2 11 6 4 2 2 2 2 2 4"
    ascent="1638"
    descent="-410"
    x-height="1062"
    cap-height="1466"
    bbox="-94 -721.015 2180.34 1695"
    underline-thickness="150"
    underline-position="-292"
    unicode-range="U+0020-E04A"
  />
<missing-glyph horiz-adv-x="1536" 
d="M256 0v1280h1024v-1280h-1024zM288 32h960v1216h-960v-1216z" />
    <glyph glyph-name=".notdef" horiz-adv-x="1536" 
d="M256 0v1280h1024v-1280h-1024zM288 32h960v1216h-960v-1216z" />
    <glyph glyph-name=".null" horiz-adv-x="0" 
 />
    <glyph glyph-name="nonmarkingreturn" horiz-adv-x="569" 
 />
    <glyph glyph-name="space" unicode=" " horiz-adv-x="700" 
 />
    <glyph glyph-name="space" unicode="&#xa0;" horiz-adv-x="700" 
 />
    <glyph glyph-name="exclam" unicode="!" horiz-adv-x="569" 
d="M231 364l-55 777v325h223v-325l-52 -777h-116zM184 0v205h207v-205h-207z" />
    <glyph glyph-name="quotedbl" unicode="&#x22;" horiz-adv-x="727" 
d="M144 947l-50 279v240h205v-240l-45 -279h-110zM475 947l-49 279v240h205v-240l-48 -279h-108z" />
    <glyph glyph-name="numbersign" unicode="#" 
d="M103 -25l87 426h-169v149h199l74 363h-273v149h303l87 429h150l-87 -429h315l87 429h151l-87 -429h173v-149h-203l-75 -363h278v-149h-308l-87 -426h-150l86 426h-314l-87 -426h-150zM370 550h314l75 363h-315z" />
    <glyph glyph-name="dollar" unicode="$" 
d="M510 -211v180q-135 17 -219.5 60.5t-146 140.5t-71.5 237l181 34q21 -145 74 -213q76 -96 182 -107v573q-111 21 -227 86q-86 48 -132.5 133t-46.5 193q0 192 136 311q91 80 270 98v86h106v-86q157 -15 249 -92q118 -98 142 -269l-186 -28q-16 106 -66.5 162.5
t-138.5 74.5v-519q136 -34 180 -53q84 -37 137 -90t81.5 -126t28.5 -158q0 -187 -119 -312t-308 -134v-182h-106zM510 1365q-105 -16 -165.5 -84t-60.5 -161q0 -92 51.5 -154t174.5 -99v498zM616 121q105 13 173.5 91t68.5 193q0 98 -48.5 157.5t-193.5 106.5v-548z" />
    <glyph glyph-name="percent" unicode="%" horiz-adv-x="1821" 
d="M119 1114q0 157 79 267t229 110q138 0 228.5 -98.5t90.5 -289.5q0 -186 -91.5 -286.5t-225.5 -100.5q-133 0 -221.5 99t-88.5 299zM432 1367q-67 0 -111.5 -58t-44.5 -213q0 -141 45 -198.5t111 -57.5q68 0 112.5 58t44.5 212q0 142 -45 199.5t-112 57.5zM433 -54
l802 1545h146l-799 -1545h-149zM1067 344q0 158 79 267.5t230 109.5q138 0 228.5 -98.5t90.5 -289.5q0 -186 -91.5 -286.5t-226.5 -100.5q-133 0 -221.5 99.5t-88.5 298.5zM1381 597q-68 0 -112.5 -58t-44.5 -213q0 -140 45 -198t111 -58q69 0 113.5 58t44.5 212
q0 142 -45 199.5t-112 57.5z" />
    <glyph glyph-name="ampersand" unicode="&#x26;" horiz-adv-x="1366" 
d="M973 173q-89 -99 -194 -148.5t-227 -49.5q-225 0 -357 152q-107 124 -107 277q0 136 87.5 245.5t261.5 192.5q-99 114 -132 185t-33 137q0 132 103.5 229.5t260.5 97.5q150 0 245.5 -92t95.5 -221q0 -209 -277 -357l263 -335q45 88 70 204l187 -40q-48 -192 -130 -316
q101 -134 229 -225l-121 -143q-109 70 -225 207zM607 937q117 69 151.5 121t34.5 115q0 75 -47.5 122.5t-118.5 47.5q-73 0 -121.5 -47t-48.5 -115q0 -34 17.5 -71.5t52.5 -79.5zM860 315l-330 409q-146 -87 -197 -161.5t-51 -147.5q0 -89 71 -185t201 -96q81 0 167.5 50.5
t138.5 130.5z" />
    <glyph glyph-name="quotesingle" unicode="'" horiz-adv-x="391" 
d="M136 947l-46 274v245h205v-245l-48 -274h-111z" />
    <glyph glyph-name="parenleft" unicode="(" horiz-adv-x="682" 
d="M479 -431q-149 188 -252 440t-103 522q0 238 77 456q90 253 278 504h129q-121 -208 -160 -297q-61 -138 -96 -288q-43 -187 -43 -376q0 -481 299 -961h-129z" />
    <glyph glyph-name="parenright" unicode=")" horiz-adv-x="682" 
d="M204 -431h-129q299 480 299 961q0 188 -43 373q-34 150 -95 288q-39 90 -161 300h129q188 -251 278 -504q77 -218 77 -456q0 -270 -103.5 -522t-251.5 -440z" />
    <glyph glyph-name="asterisk" unicode="*" horiz-adv-x="797" 
d="M64 1197l46 142q159 -56 231 -97q-19 181 -20 249h145q-3 -99 -23 -248q103 52 236 96l46 -142q-127 -42 -249 -56q61 -53 172 -189l-120 -85q-58 79 -137 215q-74 -141 -130 -215l-118 85q116 143 166 189q-129 25 -245 56z" />
    <glyph glyph-name="plus" unicode="+" horiz-adv-x="1196" 
d="M513 237v402h-399v168h399v399h170v-399h399v-168h-399v-402h-170z" />
    <glyph glyph-name="comma" unicode="," horiz-adv-x="569" 
d="M182 0v205h205v-205q0 -113 -40 -182.5t-127 -107.5l-50 77q57 25 84 73.5t30 139.5h-102z" />
    <glyph glyph-name="hyphen" unicode="-" horiz-adv-x="682" 
d="M65 440v181h553v-181h-553z" />
    <glyph glyph-name="hyphen" unicode="&#xad;" horiz-adv-x="682" 
d="M65 440v181h553v-181h-553z" />
    <glyph glyph-name="period" unicode="." horiz-adv-x="569" 
d="M186 0v205h205v-205h-205z" />
    <glyph glyph-name="slash" unicode="/" horiz-adv-x="569" 
d="M0 -25l425 1516h144l-424 -1516h-145z" />
    <glyph glyph-name="zero" unicode="0" 
d="M85 723q0 260 53.5 418.5t159 244.5t265.5 86q118 0 207 -47.5t147 -137t91 -218t33 -346.5q0 -258 -53 -416.5t-158.5 -245t-266.5 -86.5q-212 0 -333 152q-145 183 -145 596zM270 723q0 -361 84.5 -480.5t208.5 -119.5t208.5 120t84.5 480q0 362 -84.5 481t-210.5 119
q-124 0 -198 -105q-93 -134 -93 -495z" />
    <glyph glyph-name="one" unicode="1" 
d="M763 0h-180v1147q-65 -62 -170.5 -124t-189.5 -93v174q151 71 264 172t160 196h116v-1472z" />
    <glyph glyph-name="two" unicode="2" 
d="M1031 173v-173h-969q-2 65 21 125q37 99 118.5 195t235.5 222q239 196 323 310.5t84 216.5q0 107 -76.5 180.5t-199.5 73.5q-130 0 -208 -78t-79 -216l-185 19q19 207 143 315.5t333 108.5q211 0 334 -117t123 -290q0 -88 -36 -173t-119.5 -179t-277.5 -258
q-162 -136 -208 -184.5t-76 -97.5h719z" />
    <glyph glyph-name="three" unicode="3" 
d="M86 387l180 24q31 -153 105.5 -220.5t181.5 -67.5q127 0 214.5 88t87.5 218q0 124 -81 204.5t-206 80.5q-51 0 -127 -20l20 158q18 -2 29 -2q115 0 207 60t92 185q0 99 -67 164t-173 65q-105 0 -175 -66t-90 -198l-180 32q33 181 150 280.5t291 99.5q120 0 221 -51.5
t154.5 -140.5t53.5 -189q0 -95 -51 -173t-151 -124q130 -30 202 -124.5t72 -236.5q0 -192 -140 -325.5t-354 -133.5q-193 0 -320.5 115t-145.5 298z" />
    <glyph glyph-name="four" unicode="4" 
d="M662 0v351h-636v165l669 950h147v-950h198v-165h-198v-351h-180zM662 516v661l-459 -661h459z" />
    <glyph glyph-name="five" unicode="5" 
d="M85 384l189 16q21 -138 97.5 -207.5t184.5 -69.5q130 0 220 98t90 260q0 154 -86.5 243t-226.5 89q-87 0 -157 -39.5t-110 -102.5l-169 22l142 753h729v-172h-585l-79 -394q132 92 277 92q192 0 324 -133t132 -342q0 -199 -116 -344q-141 -178 -385 -178
q-200 0 -326.5 112t-144.5 297z" />
    <glyph glyph-name="six" unicode="6" 
d="M1019 1107l-179 -14q-24 106 -68 154q-73 77 -180 77q-86 0 -151 -48q-85 -62 -134 -181t-51 -339q65 99 159 147t197 48q180 0 306.5 -132.5t126.5 -342.5q0 -138 -59.5 -256.5t-163.5 -181.5t-236 -63q-225 0 -367 165.5t-142 545.5q0 425 157 618q137 168 369 168
q173 0 283.5 -97t132.5 -268zM284 475q0 -93 39.5 -178t110.5 -129.5t149 -44.5q114 0 196 92t82 250q0 152 -81 239.5t-204 87.5q-122 0 -207 -87.5t-85 -229.5z" />
    <glyph glyph-name="seven" unicode="7" 
d="M97 1274v173h949v-140q-140 -149 -277.5 -396t-212.5 -508q-54 -184 -69 -403h-185q3 173 68 418t186.5 472.5t258.5 383.5h-718z" />
    <glyph glyph-name="eight" unicode="8" 
d="M362 795q-112 41 -166 117t-54 182q0 160 115 269t306 109q192 0 309 -111.5t117 -271.5q0 -102 -53.5 -177.5t-162.5 -116.5q135 -44 205.5 -142t70.5 -234q0 -188 -133 -316t-350 -128t-350 128.5t-133 320.5q0 143 72.5 239.5t206.5 131.5zM326 1100q0 -104 67 -170
t174 -66q104 0 170.5 65.5t66.5 160.5q0 99 -68.5 166.5t-170.5 67.5q-103 0 -171 -66t-68 -158zM268 423q0 -77 36.5 -149t108.5 -111.5t155 -39.5q129 0 213 83t84 211q0 130 -86.5 215t-216.5 85q-127 0 -210.5 -84t-83.5 -210z" />
    <glyph glyph-name="nine" unicode="9" 
d="M112 339l173 16q22 -122 84 -177t159 -55q83 0 145.5 38t102.5 101.5t67 171.5t27 220q0 12 -1 36q-54 -86 -147.5 -139.5t-202.5 -53.5q-182 0 -308 132t-126 348q0 223 131.5 359t329.5 136q143 0 261.5 -77t180 -219.5t61.5 -412.5q0 -281 -61 -447.5t-181.5 -253.5
t-282.5 -87q-172 0 -281 95.5t-131 268.5zM849 986q0 155 -82.5 246t-198.5 91q-120 0 -209 -98t-89 -254q0 -140 84.5 -227.5t208.5 -87.5q125 0 205.5 87.5t80.5 242.5z" />
    <glyph glyph-name="colon" unicode=":" horiz-adv-x="569" 
d="M185 683v205h205v-205h-205zM185 0v205h205v-205h-205z" />
    <glyph glyph-name="semicolon" unicode=";" horiz-adv-x="569" 
d="M182 682v205h205v-205h-205zM182 0v205h205v-205q0 -113 -40 -182.5t-127 -107.5l-50 77q57 25 84 73.5t30 139.5h-102z" />
    <glyph glyph-name="less" unicode="&#x3c;" horiz-adv-x="1196" 
d="M112 641v168l971 410v-179l-770 -316l770 -319v-179z" />
    <glyph glyph-name="equal" unicode="=" horiz-adv-x="1196" 
d="M1082 862h-968v168h968v-168zM1082 417h-968v168h968v-168z" />
    <glyph glyph-name="greater" unicode="&#x3e;" horiz-adv-x="1196" 
d="M1083 641l-971 -415v179l769 319l-769 316v179l971 -410v-168z" />
    <glyph glyph-name="question" unicode="?" 
d="M472 361q-1 36 -1 54q0 106 30 183q22 58 71 117q36 43 129.5 125.5t121.5 131.5t28 107q0 105 -82 184.5t-201 79.5q-115 0 -192 -72t-101 -225l-185 22q25 205 148.5 314t326.5 109q215 0 343 -117t128 -283q0 -96 -45 -177t-176 -197q-88 -78 -115 -115t-40 -85
t-15 -156h-173zM461 0v205h205v-205h-205z" />
    <glyph glyph-name="at" unicode="@" horiz-adv-x="2079" 
d="M1161 163q-65 -75 -145.5 -120.5t-161.5 -45.5q-89 0 -173 52t-136.5 160t-52.5 237q0 159 81.5 318.5t202.5 239.5t235 80q87 0 166 -45.5t136 -138.5l34 155h179l-144 -671q-30 -140 -30 -155q0 -27 20.5 -46.5t49.5 -19.5q53 0 139 61q114 80 180.5 214.5t66.5 277.5
q0 167 -85.5 312t-255 232t-374.5 87q-234 0 -427.5 -109.5t-300 -314t-106.5 -438.5q0 -245 106.5 -422t308 -261.5t446.5 -84.5q262 0 439 88t265 214h181q-51 -105 -175 -214t-295 -172.5t-412 -63.5q-222 0 -409.5 57t-319.5 171.5t-199 263.5q-84 189 -84 408
q0 244 100 465q122 271 346.5 415t544.5 144q248 0 445.5 -101.5t311.5 -302.5q97 -173 97 -376q0 -290 -204 -515q-182 -202 -398 -202q-69 0 -111.5 21t-62.5 60q-13 25 -19 86zM677 434q0 -137 65 -213t149 -76q56 0 118 33.5t118.5 99.5t92.5 167.5t36 203.5
q0 136 -67.5 211t-164.5 75q-64 0 -120.5 -32.5t-109.5 -104.5t-85 -175t-32 -189z" />
    <glyph glyph-name="A" unicode="A" horiz-adv-x="1366" 
d="M-3 0l563 1466h209l600 -1466h-221l-171 444h-613l-161 -444h-206zM420 602h497l-153 406q-70 185 -104 304q-28 -141 -79 -280z" />
    <glyph glyph-name="B" unicode="B" horiz-adv-x="1366" 
d="M150 0v1466h550q168 0 269.5 -44.5t159 -137t57.5 -193.5q0 -94 -51 -177t-154 -134q133 -39 204.5 -133t71.5 -222q0 -103 -43.5 -191.5t-107.5 -136.5t-160.5 -72.5t-236.5 -24.5h-559zM344 850h317q129 0 185 17q74 22 111.5 73t37.5 128q0 73 -35 128.5t-100 76
t-223 20.5h-293v-443zM344 173h365q94 0 132 7q67 12 112 40t74 81.5t29 123.5q0 82 -42 142.5t-116.5 85t-214.5 24.5h-339v-504z" />
    <glyph glyph-name="C" unicode="C" horiz-adv-x="1479" 
d="M1204 514l194 -49q-61 -239 -219.5 -364.5t-387.5 -125.5q-237 0 -385.5 96.5t-226 279.5t-77.5 393q0 229 87.5 399.5t249 259t355.5 88.5q220 0 370 -112t209 -315l-191 -45q-51 160 -148 233t-244 73q-169 0 -282.5 -81t-159.5 -217.5t-46 -281.5q0 -187 54.5 -326.5
t169.5 -208.5t249 -69q163 0 276 94t153 279z" />
    <glyph glyph-name="D" unicode="D" horiz-adv-x="1479" 
d="M158 0v1466h505q171 0 261 -21q126 -29 215 -105q116 -98 173.5 -250.5t57.5 -348.5q0 -167 -39 -296t-100 -213.5t-133.5 -133t-175 -73.5t-235.5 -25h-529zM352 173h313q145 0 227.5 27t131.5 76q69 69 107.5 185.5t38.5 282.5q0 230 -75.5 353.5t-183.5 165.5
q-78 30 -251 30h-308v-1120z" />
    <glyph glyph-name="E" unicode="E" horiz-adv-x="1366" 
d="M162 0v1466h1060v-173h-866v-449h811v-172h-811v-499h900v-173h-1094z" />
    <glyph glyph-name="F" unicode="F" horiz-adv-x="1251" 
d="M168 0v1466h989v-173h-795v-454h688v-173h-688v-666h-194z" />
    <glyph glyph-name="G" unicode="G" horiz-adv-x="1593" 
d="M844 575v172l621 1v-544q-143 -114 -295 -171.5t-312 -57.5q-216 0 -392.5 92.5t-266.5 267.5t-90 391q0 214 89.5 399.5t257.5 275.5t387 90q159 0 287.5 -51.5t201.5 -143.5t111 -240l-175 -48q-33 112 -82 176t-140 102.5t-202 38.5q-133 0 -230 -40.5t-156.5 -106.5
t-92.5 -145q-56 -136 -56 -295q0 -196 67.5 -328t196.5 -196t274 -64q126 0 246 48.5t182 103.5v273h-431z" />
    <glyph glyph-name="H" unicode="H" horiz-adv-x="1479" 
d="M161 0v1466h194v-602h762v602h194v-1466h-194v691h-762v-691h-194z" />
    <glyph glyph-name="I" unicode="I" horiz-adv-x="569" 
d="M191 0v1466h194v-1466h-194z" />
    <glyph glyph-name="J" unicode="J" horiz-adv-x="1024" 
d="M59 416l175 24q7 -168 63 -230t155 -62q73 0 126 33.5t73 91t20 183.5v1010h194v-999q0 -184 -44.5 -285t-141 -154t-226.5 -53q-193 0 -295.5 111t-98.5 330z" />
    <glyph glyph-name="K" unicode="K" horiz-adv-x="1366" 
d="M150 0v1466h194v-727l728 727h263l-615 -594l642 -872h-256l-522 742l-240 -234v-508h-194z" />
    <glyph glyph-name="L" unicode="L" 
d="M150 0v1466h194v-1293h722v-173h-916z" />
    <glyph glyph-name="M" unicode="M" horiz-adv-x="1706" 
d="M152 0v1466h292l347 -1038q48 -145 70 -217q25 80 78 235l351 1020h261v-1466h-187v1227l-426 -1227h-175l-424 1248v-1248h-187z" />
    <glyph glyph-name="N" unicode="N" horiz-adv-x="1479" 
d="M156 0v1466h199l770 -1151v1151h186v-1466h-199l-770 1152v-1152h-186z" />
    <glyph glyph-name="O" unicode="O" horiz-adv-x="1593" 
d="M99 714q0 365 196 571.5t506 206.5q203 0 366 -97t248.5 -270.5t85.5 -393.5q0 -223 -90 -399t-255 -266.5t-356 -90.5q-207 0 -370 100t-247 273t-84 366zM299 711q0 -265 142.5 -417.5t357.5 -152.5q219 0 360.5 154t141.5 437q0 179 -60.5 312.5t-177 207t-261.5 73.5
q-206 0 -354.5 -141.5t-148.5 -472.5z" />
    <glyph glyph-name="P" unicode="P" horiz-adv-x="1366" 
d="M158 0v1466h553q146 0 223 -14q108 -18 181 -68.5t117.5 -141.5t44.5 -200q0 -187 -119 -316.5t-430 -129.5h-376v-596h-194zM352 769h379q188 0 267 70t79 197q0 92 -46.5 157.5t-122.5 86.5q-49 13 -181 13h-375v-524z" />
    <glyph glyph-name="Q" unicode="Q" horiz-adv-x="1593" 
d="M1269 157q135 -93 249 -136l-57 -135q-158 57 -315 180q-163 -91 -360 -91q-199 0 -361 96t-249.5 270t-87.5 392q0 217 88 395t250.5 271t363.5 93q203 0 366 -96.5t248.5 -270t85.5 -391.5q0 -181 -55 -325.5t-166 -251.5zM842 405q168 -47 277 -140q171 156 171 469
q0 178 -60.5 311t-177 206.5t-261.5 73.5q-217 0 -360 -148.5t-143 -443.5q0 -286 141.5 -439t361.5 -153q104 0 196 39q-91 59 -192 84z" />
    <glyph glyph-name="R" unicode="R" horiz-adv-x="1479" 
d="M161 0v1466h650q196 0 298 -39.5t163 -139.5t61 -221q0 -156 -101 -263t-312 -136q77 -37 117 -73q85 -78 161 -195l255 -399h-244l-194 305q-85 132 -140 202t-98.5 98t-88.5 39q-33 7 -108 7h-225v-651h-194zM355 819h417q133 0 208 27.5t114 88t39 131.5
q0 104 -75.5 171t-238.5 67h-464v-485z" />
    <glyph glyph-name="S" unicode="S" horiz-adv-x="1366" 
d="M92 471l183 16q13 -110 60.5 -180.5t147.5 -114t225 -43.5q111 0 196 33t126.5 90.5t41.5 125.5q0 69 -40 120.5t-132 86.5q-59 23 -261 71.5t-283 91.5q-105 55 -156.5 136.5t-51.5 182.5q0 111 63 207.5t184 146.5t269 50q163 0 287.5 -52.5t191.5 -154.5t72 -231
l-186 -14q-15 139 -101.5 210t-255.5 71q-176 0 -256.5 -64.5t-80.5 -155.5q0 -79 57 -130q56 -51 292.5 -104.5t324.5 -93.5q128 -59 189 -149.5t61 -208.5q0 -117 -67 -220.5t-192.5 -161t-282.5 -57.5q-199 0 -333.5 58t-211 174.5t-80.5 263.5z" />
    <glyph glyph-name="T" unicode="T" horiz-adv-x="1251" 
d="M531 0v1293h-483v173h1162v-173h-485v-1293h-194z" />
    <glyph glyph-name="U" unicode="U" horiz-adv-x="1479" 
d="M1120 1466h194v-847q0 -221 -50 -351t-180.5 -211.5t-342.5 -81.5q-206 0 -337 71t-187 205.5t-56 367.5v847h194v-846q0 -191 35.5 -281.5t122 -139.5t211.5 -49q214 0 305 97t91 373v846z" />
    <glyph glyph-name="V" unicode="V" horiz-adv-x="1366" 
d="M577 0l-568 1466h210l381 -1065q46 -128 77 -240q34 120 79 240l396 1065h198l-574 -1466h-199z" />
    <glyph glyph-name="W" unicode="W" horiz-adv-x="1933" 
d="M414 0l-389 1466h199l223 -961q36 -151 62 -300q56 235 66 271l279 990h234l210 -742q79 -276 114 -519q28 139 73 319l230 942h195l-402 -1466h-187l-309 1117q-39 140 -46 172q-23 -101 -43 -172l-311 -1117h-198z" />
    <glyph glyph-name="X" unicode="X" horiz-adv-x="1366" 
d="M9 0l567 764l-500 702h231l266 -376q83 -117 118 -180q49 80 116 167l295 389h211l-515 -691l555 -775h-240l-369 523q-31 45 -64 98q-49 -80 -70 -110l-368 -511h-233z" />
    <glyph glyph-name="Y" unicode="Y" horiz-adv-x="1366" 
d="M571 0v621l-565 845h236l289 -442q80 -124 149 -248q66 115 160 259l284 431h226l-585 -845v-621h-194z" />
    <glyph glyph-name="Z" unicode="Z" horiz-adv-x="1251" 
d="M41 0v180l751 939q80 100 152 174h-818v173h1050v-173l-823 -1017l-89 -103h936v-173h-1159z" />
    <glyph glyph-name="bracketleft" unicode="[" horiz-adv-x="569" 
d="M139 -407v1873h397v-149h-217v-1575h217v-149h-397z" />
    <glyph glyph-name="backslash" unicode="\" horiz-adv-x="569" 
d="M425 -25l-425 1516h145l424 -1516h-144z" />
    <glyph glyph-name="bracketright" unicode="]" horiz-adv-x="569" 
d="M436 -407h-397v149h217v1575h-217v149h397v-1873z" />
    <glyph glyph-name="asciicircum" unicode="^" horiz-adv-x="961" 
d="M239 690h-185l353 801h145l355 -801h-181l-247 597z" />
    <glyph glyph-name="underscore" unicode="_" 
d="M-31 -407v130h1193v-130h-1193z" />
    <glyph glyph-name="grave" unicode="`" horiz-adv-x="682" 
d="M465 1194h-145l-231 280h241z" />
    <glyph glyph-name="a" unicode="a" 
d="M828 131q-100 -85 -192.5 -120t-198.5 -35q-175 0 -269 85.5t-94 218.5q0 78 35.5 142.5t93 103.5t129.5 59q53 14 160 27q218 26 321 62q1 37 1 47q0 110 -51 155q-69 61 -205 61q-127 0 -187.5 -44.5t-89.5 -157.5l-176 24q24 113 79 182.5t159 107t241 37.5
q136 0 221 -32t125 -80.5t56 -122.5q9 -46 9 -166v-240q0 -251 11.5 -317.5t45.5 -127.5h-188q-28 56 -36 131zM813 533q-98 -40 -294 -68q-111 -16 -157 -36t-71 -58.5t-25 -85.5q0 -72 54.5 -120t159.5 -48q104 0 185 45.5t119 124.5q29 61 29 180v66z" />
    <glyph glyph-name="b" unicode="b" 
d="M301 0h-167v1466h180v-523q114 143 291 143q98 0 185.5 -39.5t144 -111t88.5 -172.5t32 -216q0 -273 -135 -422t-324 -149q-188 0 -295 157v-133zM299 539q0 -191 52 -276q85 -139 230 -139q118 0 204 102.5t86 305.5q0 208 -82.5 307t-199.5 99q-118 0 -204 -102.5
t-86 -296.5z" />
    <glyph glyph-name="c" unicode="c" horiz-adv-x="1024" 
d="M828 389l177 -23q-29 -183 -148.5 -286.5t-293.5 -103.5q-218 0 -350.5 142.5t-132.5 408.5q0 172 57 301t173.5 193.5t253.5 64.5q173 0 283 -87.5t141 -248.5l-175 -27q-25 107 -88.5 161t-153.5 54q-136 0 -221 -97.5t-85 -308.5q0 -214 82 -311t214 -97q106 0 177 65
t90 200z" />
    <glyph glyph-name="d" unicode="d" 
d="M824 0v134q-101 -158 -297 -158q-127 0 -233.5 70t-165 195.5t-58.5 288.5q0 159 53 288.5t159 198.5t237 69q96 0 171 -40.5t122 -105.5v526h179v-1466h-167zM255 530q0 -204 86 -305t203 -101q118 0 200.5 96.5t82.5 294.5q0 218 -84 320t-207 102q-120 0 -200.5 -98
t-80.5 -309z" />
    <glyph glyph-name="e" unicode="e" 
d="M862 342l186 -23q-44 -163 -163 -253t-304 -90q-233 0 -369.5 143.5t-136.5 402.5q0 268 138 416t358 148q213 0 348 -145t135 -408q0 -16 -1 -48h-792q10 -175 99 -268t222 -93q99 0 169 52t111 166zM271 633h593q-12 134 -68 201q-86 104 -223 104q-124 0 -208.5 -83
t-93.5 -222z" />
    <glyph glyph-name="f" unicode="f" horiz-adv-x="569" 
d="M178 0v922h-159v140h159v113q0 107 19 159q26 70 91.5 113.5t183.5 43.5q76 0 168 -18l-27 -157q-56 10 -106 10q-82 0 -116 -35t-34 -131v-98h207v-140h-207v-922h-179z" />
    <glyph glyph-name="g" unicode="g" 
d="M102 -88l175 -26q11 -81 61 -118q67 -50 183 -50q125 0 193 50t92 140q14 55 13 231q-118 -139 -294 -139q-219 0 -339 158t-120 379q0 152 55 280.5t159.5 198.5t245.5 70q188 0 310 -152v128h166v-918q0 -248 -50.5 -351.5t-160 -163.5t-269.5 -60q-190 0 -307 85.5
t-113 257.5zM251 550q0 -209 83 -305t208 -96q124 0 208 95.5t84 299.5q0 195 -86.5 294t-208.5 99q-120 0 -204 -97.5t-84 -289.5z" />
    <glyph glyph-name="h" unicode="h" 
d="M135 0v1466h180v-526q126 146 318 146q118 0 205 -46.5t124.5 -128.5t37.5 -238v-673h-180v673q0 135 -58.5 196.5t-165.5 61.5q-80 0 -150.5 -41.5t-100.5 -112.5t-30 -196v-581h-180z" />
    <glyph glyph-name="i" unicode="i" horiz-adv-x="455" 
d="M136 1259v207h180v-207h-180zM136 0v1062h180v-1062h-180z" />
    <glyph glyph-name="j" unicode="j" horiz-adv-x="455" 
d="M134 1257v209h180v-209h-180zM-94 -412l34 153q54 -14 85 -14q55 0 82 36.5t27 182.5v1116h180v-1120q0 -196 -51 -273q-65 -100 -216 -100q-73 0 -141 19z" />
    <glyph glyph-name="k" unicode="k" horiz-adv-x="1024" 
d="M136 0v1466h180v-836l426 432h233l-406 -394l447 -668h-222l-351 543l-127 -122v-421h-180z" />
    <glyph glyph-name="l" unicode="l" horiz-adv-x="455" 
d="M131 0v1466h180v-1466h-180z" />
    <glyph glyph-name="m" unicode="m" horiz-adv-x="1706" 
d="M135 0v1062h161v-149q50 78 133 125.5t189 47.5q118 0 193.5 -49t106.5 -137q126 186 328 186q158 0 243 -87.5t85 -269.5v-729h-179v669q0 108 -17.5 155.5t-63.5 76.5t-108 29q-112 0 -186 -74.5t-74 -238.5v-617h-180v690q0 120 -44 180t-144 60q-76 0 -140.5 -40
t-93.5 -117t-29 -222v-551h-180z" />
    <glyph glyph-name="n" unicode="n" 
d="M135 0v1062h162v-151q117 175 338 175q96 0 176.5 -34.5t120.5 -90.5t56 -133q10 -50 10 -175v-653h-180v646q0 110 -21 164.5t-74.5 87t-125.5 32.5q-115 0 -198.5 -73t-83.5 -277v-580h-180z" />
    <glyph glyph-name="o" unicode="o" 
d="M68 531q0 295 164 437q137 118 334 118q219 0 358 -143.5t139 -396.5q0 -205 -61.5 -322.5t-179 -182.5t-256.5 -65q-223 0 -360.5 143t-137.5 412zM253 531q0 -204 89 -305.5t224 -101.5q134 0 223 102t89 311q0 197 -89.5 298.5t-222.5 101.5q-135 0 -224 -101
t-89 -305z" />
    <glyph glyph-name="p" unicode="p" 
d="M135 -407v1469h164v-138q58 81 131 121.5t177 40.5q136 0 240 -70t157 -197.5t53 -279.5q0 -163 -58.5 -293.5t-170 -200t-234.5 -69.5q-90 0 -161.5 38t-117.5 96v-517h-180zM298 525q0 -205 83 -303t201 -98q120 0 205.5 101.5t85.5 314.5q0 203 -83.5 304t-199.5 101
q-115 0 -203.5 -107.5t-88.5 -312.5z" />
    <glyph glyph-name="q" unicode="q" 
d="M812 -407v520q-42 -59 -117.5 -98t-160.5 -39q-189 0 -325.5 151t-136.5 414q0 160 55.5 287t161 192.5t231.5 65.5q197 0 310 -166v142h162v-1469h-180zM257 534q0 -205 86 -307.5t206 -102.5q115 0 198 97.5t83 296.5q0 212 -87.5 319t-205.5 107q-117 0 -198.5 -99.5
t-81.5 -310.5z" />
    <glyph glyph-name="r" unicode="r" horiz-adv-x="682" 
d="M133 0v1062h162v-161q62 113 114.5 149t115.5 36q91 0 185 -58l-62 -167q-66 39 -132 39q-59 0 -106 -35.5t-67 -98.5q-30 -96 -30 -210v-556h-180z" />
    <glyph glyph-name="s" unicode="s" horiz-adv-x="1024" 
d="M63 317l178 28q15 -107 83.5 -164t191.5 -57q124 0 184 50.5t60 118.5q0 61 -53 96q-37 24 -184 61q-198 50 -274.5 86.5t-116 101t-39.5 142.5q0 71 32.5 131.5t88.5 100.5q42 31 114.5 52.5t155.5 21.5q125 0 219.5 -36t139.5 -97.5t62 -164.5l-176 -24
q-12 82 -69.5 128t-162.5 46q-124 0 -177 -41t-53 -96q0 -35 22 -63q22 -29 69 -48q27 -10 159 -46q191 -51 266.5 -83.5t118.5 -94.5t43 -154q0 -90 -52.5 -169.5t-151.5 -123t-224 -43.5q-207 0 -315.5 86t-138.5 255z" />
    <glyph glyph-name="t" unicode="t" horiz-adv-x="569" 
d="M528 161l26 -159q-76 -16 -136 -16q-98 0 -152 31t-76 81.5t-22 212.5v611h-132v140h132v263l179 108v-371h181v-140h-181v-621q0 -77 9.5 -99t31 -35t61.5 -13q30 0 79 7z" />
    <glyph glyph-name="u" unicode="u" 
d="M831 0v156q-124 -180 -337 -180q-94 0 -175.5 36t-121 90.5t-55.5 133.5q-11 53 -11 168v658h180v-589q0 -141 11 -190q17 -71 72 -111.5t136 -40.5t152 41.5t100.5 113t29.5 207.5v569h180v-1062h-161z" />
    <glyph glyph-name="v" unicode="v" horiz-adv-x="1024" 
d="M430 0l-404 1062h190l228 -636q37 -103 68 -214q24 84 67 202l236 648h185l-402 -1062h-168z" />
    <glyph glyph-name="w" unicode="w" horiz-adv-x="1479" 
d="M331 0l-325 1062h186l169 -613l63 -228q4 17 55 219l169 622h185l159 -616l53 -203l61 205l182 614h175l-332 -1062h-187l-169 636l-41 181l-215 -817h-188z" />
    <glyph glyph-name="x" unicode="x" horiz-adv-x="1024" 
d="M15 0l388 552l-359 510h225l163 -249q46 -71 74 -119q44 66 81 117l179 251h215l-367 -500l395 -562h-221l-218 330l-58 89l-279 -419h-218z" />
    <glyph glyph-name="y" unicode="y" horiz-adv-x="1024" 
d="M127 -409l-20 169q59 -16 103 -16q60 0 96 20t59 56q17 27 55 134q5 15 16 44l-403 1064h194l221 -615q43 -117 77 -246q31 124 74 242l227 619h180l-404 -1080q-65 -175 -101 -241q-48 -89 -110 -130.5t-148 -41.5q-52 0 -116 22z" />
    <glyph glyph-name="z" unicode="z" horiz-adv-x="1024" 
d="M40 0v146l676 776q-115 -6 -203 -6h-433v146h868v-119l-575 -674l-111 -123q121 9 227 9h491v-155h-940z" />
    <glyph glyph-name="braceleft" unicode="{" horiz-adv-x="684" 
d="M57 612q77 2 125.5 41.5t64.5 108.5t17 236t6 220q9 84 33.5 135t60.5 81.5t92 46.5q38 10 124 10h56v-157h-31q-104 0 -138 -37.5t-34 -167.5q0 -262 -11 -331q-18 -107 -61.5 -165t-136.5 -103q110 -46 159.5 -140.5t49.5 -309.5q0 -195 4 -232q8 -68 40.5 -95
t127.5 -27h31v-157h-56q-98 0 -142 16q-64 23 -106 74.5t-54.5 130.5t-13.5 259t-17 249t-64.5 109t-125.5 42v163z" />
    <glyph glyph-name="bar" unicode="|" horiz-adv-x="532" 
d="M188 -431v1922h157v-1922h-157z" />
    <glyph glyph-name="braceright" unicode="}" horiz-adv-x="684" 
d="M626 612v-163q-77 -2 -125.5 -42t-64.5 -108.5t-17 -235.5t-6 -220q-9 -85 -33.5 -135.5t-60.5 -81t-92 -46.5q-38 -11 -124 -11h-56v157h31q104 0 138 37.5t34 168.5q0 250 9 317q16 111 64 177.5t136 103.5q-115 55 -162 145.5t-47 305.5q0 195 -5 233
q-7 67 -39.5 93.5t-127.5 26.5h-31v157h56q98 0 142 -16q64 -22 106 -74t54.5 -131t13.5 -259t17 -248.5t64.5 -108.5t125.5 -42z" />
    <glyph glyph-name="asciitilde" unicode="~" horiz-adv-x="1196" 
d="M87 557v205q106 120 278 120q60 0 126 -17.5t188 -69.5q69 -29 103.5 -38t69.5 -9q65 0 134.5 39t123.5 98v-212q-64 -60 -129.5 -87t-147.5 -27q-60 0 -114.5 14t-173 67t-197.5 53q-64 0 -120.5 -27.5t-140.5 -108.5z" />
    <glyph glyph-name="currency" unicode="&#xa4;" 
d="M213 961l-139 136l115 119l139 -139q106 72 237 72q132 0 237 -72l139 139l116 -119l-139 -136q71 -110 71 -235q0 -126 -71 -236l139 -136l-116 -119l-139 140q-105 -73 -237 -73q-131 0 -237 73l-139 -140l-115 119l139 136q-71 110 -71 236q0 125 71 235zM305 726
q0 -108 76 -184t183 -76t183 76t76 184q0 107 -75.5 183t-183.5 76q-107 0 -183 -76t-76 -183z" />
    <glyph glyph-name="brokenbar" unicode="&#xa6;" horiz-adv-x="532" 
d="M345 1491v-790h-157v790h157zM345 360v-791h-157v791h157z" />
    <glyph glyph-name="section" unicode="&#xa7;" 
d="M143 -70l181 26q28 -130 89 -182.5t166 -52.5q102 0 159.5 52t57.5 122q0 51 -36 94q-62 75 -340 245q-148 91 -206.5 142.5t-95.5 121.5t-37 146q0 96 60 174t165 109q-71 68 -100 125.5t-29 122.5q0 128 100 222t265 94q187 0 292 -89t126 -258l-187 -19
q-21 122 -73.5 170t-141.5 48q-92 0 -148.5 -49.5t-56.5 -109.5q0 -52 36 -96q56 -68 306 -220q157 -96 212 -141q71 -60 104.5 -124t33.5 -139q0 -113 -73 -193q-42 -46 -154 -93q80 -61 119.5 -131t39.5 -150q0 -88 -50 -166.5t-144 -120t-203 -41.5q-191 0 -303 95.5
t-134 265.5zM728 244q74 38 110.5 88.5t36.5 98.5q0 57 -52 120q-53 63 -225 169q-137 84 -204 138q-81 -46 -115.5 -92t-34.5 -102q0 -63 46 -120t207 -152q134 -79 231 -148z" />
    <glyph glyph-name="copyright" unicode="&#xa9;" horiz-adv-x="1509" 
d="M758 1491q190 0 371 -97.5t282 -279t101 -378.5q0 -195 -99.5 -375t-279 -279.5t-375.5 -99.5t-375.5 99.5t-279.5 279.5t-100 375q0 197 101.5 378.5t282.5 279t371 97.5zM758 1366q-159 0 -309.5 -81.5t-235.5 -233t-85 -315.5q0 -163 83.5 -312.5t233.5 -233
t313 -83.5t313 83.5t233 233t83 312.5q0 164 -84.5 315.5t-235.5 233t-309 81.5zM1000 614l123 -36q-30 -125 -127.5 -199.5t-236.5 -74.5q-176 0 -286 114t-110 316q0 132 50 229.5t142.5 147t211.5 49.5q133 0 221 -63.5t120 -172.5l-119 -29q-30 74 -88.5 113.5
t-137.5 39.5q-115 0 -189.5 -82t-74.5 -235t70.5 -231.5t182.5 -78.5q90 0 158 52t90 141z" />
    <glyph glyph-name="guillemotleft" unicode="&#xab;" 
d="M340 528l259 -456h-146l-319 456l319 456h148zM727 528l264 -456h-152l-313 456l313 456h152z" />
    <glyph glyph-name="logicalnot" unicode="&#xac;" horiz-adv-x="1196" 
d="M1082 424h-170v438h-798v168h968v-606z" />
    <glyph glyph-name="registered" unicode="&#xae;" horiz-adv-x="1509" 
d="M758 1491q190 0 371 -97.5t282 -279t101 -378.5q0 -195 -99.5 -375t-279 -279.5t-375.5 -99.5t-375.5 99.5t-279.5 279.5t-100 375q0 197 101.5 378.5t282.5 279t371 97.5zM758 1366q-159 0 -309.5 -81.5t-235.5 -233t-85 -315.5q0 -163 83.5 -312.5t233.5 -233
t313 -83.5t313 83.5t233 233t83 312.5q0 164 -84.5 315.5t-235.5 233t-309 81.5zM427 319v812h279q143 0 207 -22.5t102 -78.5t38 -119q0 -89 -63.5 -155t-168.5 -74q43 -18 69 -43q49 -48 120 -161l99 -159h-160l-72 128q-85 151 -137 189q-36 28 -105 28h-77v-345h-131z
M558 776h159q114 0 155.5 34t41.5 90q0 36 -20 64.5t-55.5 42.5t-131.5 14h-149v-245z" />
    <glyph glyph-name="macron" unicode="&#xaf;" horiz-adv-x="1131" 
d="M-31 1566v129h1193v-129h-1193z" />
    <glyph glyph-name="degree" unicode="&#xb0;" horiz-adv-x="819" 
d="M128 1214q0 115 81.5 196t195.5 81q116 0 197 -81t81 -196t-81.5 -196.5t-196.5 -81.5q-114 0 -195.5 81t-81.5 197zM237 1214q0 -70 49.5 -119.5t119.5 -49.5q69 0 118.5 49.5t49.5 119.5t-49.5 119.5t-118.5 49.5q-70 0 -119.5 -49.5t-49.5 -119.5z" />
    <glyph glyph-name="plusminus" unicode="&#xb1;" horiz-adv-x="1124" 
d="M477 260v403h-399v167h399v399h170v-399h399v-167h-399v-403h-170zM1046 0h-968v168h968v-168z" />
    <glyph glyph-name="acute" unicode="&#xb4;" horiz-adv-x="682" 
d="M222 1194l133 280h236l-220 -280h-149z" />
    <glyph glyph-name="paragraph" unicode="&#xb6;" horiz-adv-x="1100" 
d="M405 -407v1045q-187 10 -295.5 121.5t-108.5 284.5q0 193 120.5 307.5t352.5 114.5h633v-173h-144v-1700h-170v1700h-223v-1700h-165z" />
    <glyph glyph-name="periodcentered" unicode="&#xb7;" horiz-adv-x="682" 
d="M497 637v205h205v-205h-205z" />
    <glyph glyph-name="ordmasculine" unicode="&#xba;" horiz-adv-x="748" 
d="M373 1491q145 0 236.5 -100t91.5 -276q0 -175 -92 -275t-235 -100q-145 0 -237 98t-92 273q0 180 91.5 280t236.5 100zM373 1358q-81 0 -130.5 -57t-49.5 -186q0 -126 50.5 -184.5t129.5 -58.5q80 0 130 58.5t50 189.5q0 122 -50.5 180t-129.5 58z" />
    <glyph glyph-name="guillemotright" unicode="&#xbb;" 
d="M791 528l-261 456h148l319 -456l-319 -456h-147zM404 528l-264 456h151l314 -456l-314 -456h-151z" />
    <glyph glyph-name="tilde" unicode="&#x2dc;" horiz-adv-x="682" 
d="M7 1219q-1 104 57 166q57 62 146 62q62 0 169 -54q59 -30 94 -30q32 0 49 17.5t24 69.5h130q-3 -114 -57.5 -171t-138.5 -57q-63 0 -166 56q-67 36 -98 36q-34 0 -55 -24q-22 -24 -21 -71h-133z" />
    <glyph glyph-name="uni10A0" unicode="&#x10a0;" horiz-adv-x="997" 
d="M912 600q0 -600 -412 -600q-415 0 -415 555v129h186v-125q0 -391 229 -391q227 0 227 432q0 257 -195.5 448.5t-198.5 487.5h178q12 -257 206.5 -457t194.5 -479z" />
    <glyph glyph-name="uni10A1" unicode="&#x10a1;" horiz-adv-x="999" 
d="M726 512q0 268 -221 275q-231 -7 -231 -275q0 -344 228 -344q224 0 224 344zM914 512q0 -512 -413 -512q-416 0 -413 512q0 345 327 438q116 111 137 276q-21 138 -281 138v-252h-159v422h151q425 2 463 -258q3 -215 -135 -328q323 -91 323 -436z" />
    <glyph glyph-name="uni10A2" unicode="&#x10a2;" horiz-adv-x="1156" 
d="M886 455q0 295 -300 295q-316 -5 -314 -289q-2 -293 312 -293q302 0 302 287zM1071 461q0 -461 -489 -463q-497 2 -492 463q-5 396 391 454q3 62 133.5 130t130.5 147q-7 173 -161 170q-166 3 -166 -109v-112h-185v112q2 281 351 281q340 2 340 -342
q-1 -103 -113.5 -175.5t-112.5 -109.5q373 -50 373 -446z" />
    <glyph glyph-name="uni10A3" unicode="&#x10a3;" horiz-adv-x="1638" 
d="M1367 976q0 389 -228 389t-228 -389q0 -362 228 -362t228 362zM1293 0h-186q-1022 0 -1022 1016q40 520 413 520q228 0 322 -171q91 171 319 171q412 0 412 -560v-4q2 -530 -412 -530q-413 0 -409 528q-4 395 -232 395t-228 -349q0 -848 839 -848h184v-168z" />
    <glyph glyph-name="uni10A4" unicode="&#x10a4;" horiz-adv-x="996" 
d="M911 430q0 -430 -416 -432q-408 2 -410 432v81h185v-81q-1 -262 228 -262q228 0 228 262v683q0 253 -231 253q-225 -1 -226 -216q1 -118 125 -142v-181q-307 30 -307 330q-2 379 411 379t413 -423v-683z" />
    <glyph glyph-name="uni10A5" unicode="&#x10a5;" horiz-adv-x="996" 
d="M911 430q0 -430 -413 -430t-413 430v211h185v-211q-1 -262 228 -262q228 0 228 262v82q0 203 -202 209h-153v168h153q202 29 202 254q0 222 -230 219q-227 3 -227 -249v-99h-183v99q-1 423 412 423t413 -390q0 -205 -176 -331q176 -75 176 -303v-82z" />
    <glyph glyph-name="uni10A6" unicode="&#x10a6;" horiz-adv-x="1209" 
d="M1124 512q0 -512 -454 -512q-437 0 -445 503q10 230 94 277q-260 42 -274 363q12 357 365 393q374 -36 390 -383q0 -111 -59 -194q99 13 241 -97t142 -350zM926 512q0 278 -248 291q-268 -1 -268 -291q0 -344 260 -344q256 0 256 344zM620 1150q-7 195 -210 215
q-170 -23 -188 -215q13 -204 188 -230q200 13 210 230z" />
    <glyph glyph-name="uni10A7" unicode="&#x10a7;" horiz-adv-x="1638" 
d="M726 512v549q0 304 -228 304t-228 -304v-549q0 -344 228 -344t228 344zM1553 1061v-549q0 -522 -444 -512v168q258 0 258 344v549q0 304 -258 304q-198 0 -198 -304v-549q0 -512 -420 -512q-406 0 -406 512v549q0 475 413 475q271 0 317 -222q44 222 294 222
q444 0 444 -475z" />
    <glyph glyph-name="uni10A8" unicode="&#x10a8;" horiz-adv-x="996" 
d="M911 1061v-549q0 -455 -330 -512v168q145 32 145 344v549q0 304 -228 304t-228 -304v-549q0 -312 151 -344v-168q-336 59 -336 512v549q0 475 413 475t413 -475z" />
    <glyph glyph-name="uni10A9" unicode="&#x10a9;" horiz-adv-x="996" 
d="M911 430q0 -430 -413 -430t-413 430v81h185v-81q-1 -262 228 -262q228 0 228 262v82q0 203 -202 209h-153v168h153q202 29 202 254q0 202 -310 219v174q473 -36 495 -390q0 -205 -176 -331q176 -75 176 -303v-82z" />
    <glyph glyph-name="uni10AA" unicode="&#x10aa;" horiz-adv-x="2277" 
d="M2180 1000q-20 -488 -432 -510v168q246 12 259 342q0 365 -228 365q-226 0 -228 -365v-174h-184v174q0 365 -228 365t-227 -365v-174h-184v174q-2 365 -230 365t-228 -388q62 -749 969 -809h414v-168h-414q-1089 100 -1152 976q-2 560 411 560q228 0 325 -201
q88 201 316 201t320 -201q94 201 320 201q413 0 401 -536z" />
    <glyph glyph-name="uni10AB" unicode="&#x10ab;" horiz-adv-x="996" 
d="M726 512q0 269 -232 277q-224 0 -224 -277q0 -344 228 -344t228 344zM911 512q0 -512 -413 -512t-413 512q0 442 409 464q143 -11 232 -94v231q0 252 -232 253q-224 -1 -227 -218h-181q-1 388 412 388t413 -423v-601z" />
    <glyph glyph-name="uni10AC" unicode="&#x10ac;" horiz-adv-x="996" 
d="M726 512q0 274 -229 277q-227 -8 -227 -277q0 -344 227 -344q229 0 229 344zM911 512q0 -512 -414 -512q-412 0 -411 508v605q-1 423 411 423h414v-171h-412q-229 0 -229 -252v-256q115 113 227 119q414 -4 414 -464z" />
    <glyph glyph-name="uni10AD" unicode="&#x10ad;" horiz-adv-x="1638" 
d="M1552 1061v-561q1 -446 -442 -500v168q257 0 257 344v549q0 304 -258 304q-198 0 -198 -259v-502h-185v509q0 252 -228 252t-228 -304v-549q0 -303 228 -344v-168q-413 54 -413 512v549q0 475 413 475q228 0 320 -171q93 171 291 171q443 0 443 -475z" />
    <glyph glyph-name="uni10AE" unicode="&#x10ae;" horiz-adv-x="995" 
d="M910 430q0 -430 -413 -430q-412 0 -412 430v131h183v-131q0 -262 227 -262q232 0 232 262q0 287 -232 285h-152v175h154q228 0 231 220v3q-3 253 -462 253h-180v169h180q644 1 644 -422q0 -223 -207 -308q207 -90 207 -375z" />
    <glyph glyph-name="uni10AF" unicode="&#x10af;" horiz-adv-x="1132" 
d="M1047 430q0 -430 -414 -432q-410 2 -410 408v50h183v-50q0 -238 228 -238q230 0 230 262v935h-261q100 -165 100 -304q0 -399 -332 -399q-326 0 -326 386v137h183v-137q1 -221 141 -224q151 1 151 234q-2 119 -131 320v158h657z" />
    <glyph glyph-name="uni10B0" unicode="&#x10b0;" horiz-adv-x="1638" 
d="M1553 508q0 -508 -414 -508v168q226 0 226 344q0 274 -226 277q-229 0 -229 -309v-174h-182v174q-2 306 -231 309q-227 0 -227 -277q0 -344 227 -344v-168q-412 0 -410 508q-2 292 186 390q-188 102 -186 297q-2 341 408 340h870v-169h-870q-225 -1 -225 -166
q0 -173 227 -224q229 -4 321 -153q93 153 307 153q428 0 428 -468z" />
    <glyph glyph-name="uni10B1" unicode="&#x10b1;" horiz-adv-x="994" 
d="M909 454q0 -454 -416 -454q-408 0 -408 454v1081h182v-1081q1 -286 229 -286t233 286q-5 161 -90.5 246t-86.5 272h174q-2 -164 90.5 -261.5t92.5 -256.5z" />
    <glyph glyph-name="uni10B2" unicode="&#x10b2;" horiz-adv-x="1452" 
d="M627 1188q0 -190 166 -189q172 1 170 189q-1 177 -169 177q-165 0 -167 -177zM1367 512q0 -512 -594 -510q-688 -2 -688 513v726h185v-726q-1 -345 504 -347q411 0 411 344q0 297 -327 319h-111q-116 -4 -120 -155q17 -105 192 -105v-154q-356 -17 -370 259
q4 181 157 248q-140 64 -157 264q-1 348 345 348q345 0 345 -348q0 -200 -164 -258q392 -9 392 -418z" />
    <glyph glyph-name="uni10B3" unicode="&#x10b3;" horiz-adv-x="1137" 
d="M1052 406q-31 -406 -457 -408q-458 2 -458 408v253h184v-253q0 -238 274 -237q256 -1 256 237v707q1 252 -145 252q-159 0 -159 -238v-226h-185v226q0 238 -129 238h-188v171h186q131 0 231 -145q85 145 244 142q346 3 346 -421v-706z" />
    <glyph glyph-name="uni10B4" unicode="&#x10b4;" horiz-adv-x="1638" 
d="M728 1021q0 344 -230 344q-228 0 -228 -344q0 -354 223 -356q235 0 235 356zM1551 430q0 -430 -468 -432q-428 2 -455 338h178q10 -167 277 -167q284 -1 284 261q0 193 -142 197h-120v168h120q142 5 142 318q0 252 -258 252q-198 0 -198 -344q0 -528 -418 -528
q-408 6 -408 528q0 515 413 515q228 0 317 -171q96 171 294 171q442 0 442 -423q2 -313 -165 -394q165 -91 165 -289z" />
    <glyph glyph-name="uni10B5" unicode="&#x10b5;" horiz-adv-x="994" 
d="M909 430q0 -430 -416 -428q-408 -2 -408 428v158h182v-158q1 -262 229 -262t228 262v408q0 162 -240 194q-131 -5 -135 -201h-182q0 369 311 373q115 -4 246 -91v423h185v-1106z" />
    <glyph glyph-name="uni10B6" unicode="&#x10b6;" horiz-adv-x="1638" 
d="M1367 0h-228q-1054 0 -1053 1061q-1 475 412 475q228 0 321 -177q92 177 320 177q414 0 414 -475q0 -549 -444 -549v172q258 0 258 377q0 304 -228 304t-228 -304v-308h-184v308q-1 304 -229 304t-228 -304q0 -893 869 -893h228v-168z" />
    <glyph glyph-name="uni10B7" unicode="&#x10b7;" horiz-adv-x="996" 
d="M911 430q0 -430 -414 -432q-412 2 -412 432v26h184l1 -26q0 -262 227 -262q229 0 229 262v310q-69 -140 -227 -143q-414 3 -414 464q0 330 119 475h171q-105 -145 -105 -475q0 -296 227 -296q229 75 229 296v475h185v-1106z" />
    <glyph glyph-name="uni10B8" unicode="&#x10b8;" horiz-adv-x="1027" 
d="M757 480q0 306 -227 309q-229 -3 -230 -309q1 -312 229 -312t228 312zM942 480q0 -480 -413 -480q-411 0 -411 480q-2 479 412 481q122 -4 227 -68v220q-20 253 -138 253q-153 0 -160 -182v-76h-174v76q-7 182 -240 182v168q264 2 330 -148q81 150 244 148
q313 2 323 -421v-633z" />
    <glyph glyph-name="uni10B9" unicode="&#x10b9;" horiz-adv-x="996" 
d="M596 1200q-1 165 -156 166q-171 -1 -171 -347v-235q65 84 229 95q87 150 98 321zM659 857q226 -81 252 -427q0 -298 -120 -460l-178 30q113 132 113 430q-17 270 -228 285q-229 0 -229 -303v-412h-183v1019q-1 517 354 517q334 0 336 -336q-2 -171 -117 -343z" />
    <glyph glyph-name="uni10BA" unicode="&#x10ba;" horiz-adv-x="1180" 
d="M1094 1137q1 -247 -250 -334q251 -86 251 -291q0 -512 -496 -512q-514 0 -514 512v549q0 330 140 474h189q-144 -144 -144 -474v-549q0 -344 329 -344q315 0 311 344q-25 205 -234 205h-100v174h94q226 1 240 247q0 227 -228 227v171q413 0 412 -399z" />
    <glyph glyph-name="uni10BB" unicode="&#x10bb;" horiz-adv-x="996" 
d="M726 512q0 274 -232 276q-224 1 -224 -276q0 -344 228 -344t228 344zM911 512q0 -512 -411 -512q-415 0 -415 512q0 455 413 455q175 -21 228 -110v679h185v-1024z" />
    <glyph glyph-name="uni10BC" unicode="&#x10bc;" horiz-adv-x="1015" 
d="M87 1124v4q-2 408 343 408q143 0 229 -150q96 150 311 150v-171q-215 0 -221 -181v-36h-174v36q1 181 -145 182q-160 -1 -160 -241v-246q90 96 227 97q414 -1 414 -464q0 -512 -413 -512q-411 0 -413 512zM270 512q0 -344 228 -344t228 344q0 277 -232 277
q-224 0 -224 -277z" />
    <glyph glyph-name="uni10BD" unicode="&#x10bd;" horiz-adv-x="996" 
d="M270 1059q0 -160 150 -160q152 1 158 160q-3 151 -150 151q-158 0 -158 -151zM911 419q0 -419 -417 -421q-408 2 -408 432l-1 25h185v-25q0 -262 228 -262t228 262q0 188 -198 341l-133 -24q-310 21 -307 310q-3 285 307 308q56 0 82 -7v175h168v-264q56 -46 81 -130h184
v-158h-184q-25 -81 -64 -124q249 -173 249 -438z" />
    <glyph glyph-name="uni10BE" unicode="&#x10be;" horiz-adv-x="994" 
d="M724 512q0 274 -227 277q-229 0 -229 -277q0 -344 228 -344t228 344zM909 512q0 -512 -412 -512t-412 512v1024h183v-657q80 93 229 97q412 -4 412 -464z" />
    <glyph glyph-name="uni10BF" unicode="&#x10bf;" horiz-adv-x="995" 
d="M910 357q-39 -357 -417 -359q-408 2 -408 432v142h184v-142q0 -262 228 -262q187 0 229 189q-1 149 -161 334.5t-160 348.5v159l-320 128v168l322 -127v168h174v-222l325 -126v-167l-325 124v-104q3 -114 166 -309t163 -375z" />
    <glyph glyph-name="uni10C0" unicode="&#x10c0;" horiz-adv-x="995" 
d="M910 356q0 -356 -413 -356q-412 0 -412 412v43h184v-44q0 -243 228 -243q229 0 229 188q0 155 -106 156h-209v168h209q106 4 108 115q-2 95 -108 100h-209v170h217q97 -4 97 135q0 165 -331 165h-269v171h269q516 0 516 -336q0 -139 -106 -223q106 -77 106 -177
q0 -128 -106 -204q106 -84 106 -240z" />
    <glyph glyph-name="uni10C1" unicode="&#x10c1;" horiz-adv-x="1052" 
d="M520 0q-435 0 -435 430v961h185v-961q0 -262 253 -262q259 0 259 215q0 189 -95 190h-154v177h152q97 0 100 106q-3 98 -102 100h-150v181h150q99 3 102 100q-3 128 -252 127v172q434 0 432 -299q2 -99 -104 -186q106 -97 104 -195q2 -106 -114 -197q116 -88 116 -276
q0 -383 -447 -383z" />
    <glyph glyph-name="uni10C2" unicode="&#x10c2;" horiz-adv-x="996" 
d="M270 512q0 -344 228 -344q229 0 229 344v540q-1 313 -231 312q-226 1 -226 -312v-540zM86 -16q184 17 238 55q-238 129 -238 473v540q-1 484 410 482q415 2 415 -482v-540q0 -344 -243 -475q58 -37 239 -60v-182q-181 25 -409 205q-228 -180 -412 -205v189z" />
    <glyph glyph-name="uni10C3" unicode="&#x10c3;" horiz-adv-x="996" 
d="M911 430q0 -430 -417 -432q-408 2 -408 408v106h184v-112q0 -232 228 -232q229 0 229 262q0 359 -233 364h-152v178h152q169 0 232 393h-456v-189h-185v360h826q0 -484 -229 -644q229 -35 229 -462z" />
    <glyph glyph-name="uni10C4" unicode="&#x10c4;" horiz-adv-x="996" 
d="M911 430q0 -430 -415 -432q-411 2 -411 432v25h185v-25q0 -262 226 -262q230 0 230 262q0 254 -208 291h-174v178h152q230 60 233 332q-152 -37 -233 -37q-411 6 -411 342h185q0 -170 226 -170q252 -1 415 170v-308q0 -315 -258 -415q258 -96 258 -383z" />
    <glyph glyph-name="uni10C5" unicode="&#x10c5;" horiz-adv-x="1116" 
d="M911 452v-96q0 -356 -412 -358q-414 2 -414 358q0 303 215 396q-215 92 -215 448q0 336 413 336t413 -336v-124h120v-178h-120v-274l120 4v-176h-120zM270 1200q0 -356 223 -356h233v356q0 165 -228 165t-228 -165zM726 662h-233q-223 -3 -223 -306q0 -188 228 -188
t228 188v306z" />
    <glyph glyph-name="uni10C6" unicode="&#x10c6;" horiz-adv-x="1640" 
d="M1369 1042q0 323 -228 323t-228 -323q0 -302 228 -302t228 302zM1555 1040q0 -485 -421 -485q-113 0 -221 85v-284q0 -356 -413 -356v168q228 0 228 188v686q0 323 -228 323t-228 -319q0 -306 245 -313v-178q-430 0 -432 491q2 490 415 490q228 0 312 -147
q101 147 329 147q414 0 414 -496z" />
    <glyph glyph-name="uni10D0" unicode="&#x10d0;" horiz-adv-x="950" 
d="M885 429q-27 -400 -409 -429q-379 24 -411 377l32 155l173 -40l-20 -115q20 -189 228 -209q207 19 228 261q-21 115 -149 190q-237 73 -283 327h178q22 -130 117 -169q280 -104 316 -348z" />
    <glyph glyph-name="uni10D1" unicode="&#x10d1;" horiz-adv-x="952" 
d="M887 430q-22 -399 -404 -430q-402 28 -418 430q27 361 346 427v205q-23 173 -182.5 212.5t-159.5 264.5h177q0 -146 161 -185.5t184 -286.5v-210q263 -66 296 -427zM708 430q-12 254 -221 268q-223 -14 -241 -268q20 -243 237 -262q208 19 225 262z" />
    <glyph glyph-name="uni10D2" unicode="&#x10d2;" horiz-adv-x="1081" 
d="M1031 -226q-32 -468 -489 -493q-472 23 -492 493q29 426 464 490q157 82 172 300q5 117 -162 126q-162 -7 -172 -115v-112h-178v112q15 270 350 287q340 -18 340 -298q-8 -224 -165 -324q291 -60 332 -466zM853 -226q-9 306 -307 319q-296 -13 -313 -319
q20 -312 306 -327q283 18 314 327z" />
    <glyph glyph-name="uni10D3" unicode="&#x10d3;" horiz-adv-x="1593" 
d="M1027 -674q0 307 -381 342q-581 176 -581 688q31 462 408 500q233 0 325 -172q93 172 314 172q401 -31 416 -434q-26 -384 -416 -422q-406 67 -406 430q8 238 -228 254q-198 -27 -228 -328q0 -356 396 -512q546 -75 547 -518h-166zM1347 430q0 230 -235 254
q-221 -16 -221 -254q0 -230 221 -262q218 23 235 262z" />
    <glyph glyph-name="uni10D4" unicode="&#x10d4;" horiz-adv-x="970" 
d="M890 -302q-25 -388 -412 -416q-389 28 -413 406l30 231h184l-30 -231q16 -226 229 -241q206 20 229 241v739q-13 248 -203 257q-213 -12 -214 -202q6 -126 103 -153v-180q-268 51 -282 331q7 347 393 377q361 -27 386 -430v-729z" />
    <glyph glyph-name="uni10D5" unicode="&#x10d5;" horiz-adv-x="961" 
d="M885 -311q-27 -383 -410 -408q-375 20 -410 408l30 230h181l-30 -230q27 -220 229 -244q208 20 231 243v82q-30 196 -192 230h-103v168h103q139 18 192 262q-22 253 -211 254q-181 -1 -209 -224l30 -153h-181l-30 152q20 379 390 397q370 -29 396 -426
q-30 -240 -206 -336q193 -59 200 -325v-80z" />
    <glyph glyph-name="uni10D6" unicode="&#x10d6;" horiz-adv-x="1018" 
d="M953 430q-26 -409 -413 -430q-391 21 -415 430q24 343 311 403q-378 -13 -411 343q25 339 352 360q340 -16 363 -354q-14 -241 -184 -325q371 -32 397 -427zM568 1180q-17 185 -191 196q-167 -11 -184 -196q17 -184 194 -200q177 17 181 200zM768 430q-17 240 -231 254
q-210 -17 -231 -254q21 -240 234 -262q207 22 228 262z" />
    <glyph glyph-name="uni10D7" unicode="&#x10d7;" horiz-adv-x="1598" 
d="M1533 430q-42 -398 -444 -430v168q220 31 258 262q-23 226 -237 254q-219 -29 -219 -254q-40 -392 -418 -430q-382 40 -408 430q34 388 412 426q240 -17 319 -172q80 161 314 172q391 -56 423 -426zM708 430q-2 214 -231 254q-211 -16 -231 -254q19 -252 227 -262
q216 14 235 262z" />
    <glyph glyph-name="uni10D8" unicode="&#x10d8;" horiz-adv-x="956" 
d="M891 430q-26 -373 -292 -450l-40 158q134 72 147 292q-18 240 -228 254q-212 -17 -228 -254q13 -223 149 -292l-40 -158q-276 77 -294 450q20 386 413 427q389 -40 413 -427z" />
    <glyph glyph-name="uni10D9" unicode="&#x10d9;" horiz-adv-x="946" 
d="M875 -311q-33 -386 -415 -408q-385 10 -410 408l30 154h184l-30 -154q17 -234 226 -240q218 8 232 240v80q-36 231 -232 231h-103v168h103q211 22 237 287q-41 232 -286 229v172q413 1 465 -401q-20 -265 -225 -359q188 -66 224 -327v-80z" />
    <glyph glyph-name="uni10DA" unicode="&#x10da;" horiz-adv-x="2217" 
d="M2152 430q-34 -396 -414 -430v168q216 22 229 262q0 235 -230 254q-224 -19 -225 -254v-174h-185v174q0 237 -221 254q-215 -17 -216 -254v-174h-183v174q-1 239 -230 254q-209 -26 -227 -328q0 -470 641 -502q868 -35 868 -528h-174q12 311 -694 352q-826 74 -826 678
q24 477 412 500q229 -8 328 -171q86 153 301 171q221 -10 321 -171q86 161 310 171q391 -20 415 -426z" />
    <glyph glyph-name="uni10DB" unicode="&#x10db;" horiz-adv-x="971" 
d="M891 430q-26 -402 -415 -430q-382 28 -411 430q16 410 413 427q147 0 228 -86v342q0 252 -228 252q-208 0 -208 -152q6 -89 77 -135l-97 -121q-149 65 -165 256q27 302 393 323q387 -23 413 -423v-683zM706 430q-9 245 -228 254q-213 -14 -232 -253q29 -243 232 -263
q208 17 228 262z" />
    <glyph glyph-name="uni10DC" unicode="&#x10dc;" horiz-adv-x="971" 
d="M906 430q-27 -400 -415 -430q-389 22 -411 430v694q20 396 411 412h408v-170h-408q-218 -9 -227 -244v-372q87 106 227 106q393 -15 415 -426zM723 430q-17 239 -238 254q-205 -19 -221 -254q19 -242 227 -262q210 20 232 262z" />
    <glyph glyph-name="uni10DD" unicode="&#x10dd;" horiz-adv-x="1598" 
d="M1533 430q-31 -396 -445 -430v168q239 22 259 262q-15 240 -228 254q-228 -26 -228 -254v-125h-184v125q-1 225 -229 254q-215 -14 -228 -254q28 -229 258 -262v-168q-414 42 -443 430q29 401 413 426q228 0 321 -172q92 172 320 173q388 -21 414 -427z" />
    <glyph glyph-name="uni10DE" unicode="&#x10de;" horiz-adv-x="956" 
d="M891 430q-26 -403 -414 -430q-383 30 -412 410v103h185v-101q18 -229 227 -244q212 16 229 262q-20 189 -231 205h-101v174h119q213 20 215 221q-2 167 -322.5 225t-320.5 281h179q6 -111 326.5 -175.5t320.5 -333.5q0 -191 -207 -302q188 -56 207 -295z" />
    <glyph glyph-name="uni10DF" unicode="&#x10df;" horiz-adv-x="1161" 
d="M1081 -313q-19 -376 -428 -406q-380 20 -409 408l30 229h178l-30 -229q19 -234 227 -244q225 15 250 244v995h-246q63 -102 66 -272q-13 -317 -328 -344q-301 15 -326 333v170l181 -40v-130q4 -159 143 -172q150 1 151 183q11 185 -131 336v108h672v-1169z" />
    <glyph glyph-name="uni10E0" unicode="&#x10e0;" horiz-adv-x="1603" 
d="M1538 430q-20 -399 -444 -430v168q258 22 258 262q-15 234 -228 254q-227 -24 -229 -254v-126h-183v126q-2 230 -229 254q-210 -15 -228 -254q0 -237 258 -262v-168q-425 30 -443 430q1 255 164 471.5t464 364t437 310.5l132 -112q-166 -204 -478.5 -348t-418.5 -292
l116 33q225 -2 316 -173q94 171 322 173q384 -28 414 -427z" />
    <glyph glyph-name="uni10E1" unicode="&#x10e1;" horiz-adv-x="968" 
d="M903 430q-29 -406 -408 -430q-393 20 -415 430v1106h182v-1106q26 -247 233 -262q206 18 223 262q0 133 -100 240t40 282l160 -60q-120 -103 -17.5 -218t102.5 -244z" />
    <glyph glyph-name="uni10E2" unicode="&#x10e2;" horiz-adv-x="1306" 
d="M236 57q4 -531 420 -612q420 81 420 612q0 474 -332 588v-480h-174v484q-330 -137 -334 -592zM50 57q28 683 520 754v355h174v-357q493 -69 512 -756q0 -716 -596 -774q-600 58 -610 778z" />
    <glyph glyph-name="uni10E3" unicode="&#x10e3;" horiz-adv-x="1033" 
d="M953 -311q-32 -373 -407 -408q-380 22 -408 408l30 227h174l-30 -227q13 -227 233 -242q216 22 232 242v762q-5 213 -149 233q-149 0 -164 -233v-152h-170v152q4 233 -219 233h-50v172h47q249 0 304 -172q81 172 252 172q316 -30 325 -405v-762z" />
    <glyph glyph-name="uni10E4" unicode="&#x10e4;" horiz-adv-x="1603" 
d="M1533 -311q-30 -376 -414 -407q-387 27 -412 407l30 158h183l-30 -158q19 -227 229 -242q213 15 228 242v80q-26 207 -170 231h-92v168h92q150 25 170 262q0 210 -228 254q-228 -24 -228 -254q-19 -400 -413 -430q-381 30 -413 430q35 396 413 426q228 0 318 -172
q95 172 323 172q389 -23 414 -426q-20 -242 -217 -344q177 -71 217 -314v-83zM706 430q0 232 -228 254q-205 -27 -228 -254q25 -237 228 -262q215 25 228 262z" />
    <glyph glyph-name="uni10E5" unicode="&#x10e5;" horiz-adv-x="971" 
d="M891 -312q-36 -378 -415 -406q-384 28 -411 406l30 228h185l-30 -228q15 -226 226 -241q213 15 231 241v671q-23 311 -229 325q-175 -12 -189 -200q9 -128 106 -169v-169q-273 40 -289 338q21 343 372 373q149 -11 229 -97v776h184v-1848z" />
    <glyph glyph-name="uni10E6" unicode="&#x10e6;" horiz-adv-x="1598" 
d="M1020 -673q-1 321 -314 351q-641 152 -641 682q32 466 408 496q233 0 328 -172q90 172 309 172q399 -20 423 -426q-18 -376 -414 -430v168q213 0 228 262q0 223 -235 254q-221 -31 -221 -254v-127h-185v127q0 217 -233 254q-223 -44 -227 -324q4 -352 460 -516
q489 -44 491 -517h-177z" />
    <glyph glyph-name="uni10E7" unicode="&#x10e7;" horiz-adv-x="971" 
d="M891 -313q-29 -381 -416 -406q-380 25 -410 408l30 155h183l-30 -155q0 -204 227 -244q231 27 232 244v440q-58 -112 -230 -129h-2q-360 30 -410 430q4 300 190 458l160 -70q-169 -103 -169 -388q24 -244 229 -262q194 28 232 262v426h184v-1169z" />
    <glyph glyph-name="uni10E8" unicode="&#x10e8;" horiz-adv-x="982" 
d="M726 430q-9 230 -236 254q-206 -24 -231 -254q28 -237 231 -262q214 12 236 262zM902 430q-29 -400 -412 -430q-379 41 -412 430q30 393 412 426q187 -13 227 -108v376q0 216 -149 242q-136 -15 -138 -192v-116h-174v116q1 170 -176 192h-55v170h66q188 0 263 -170
q52 170 232 170q316 -40 316 -412v-694z" />
    <glyph glyph-name="uni10E9" unicode="&#x10e9;" horiz-adv-x="969" 
d="M904 430q-3 -382 -333 -462v188q158 52 148 274q0 186 -221 199q-235 -26 -235 -217v-412h-183v1124q16 402 363 412q317 -20 336 -304q-36 -335 -516 -355v-182q25 73 235 102q385 -18 406 -367zM599 1232q-1 118 -156 134q-180 -9 -180 -185v-146q321 1 336 197z" />
    <glyph glyph-name="uni10EA" unicode="&#x10ea;" horiz-adv-x="1058" 
d="M993 420q-13 -252 -240 -334q227 -86 240 -317q-54 -473 -495 -488q-394 32 -433 551v315q0 26 10 265.5t60 445.5h188q-54 -174 -74 -649v-377q27 -363 247 -387q288 2 321 322q17 182 -201 233h-111v174h104q215 39 210 242q-2 112 -127.5 183t-111.5 257h180
q-9 -141 108.5 -209t124.5 -227z" />
    <glyph glyph-name="uni10EB" unicode="&#x10eb;" horiz-adv-x="972" 
d="M892 430q-40 -396 -415 -430q-383 24 -412 424q29 394 410 432q164 1 232 -96v777h185v-1107zM707 430q0 233 -236 254q-201 -27 -225 -260q20 -231 231 -256q204 25 230 262z" />
    <glyph glyph-name="uni10EC" unicode="&#x10ec;" horiz-adv-x="982" 
d="M256 430q22 -250 236 -262q203 25 231 262q-25 230 -231 254q-227 -24 -236 -254zM80 1124q0 372 316 412q180 0 232 -170q75 170 263 170h66v-170h-55q-177 -22 -176 -192v-116h-174v116q-2 177 -138 192q-149 -26 -149 -242v-376q40 95 227 108q382 -33 412 -426
q-33 -389 -412 -430q-383 30 -412 430v694z" />
    <glyph glyph-name="uni10ED" unicode="&#x10ed;" horiz-adv-x="955" 
d="M887 -311q-25 -373 -409 -407q-381 21 -413 407l30 155h184l-30 -157q27 -225 229 -240q208 15 230 242q-2 167 -116 283t-135 314l-86 -18q-277 26 -304 307q27 271 316 309l74 -8v660h167v-745q79 -47 84 -134h182v-158h-186q-1 -85 -82 -139v-76q25 -169 146.5 -293.5
t118.5 -301.5zM237 577q13 -160 162 -160q157 6 170 160q-13 140 -162 151q-157 -14 -170 -151z" />
    <glyph glyph-name="uni10EE" unicode="&#x10ee;" horiz-adv-x="972" 
d="M907 430q-26 -406 -417 -430q-388 20 -410 430v1106h182v-798q104 118 228 119q391 -24 417 -427zM718 430q-20 227 -228 254q-228 -34 -228 -254q16 -244 228 -262q211 18 228 262z" />
    <glyph glyph-name="uni10EF" unicode="&#x10ef;" horiz-adv-x="956" 
d="M891 -311q-46 -390 -418 -408q-383 25 -408 408l30 155h183l-30 -155q22 -227 225 -244q213 24 233 243q0 240 -144.5 374t-174.5 397v128l-322 118v179l322 -128v369h174v-443l316 -146v-176l-316 153v-56q0 -168 150 -329.5t180 -438.5z" />
    <glyph glyph-name="uni10F0" unicode="&#x10f0;" horiz-adv-x="961" 
d="M891 356q-32 -332 -410 -356q-391 27 -416 412v100h181v-100q17 -229 231 -244q209 25 231 180q-2 129 -108 164h-158v168h158q106 19 106 110q0 92 -106 105h-158v170h166q98 13 98 120q0 84 -230 118t-230 233h185q0 -94 230 -119.5t230 -233.5q0 -139 -101 -196
q101 -63 101 -198q0 -126 -107 -193q107 -105 107 -240z" />
    <glyph glyph-name="uni10F1" unicode="&#x10f1;" horiz-adv-x="1062" 
d="M979 -352q-30 -342 -484 -367q-367 32 -425 407q3 480 53 824.5t-50 600.5h185q93 -256 46.5 -600.5t-46.5 -824.5q72 -257 237 -241q254 0 305 201q-2 217 -104 229h-124v178h124q92 20 102 147q-7 122 -98 140h-128v176h126q90 12 100 157q-7 115 -102 130h-124v180
h124q102 8 102 171q-10 113 -153.5 161t-145.5 219h174q1 -77 149.5 -133t156.5 -247q-8 -213 -135 -257q99 -42 117 -87.5t18 -136.5q-8 -205 -145 -247q137 -46 145 -226q-5 -178 -137 -223q150 -81 137 -331z" />
    <glyph glyph-name="uni10F2" unicode="&#x10f2;" horiz-adv-x="956" 
d="M65 -100q185 2 238 99q-238 169 -238 456q25 378 413 402q398 -21 413 -402q0 -287 -244 -458q59 -97 244 -97v-205q-263 49 -413 241q-153 -192 -413 -241v205zM250 455q0 -287 228 -367q228 80 228 367q0 229 -228 229t-228 -229z" />
    <glyph glyph-name="uni10F3" unicode="&#x10f3;" horiz-adv-x="961" 
d="M891 -311q-16 -379 -418 -408q-408 49 -408 408l30 230h183l-30 -230q2 -242 230 -242t228 242v155q-40 261 -273 283h-112v178h112q263 95 241 379h-390v-173h-179v347h786q-10 -472 -270 -633q230 -120 270 -381v-155z" />
    <glyph glyph-name="uni10F4" unicode="&#x10f4;" horiz-adv-x="961" 
d="M891 -311q0 -380 -413 -407q-413 27 -413 407l30 227h183l-30 -227q2 -242 230 -242t228 242v155q0 190 -233 283h-152v178h152q233 105 231 371q-109 -43 -223 -29q-416 37 -416 402q22 316 416 407v-176q-231 -58 -237 -231q6 -192 234 -240q194 -3 413 166v-260
q0 -339 -260 -496q260 -141 260 -375v-155z" />
    <glyph glyph-name="uni10F5" unicode="&#x10f5;" horiz-adv-x="1074" 
d="M891 512v-178q1 -334 -414 -336q-412 2 -412 336q0 350 406 354h236v160h-236q-406 9 -406 360q0 328 413 328t414 -328v-184h117v-176h-117v-160h117v-176h-118zM250 1205q0 -181 221 -181h236v184q-1 157 -229 157t-228 -160zM706 512h-235q-221 0 -221 -174
q0 -170 228 -170q229 0 228 180v164z" />
    <glyph glyph-name="uni10F6" unicode="&#x10f6;" horiz-adv-x="1598" 
d="M1533 430q-22 -404 -414 -430q-154 20 -228 119v-430q0 -407 -413 -407v165q228 0 228 240v743q0 254 -228 254q-208 -27 -228 -254q20 -242 247 -252v-178q-412 20 -432 430q20 406 413 427q228 0 316 -173q97 173 325 173q392 -19 414 -427zM1347 430q-20 234 -233 258
q-203 -31 -223 -258q8 -206 228 -262q208 20 228 262z" />
    <glyph glyph-name="uni10F7" unicode="&#x10f7;" horiz-adv-x="1083" 
d="M1033 -240q-33 -427 -491 -479q-456 39 -492 479q2 345 325.5 458.5t323.5 326.5q-14 169 -155 169q-147 0 -182 -129l10 -43l-166 -30l-10 63q39 311 348 311q303 -33 336 -341q-9 -305 -324 -415t-326 -363q28 -288 314 -320q303 38 321 313q9 101 -59 169l151 89
q73 -106 76 -258z" />
    <glyph glyph-name="uni10F8" unicode="&#x10f8;" horiz-adv-x="963" 
d="M70 856h180v-500q21 -166 236 -188q219 18 231 262q-22 243 -111 406l170 60q96 -214 122 -466q-24 -403 -412 -430h-2q-148 0 -234 86v-397q38 -227 236 -244q215 20 231 244l-30 155h181l30 -155q-44 -369 -412 -408q-391 28 -416 406v1169z" />
    <glyph glyph-name="uni10F9" unicode="&#x10f9;" horiz-adv-x="1083" 
d="M228 427q27 -353 316 -393q286 51 307 393q-34 300 -307 317q-282 -17 -316 -317zM50 427q51 456 494 490q445 -41 489 -490q-27 -427 -334 -547t-307 -277q19 -138 158 -150q148 -6 192 109v73h177v-73q-28 -263 -369 -281q-322 42 -340 311q4 229 238 320
q-396 88 -398 515z" />
    <glyph glyph-name="uni10FA" unicode="&#x10fa;" horiz-adv-x="953" 
d="M645 -163q2 2 -52 56t-158 69q-149 -10 -196 -117l-128 76l32.5 49t147.5 76q-222 140 -222 376q0 166 109.5 300.5t308.5 134.5q161 0 280 -98.5t124 -312.5q0 -100 -49 -141l-145 57q11 31 11 87q0 113 -57 174t-164 61q-98 0 -162.5 -66.5t-64.5 -192.5
q11 -233 194 -311q205 -80 300 -185z" />
    <glyph glyph-name="uni10FB" unicode="&#x10fb;" horiz-adv-x="824" 
d="M102 859h182v-172h-182v172zM102 172h182v-172h-182v172zM544 522h182v-172h-182v172z" />
    <glyph glyph-name="uni10FC" unicode="&#x10fc;" horiz-adv-x="586" 
d="M410 1030q-5 172 -122 176q-108 -16 -113 -184q0 -197 118 -197q116 0 117 205zM298 1297q88 -10 141 -81t63 -186q-5 -141 -56 -213.5t-153 -72.5q-209 0 -209 284v330q0 179 181 179h235v-83l-258 2q-67 0 -67 -79v-167z" />
    <glyph glyph-name="uni2010" unicode="&#x2010;" horiz-adv-x="682" 
d="M65 440v181h553v-181h-553z" />
    <glyph glyph-name="uni2011" unicode="&#x2011;" horiz-adv-x="682" 
d="M65 440v181h553v-181h-553z" />
    <glyph glyph-name="figuredash" unicode="&#x2012;" 
d="M1151 457h-1163v147h1163v-147z" />
    <glyph glyph-name="endash" unicode="&#x2013;" 
d="M-4 458v145h1139v-145h-1139z" />
    <glyph glyph-name="emdash" unicode="&#x2014;" horiz-adv-x="2048" 
d="M0 458v145h2048v-145h-2048z" />
    <glyph glyph-name="afii00208" unicode="&#x2015;" horiz-adv-x="1155" 
d="M1102 457h-1049v147h1049v-147z" />
    <glyph glyph-name="quoteleft" unicode="&#x2018;" horiz-adv-x="455" 
d="M321 1220v-209h-193v165q0 134 32 194q42 80 133 121l44 -70q-55 -23 -81 -68.5t-29 -132.5h94z" />
    <glyph glyph-name="quoteright" unicode="&#x2019;" horiz-adv-x="455" 
d="M124 1272v209h193v-165q0 -134 -31 -193q-43 -81 -134 -122l-44 71q54 22 80.5 69.5t29.5 130.5h-94z" />
    <glyph glyph-name="quotesinglbase" unicode="&#x201a;" horiz-adv-x="455" 
d="M124 0v209h193v-165q0 -134 -31 -193q-43 -81 -134 -122l-44 71q54 22 80.5 69.5t29.5 130.5h-94z" />
    <glyph glyph-name="quotereversed" unicode="&#x201b;" horiz-adv-x="455" 
d="M340 1057l-45 -70q-76 34 -111.5 86.5t-44 105t-8.5 124.5v163h193v-209h-95q2 -156 111 -200z" />
    <glyph glyph-name="quotedblleft" unicode="&#x201c;" horiz-adv-x="682" 
d="M276 1220v-209h-193v165q0 134 32 194q42 80 133 121l44 -70q-55 -23 -81 -68.5t-29 -132.5h94zM586 1220v-209h-193v165q0 134 32 194q42 80 133 121l44 -70q-55 -23 -81 -68.5t-29 -132.5h94z" />
    <glyph glyph-name="quotedblright" unicode="&#x201d;" horiz-adv-x="682" 
d="M87 1272v209h193v-165q0 -134 -31 -193q-43 -81 -134 -122l-44 71q54 22 80.5 69.5t29.5 130.5h-94zM397 1272v209h193v-165q0 -134 -31 -193q-43 -81 -134 -122l-44 71q54 22 80.5 69.5t29.5 130.5h-94z" />
    <glyph glyph-name="quotedblbase" unicode="&#x201e;" horiz-adv-x="682" 
d="M87 0v209h193v-165q0 -134 -31 -193q-43 -81 -134 -122l-44 71q54 22 80.5 69.5t29.5 130.5h-94zM397 0v209h193v-165q0 -134 -31 -193q-43 -81 -134 -122l-44 71q54 22 80.5 69.5t29.5 130.5h-94z" />
    <glyph glyph-name="uni201F" unicode="&#x201f;" horiz-adv-x="682" 
d="M610 1057l-45 -70q-75 34 -111 86.5t-44.5 105t-8.5 124.5v163h193v-209h-94q1 -156 110 -200zM299 1057l-45 -70q-76 34 -111.5 86.5t-44 105t-8.5 124.5v163h193v-209h-95q2 -156 111 -200z" />
    <glyph glyph-name="bullet" unicode="&#x2022;" horiz-adv-x="717" 
d="M109 718q0 105 74.5 179t178.5 74q105 0 179.5 -74t74.5 -179t-74.5 -179.5t-179.5 -74.5q-104 0 -178.5 74.5t-74.5 179.5z" />
    <glyph glyph-name="ellipsis" unicode="&#x2026;" horiz-adv-x="2048" 
d="M239 0v205h205v-205h-205zM922 0v205h205v-205h-205zM1604 0v205h206v-205h-206z" />
    <glyph glyph-name="uni2027" unicode="&#x2027;" horiz-adv-x="569" 
d="M387 618h-205v205h205v-205z" />
    <glyph glyph-name="guilsinglleft" unicode="&#x2039;" horiz-adv-x="682" 
d="M291 527l265 -455h-149l-315 455l315 457h149z" />
    <glyph glyph-name="guilsinglright" unicode="&#x203a;" horiz-adv-x="682" 
d="M392 530l-265 454h149l304 -448l-304 -464h-149z" />
    <glyph glyph-name="Euro" unicode="&#x20ac;" 
d="M790 1325q-369 -10 -471 -390h682l-27 -134h-671v-132h644l-28 -134h-595q42 -229 179.5 -311.5t271.5 -82.5q187 0 292 98v-206q-125 -58 -276 -58q-536 5 -666 560h-153l28 134h105l-2 132h-131l28 134h116q122 546 678 556q186 0 313 -81l-40 -186q-122 101 -277 101z
" />
    <glyph glyph-name="trademark" unicode="&#x2122;" horiz-adv-x="2048" 
d="M489 651v694h-264v121h666v-121h-266v-694h-136zM982 651v815h200l206 -651l199 651h196v-815h-124v684l-210 -684h-123l-219 694v-694h-125z" />
    <glyph glyph-name="uni2219" unicode="&#x2219;" horiz-adv-x="569" 
d="M185 619v205h205v-205h-205z" />
    <glyph glyph-name="uniE000" unicode="&#xe000;" horiz-adv-x="950" 
d="M885 429q-27 -400 -409 -429q-379 24 -411 377l32 155l173 -40l-20 -115q20 -189 228 -209q207 19 228 261q-21 115 -149 190q-237 73 -283 327h178q22 -130 117 -169q280 -104 316 -348z" />
    <glyph glyph-name="uniE001" unicode="&#xe001;" horiz-adv-x="952" 
d="M887 430q-22 -399 -404 -430q-402 28 -418 430q27 361 346 427v205q-23 173 -182.5 212.5t-159.5 264.5h177q0 -146 161 -185.5t184 -286.5v-210q263 -66 296 -427zM708 430q-12 254 -221 268q-223 -14 -241 -268q20 -243 237 -262q208 19 225 262z" />
    <glyph glyph-name="uniE002" unicode="&#xe002;" horiz-adv-x="952" 
d="M887 430q-22 -399 -404 -430q-402 28 -418 430q27 361 315 424q204 141 197 308q7 153 -207 191q-30 -162 -163 -294h-195q184 166 218 476q510 -42 524 -366q4 -218 -149 -325q265 -63 282 -414zM708 430q-12 254 -221 268q-223 -14 -241 -268q20 -243 237 -262
q208 19 225 262z" />
    <glyph glyph-name="uniE003" unicode="&#xe003;" horiz-adv-x="1081" 
d="M1031 -226q-32 -468 -489 -493q-472 23 -492 493q29 426 464 490q157 82 172 300q5 117 -162 126q-162 -7 -172 -115v-112h-178v112q15 270 350 287q340 -18 340 -298q-8 -224 -165 -324q291 -60 332 -466zM853 -226q-9 306 -307 319q-296 -13 -313 -319
q20 -312 306 -327q283 18 314 327z" />
    <glyph glyph-name="uniE004" unicode="&#xe004;" horiz-adv-x="1081" 
d="M1031 -226q-32 -468 -489 -493q-472 23 -492 493q29 426 464 490q157 82 192 300q-15 117 -162 126q-162 -7 -172 -115v-112h-178v112q15 270 350 287q320 -18 340 -298q-28 -224 -185 -324q291 -60 332 -466zM853 -226q-9 306 -307 319q-296 -13 -313 -319
q20 -312 306 -327q283 18 314 327z" />
    <glyph glyph-name="uniE005" unicode="&#xe005;" horiz-adv-x="954" 
d="M889 -226q2 -485 -419 -493q-387 8 -405 493q0 416 334 490q170 87 205 300q-15 117 -132 126q-142 -7 -152 -115v-82h-178v82q15 270 330 287q290 -18 310 -298q-13 -197 -173 -300q269 -95 280 -490zM711 -226q-7 335 -225 335q-239 0 -242 -334q0 -328 223 -328
q244 0 244 327z" />
    <glyph glyph-name="uniE006" unicode="&#xe006;" horiz-adv-x="1593" 
d="M1027 -674q0 307 -381 342q-581 176 -581 688q31 462 408 500q233 0 325 -172q93 172 314 172q401 -31 416 -434q-26 -384 -416 -422q-406 67 -406 430q8 238 -228 254q-198 -27 -228 -328q0 -356 396 -512q546 -75 547 -518h-166zM1347 430q0 230 -235 254
q-221 -16 -221 -254q0 -230 221 -262q218 23 235 262z" />
    <glyph glyph-name="uniE007" unicode="&#xe007;" horiz-adv-x="956" 
d="M707 430q0 254 -229 254q-228 0 -232 -263q4 -253 232 -253q229 0 229 262zM528 -714q3 228 -230 393t-233 577v165q0 436 413 436t413 -427q0 -430 -419 -430q-97 0 -222 65q0 -150 228 -323.5t229 -455.5h-179z" />
    <glyph glyph-name="uniE008" unicode="&#xe008;" horiz-adv-x="1563" 
d="M223 -288q76 65 180 76l-1 16q-337 199 -337 552q31 462 408 500q203 0 295 -172q93 172 314 172q401 -31 416 -434q-26 -384 -416 -422q-406 67 -406 430q8 238 -198 254q-198 -27 -228 -328q0 -356 396 -512q546 -75 547 -518h-166q0 307 -390 356q-212 13 -329 -97z
M1317 430q0 230 -235 254q-221 -16 -221 -254q0 -230 221 -262q218 23 235 262z" />
    <glyph glyph-name="uniE009" unicode="&#xe009;" horiz-adv-x="1592" 
d="M1343 331q-15 249 -231 263q-209 -14 -226 -263q20 -235 226 -253q216 15 231 253zM916 -716q-5 194 -428 408.5t-423 638.5q27 408 407 436q235 -15 326 -158q93 141 314 158q399 -20 415 -436q-26 -407 -415 -421q-379 14 -403 421q-28 227 -231 261
q-213 -12 -232 -261q4 -367 423.5 -567.5t416.5 -477.5zM1232 1162q-26 -348 -413 -371q-386 26 -407 381h178q11 -202 232 -213q216 5 231 203q-17 187 -150 208q-250 29 -281 243h177q4 -67 117 -84q282 -32 316 -367z" />
    <glyph glyph-name="uniE00A" unicode="&#xe00a;" horiz-adv-x="970" 
d="M890 -302q-25 -388 -412 -416q-389 28 -413 406l30 231h184l-30 -231q16 -226 229 -241q206 20 229 241v739q-13 248 -203 257q-213 -12 -214 -202q6 -126 103 -153v-180q-268 51 -282 331q7 347 393 377q361 -27 386 -430v-729z" />
    <glyph glyph-name="uniE00B" unicode="&#xe00b;" horiz-adv-x="961" 
d="M885 -311q-27 -383 -410 -408q-375 20 -410 408l30 230h181l-30 -230q27 -220 229 -244q208 20 231 243v82q-30 196 -192 230h-103v168h103q139 18 192 262q-22 253 -211 254q-181 -1 -209 -224l30 -153h-181l-30 152q20 379 390 397q370 -29 396 -426
q-30 -240 -206 -336q193 -59 200 -325v-80z" />
    <glyph glyph-name="uniE00C" unicode="&#xe00c;" horiz-adv-x="1018" 
d="M953 430q-26 -409 -413 -430q-391 21 -415 430q24 343 311 403q-378 -13 -411 343q25 339 352 360q340 -16 363 -354q-14 -241 -184 -325q371 -32 397 -427zM568 1180q-17 185 -191 196q-167 -11 -184 -196q17 -184 194 -200q177 17 181 200zM768 430q-17 240 -231 254
q-210 -17 -231 -254q21 -240 234 -262q207 22 228 262z" />
    <glyph glyph-name="uniE00D" unicode="&#xe00d;" horiz-adv-x="1148" 
d="M377 1536q340 -16 363 -374q-20 -263 -206 -322q495 81 549 -410q-26 -409 -413 -430q-391 21 -415 430q26 301 230 382q-418 -46 -460 344q25 359 352 380zM377 1376q-167 -11 -184 -216q17 -184 194 -200q177 17 181 200q-17 205 -191 216zM898 430q-17 240 -231 254
q-210 -17 -231 -254q21 -240 234 -262q207 22 228 262z" />
    <glyph glyph-name="uniE00E" unicode="&#xe00e;" horiz-adv-x="1423" 
d="M1358 430q-26 -409 -413 -430q-391 21 -415 430q5 343 5 469q-67 -87 -184 -87q-340 12 -351 364q25 339 352 360q345 -26 362 -356v-428q63 105 239 105q379 -32 405 -427zM543 1180q-17 185 -191 188q-167 -3 -184 -188q14 -186 184 -200q187 17 191 200zM1173 430
q-17 240 -231 254q-210 -17 -231 -254q21 -240 234 -262q207 22 228 262z" />
    <glyph glyph-name="uniE00F" unicode="&#xe00f;" horiz-adv-x="1598" 
d="M1533 430q-42 -398 -444 -430v168q220 31 258 262q-23 226 -237 254q-219 -29 -219 -254q-40 -392 -418 -430q-382 40 -408 430q34 388 412 426q240 -17 319 -172q80 161 314 172q391 -56 423 -426zM708 430q-2 214 -231 254q-211 -16 -231 -254q19 -252 227 -262
q216 14 235 262z" />
    <glyph glyph-name="uniE010" unicode="&#xe010;" horiz-adv-x="956" 
d="M891 430q-26 -373 -292 -450l-40 158q134 72 147 292q-18 240 -228 254q-212 -17 -228 -254q13 -223 149 -292l-40 -158q-276 77 -294 450q20 386 413 427q389 -40 413 -427z" />
    <glyph glyph-name="uniE011" unicode="&#xe011;" horiz-adv-x="946" 
d="M875 -311q-33 -386 -415 -408q-385 10 -410 408l30 154h184l-30 -154q17 -234 226 -240q218 8 232 240v80q-36 231 -232 231h-103v168h103q211 22 237 287q-41 232 -286 229v172q413 1 465 -401q-20 -265 -225 -359q188 -66 224 -327v-80z" />
    <glyph glyph-name="uniE012" unicode="&#xe012;" horiz-adv-x="2217" 
d="M2152 430q-34 -396 -414 -430v168q216 22 229 262q0 235 -230 254q-224 -19 -225 -254v-174h-185v174q0 237 -221 254q-215 -17 -216 -254v-174h-183v174q-1 239 -230 254q-209 -26 -227 -328q0 -470 641 -502q868 -35 868 -528h-174q12 311 -694 352q-826 74 -826 678
q24 477 412 500q229 -8 328 -171q86 153 301 171q221 -10 321 -171q86 161 310 171q391 -20 415 -426z" />
    <glyph glyph-name="uniE013" unicode="&#xe013;" horiz-adv-x="956" 
d="M887 427q4 -168 -122 -327l-138 68q79 119 81 262q-2 256 -231 254q-227 0 -227 -254q0 -464 281.5 -634.5t285.5 -513.5h-174q2 255 -288 453t-290 621v75q0 426 412 426q414 0 410 -430z" />
    <glyph glyph-name="uniE014" unicode="&#xe014;" horiz-adv-x="2217" 
d="M220 -297q68 68 183 98l-1 11q-337 167 -337 544q24 477 412 500q229 -8 328 -171q86 153 301 171q221 -10 321 -171q86 161 310 171q391 -20 415 -426q-34 -396 -414 -430v168q216 22 229 262q0 235 -230 254q-224 -19 -225 -254v-174h-185v174q0 237 -221 254
q-215 -17 -216 -254v-174h-183v174q-1 239 -230 254q-209 -26 -227 -328q0 -470 641 -502q868 -35 868 -528h-174q-1 322 -763 371q-348 36 -495 -127z" />
    <glyph glyph-name="uniE015" unicode="&#xe015;" horiz-adv-x="971" 
d="M891 430q-26 -402 -415 -430q-382 28 -411 430q16 410 413 427q147 0 228 -86v342q0 252 -228 252q-208 0 -208 -152q6 -89 77 -135l-97 -121q-149 65 -165 256q27 302 393 323q387 -23 413 -423v-683zM706 430q-9 245 -228 254q-213 -14 -232 -253q29 -243 232 -263
q208 17 228 262z" />
    <glyph glyph-name="uniE016" unicode="&#xe016;" horiz-adv-x="971" 
d="M906 430q-27 -400 -415 -430q-389 22 -411 430v694q20 396 411 412h408v-170h-408q-218 -9 -227 -244v-372q87 106 227 106q393 -15 415 -426zM723 430q-17 239 -238 254q-205 -19 -221 -254q19 -242 227 -262q210 20 232 262z" />
    <glyph glyph-name="uniE017" unicode="&#xe017;" horiz-adv-x="1598" 
d="M1533 430q-31 -396 -445 -430v168q239 22 259 262q-15 240 -228 254q-228 -26 -228 -254v-125h-184v125q-1 225 -229 254q-215 -14 -228 -254q28 -229 258 -262v-168q-414 42 -443 430q29 401 413 426q228 0 321 -172q92 172 320 173q388 -21 414 -427z" />
    <glyph glyph-name="uniE018" unicode="&#xe018;" horiz-adv-x="955" 
d="M335 859q0 -192 -41 -298t-44 -261q3 -132 155 -132q106 0 205 51t280 51v-170q-181 0 -280 -50t-205 -50q-337 0 -340 300q3 155 39.5 261t40.5 298h190z" />
    <glyph glyph-name="uniE019" unicode="&#xe019;" horiz-adv-x="956" 
d="M891 430q-26 -403 -414 -430q-383 30 -412 410v103h185v-101q18 -229 227 -244q212 16 229 262q-20 189 -231 205h-101v174h119q213 20 215 221q-2 167 -322.5 225t-320.5 281h179q6 -111 326.5 -175.5t320.5 -333.5q0 -191 -207 -302q188 -56 207 -295z" />
    <glyph glyph-name="uniE01A" unicode="&#xe01a;" horiz-adv-x="1161" 
d="M1081 -313q-19 -376 -428 -406q-380 20 -409 408l30 229h178l-30 -229q19 -234 227 -244q225 15 250 244v995h-246q63 -102 66 -272q-13 -317 -328 -344q-301 15 -326 333v170l181 -40v-130q4 -159 143 -172q150 1 151 183q11 185 -131 336v108h672v-1169z" />
    <glyph glyph-name="uniE01B" unicode="&#xe01b;" horiz-adv-x="1603" 
d="M1538 430q-20 -399 -444 -430v168q258 22 258 262q-15 234 -228 254q-227 -24 -229 -254v-126h-183v126q-2 230 -229 254q-210 -15 -228 -254q0 -237 258 -262v-168q-425 30 -443 430q1 255 164 471.5t464 364t437 310.5l132 -112q-166 -204 -478.5 -348t-418.5 -292
l116 33q225 -2 316 -173q94 171 322 173q384 -28 414 -427z" />
    <glyph glyph-name="uniE01C" unicode="&#xe01c;" horiz-adv-x="956" 
d="M891 425q0 -257 -126 -425h-200q141 168 143 425q-2 259 -243 259q-215 0 -215 -254q0 -262 55 -430h-165q-75 168 -75 430v285q0 312 320.5 494t320.5 327h185q0 -236 -320.5 -386t-320.5 -392q115 99 223 99q418 0 418 -432z" />
    <glyph glyph-name="uniE01D" unicode="&#xe01d;" horiz-adv-x="1603" 
d="M1538 430q-19 -398 -444 -430v168q258 23 258 262q-15 235 -228 254q-228 -24 -229 -254v-126h-183v126q-1 230 -229 254q-210 -15 -228 -254q0 -237 258 -262v-168q-425 30 -443 430q18 272 187 358q-187 104 -187 273q0 304 408 344h528q216 6 215 132h176
q-21 -281 -409 -298h-510q-223 -12 -223 -178q0 -152 228 -204q228 -1 319 -173q94 172 322 173q384 -29 414 -427z" />
    <glyph glyph-name="uniE01E" unicode="&#xe01e;" horiz-adv-x="968" 
d="M903 430q-29 -406 -408 -430q-393 20 -415 430v1106h182v-1106q26 -247 233 -262q206 18 223 262q0 133 -100 240t40 282l160 -60q-120 -103 -17.5 -218t102.5 -244z" />
    <glyph glyph-name="uniE01F" unicode="&#xe01f;" horiz-adv-x="1306" 
d="M236 57q4 -531 420 -612q420 81 420 612q0 474 -332 588v-480h-174v484q-330 -137 -334 -592zM50 57q28 683 520 754v355h174v-357q493 -69 512 -756q0 -716 -596 -774q-600 58 -610 778z" />
    <glyph glyph-name="uniE020" unicode="&#xe020;" horiz-adv-x="1274" 
d="M554 814q1 -150 113 -166q116 17 117 166q-1 152 -117 152q-112 -2 -113 -152zM1207 -11q-7 -664 -559 -704q-561 50 -598 795q15 312 119 541l114 -20q-47 -217 -38 -514q1 -602 403 -648q377 38 385 553q-55 483 -366 505q-112 -15 -112 -197q0 -136 113 -169v-144
q-268 30 -269 314q-2 186 155 282q-160 65 -175 231q1 286 289 297q290 -13 291 -297q-19 -166 -176 -231q404 -93 424 -594z" />
    <glyph glyph-name="uniE021" unicode="&#xe021;" horiz-adv-x="1441" 
d="M610 727q14 -176 164 -199q161 23 171 199q-13 150 -168 168q-153 -13 -167 -168zM1376 -108q-29 -592 -599 -610q-672 46 -712 718v686h185v-686q38 -520 524 -553q412 44 424 445q-33 434 -418 483q-153 -70 -176 -275q23 -172 199 -190v-183q-352 61 -378 373
q11 205 164 363q-140 65 -157 264q11 325 345 334q322 -10 345 -334q-23 -199 -163 -257q388 -59 417 -578z" />
    <glyph glyph-name="uniE022" unicode="&#xe022;" horiz-adv-x="1306" 
d="M236 57q4 -531 420 -612q420 81 420 612q0 474 -332 588v-480h-174v484q-330 -137 -334 -592zM50 57q28 683 520 754v355h174v-357q493 -69 512 -756q0 -716 -596 -774q-600 58 -610 778z" />
    <glyph glyph-name="uniE023" unicode="&#xe023;" horiz-adv-x="995" 
d="M395 1016h158v-257q373 -24 407 -621l-1 -251q-33 -611 -451 -608q-443 1 -473 601v204q10 387 94 559l141 -42q-43 -155 -53 -517l2 -197q25 -442 285 -442q245 0 270 442v247q-23 412 -221 461v-299h-158v720z" />
    <glyph glyph-name="uniE024" unicode="&#xe024;" horiz-adv-x="1033" 
d="M953 -311q-32 -373 -407 -408q-380 22 -408 408l30 227h174l-30 -227q13 -227 233 -242q216 22 232 242v762q-5 213 -149 233q-149 0 -164 -233v-152h-170v152q4 233 -219 233h-50v172h47q249 0 304 -172q81 172 252 172q316 -30 325 -405v-762z" />
    <glyph glyph-name="uniE025" unicode="&#xe025;" horiz-adv-x="1251" 
d="M1181 -311q-32 -373 -407 -408q-380 22 -408 408l30 227h174l-30 -227q13 -227 233 -242q216 22 232 242v762q-5 233 -134 233q-139 0 -139 -233v-222h-162v222q0 242 -105 242q-61 1 -117 -63t-135 -61q-192 27 -198 228v33h160v-33q1 -71 48 -73q67 1 109 67t143 66
q127 0 169 -173q61 172 222 173q311 0 315 -406v-762z" />
    <glyph glyph-name="uniE026" unicode="&#xe026;" horiz-adv-x="1592" 
d="M1512 -311q-32 -373 -407 -408q-380 22 -408 408l30 227h174l-30 -227q13 -227 233 -242q216 22 232 242v762q-5 213 -159 233q-149 0 -164 -233v-222h-170v222q4 233 -142 233q-121 0 -166.5 -159t-222.5 -159q-287 0 -287 318v103h170v-103q4 -148 115 -148
q90 0 129 160t243 160q188 0 243 -172q81 172 252 172q326 -30 335 -405v-762z" />
    <glyph glyph-name="uniE027" unicode="&#xe027;" horiz-adv-x="1033" 
d="M953 -311q-32 -373 -407 -408q-380 22 -408 408l30 227h174l-30 -227q13 -227 233 -242q216 22 232 242v762q-5 213 -149 233q-149 0 -164 -233v-152h-170v152q4 233 -219 233h-50v172h47q249 0 304 -172q81 172 252 172q316 -30 325 -405v-762z" />
    <glyph glyph-name="uniE028" unicode="&#xe028;" horiz-adv-x="1603" 
d="M1533 -312q-28 -379 -414 -406q-392 27 -412 407l30 154h184l-30 -154q15 -224 228 -242q213 18 228 241v400q-72 -88 -223 -88h-2q-231 10 -321 228q-95 -218 -323 -228q-413 0 -413 430q8 307 100 468l173 -70q-92 -151 -90 -398q2 -262 230 -262q228 60 228 262v427
h185v-427q0 -202 231 -262q225 0 225 262v427h186v-1169z" />
    <glyph glyph-name="uniE029" unicode="&#xe029;" horiz-adv-x="1603" 
d="M1533 -311q-30 -376 -414 -407q-387 27 -412 407l30 158h183l-30 -158q19 -227 229 -242q213 15 228 242v80q-26 207 -170 231h-92v168h92q150 25 170 262q0 210 -228 254q-228 -24 -228 -254q-19 -400 -413 -430q-381 30 -413 430q35 396 413 426q228 0 318 -172
q95 172 323 172q389 -23 414 -426q-20 -242 -217 -344q177 -71 217 -314v-83zM706 430q0 232 -228 254q-205 -27 -228 -254q25 -237 228 -262q215 25 228 262z" />
    <glyph glyph-name="uniE02A" unicode="&#xe02a;" horiz-adv-x="971" 
d="M891 -312q-36 -378 -415 -406q-384 28 -411 406l30 228h185l-30 -228q15 -226 226 -241q213 15 231 241v671q-23 311 -229 325q-175 -12 -189 -200q9 -128 106 -169v-169q-273 40 -289 338q21 343 372 373q149 -11 229 -97v776h184v-1848z" />
    <glyph glyph-name="uniE02B" unicode="&#xe02b;" horiz-adv-x="1598" 
d="M1020 -673q-1 321 -314 351q-641 152 -641 682q32 466 408 496q233 0 328 -172q90 172 309 172q399 -20 423 -426q-18 -376 -414 -430v168q213 0 228 262q0 223 -235 254q-221 -31 -221 -254v-127h-185v127q0 217 -233 254q-223 -44 -227 -324q4 -352 460 -516
q489 -44 491 -517h-177z" />
    <glyph glyph-name="uniE02C" unicode="&#xe02c;" horiz-adv-x="1598" 
d="M216 -269q45 54 138 88l1 8q-290 181 -290 533q32 466 408 496q233 0 328 -172q90 172 309 172q399 -20 423 -426q-18 -376 -414 -430v168q213 0 228 262q0 223 -235 254q-221 -31 -221 -254v-127h-185v127q0 217 -233 254q-223 -44 -227 -324q28 -399 437 -507
q512 -53 514 -526h-177q25 297 -340 374q-168 24 -231 5t-134 -107z" />
    <glyph glyph-name="uniE02D" unicode="&#xe02d;" horiz-adv-x="971" 
d="M891 -313q-29 -381 -416 -406q-380 25 -410 408l30 155h183l-30 -155q0 -204 227 -244q231 27 232 244v440q-58 -112 -230 -129h-2q-360 30 -410 430q4 300 190 458l160 -70q-169 -103 -169 -388q24 -244 229 -262q194 28 232 262v426h184v-1169z" />
    <glyph glyph-name="uniE02E" unicode="&#xe02e;" horiz-adv-x="982" 
d="M726 430q-9 230 -236 254q-206 -24 -231 -254q28 -237 231 -262q214 12 236 262zM902 430q-29 -400 -412 -430q-379 41 -412 430q30 393 412 426q187 -13 227 -108v376q0 216 -149 242q-136 -15 -138 -192v-116h-174v116q1 170 -176 192h-55v170h66q188 0 263 -170
q52 170 232 170q316 -40 316 -412v-694z" />
    <glyph glyph-name="uniE02F" unicode="&#xe02f;" horiz-adv-x="982" 
d="M726 430q-9 230 -236 254q-206 -24 -231 -254q28 -237 231 -262q214 12 236 262zM902 430q-29 -400 -412 -430q-379 41 -412 430q30 393 412 426q187 -13 227 -108v376q0 216 -144 242q-131 -15 -133 -192v-116h-174v116q1 170 -186 192h-55v170h66q198 0 273 -170
q52 170 227 170q311 -40 311 -412v-694z" />
    <glyph glyph-name="uniE030" unicode="&#xe030;" horiz-adv-x="1339" 
d="M1088 431q-14 236 -228 253q-219 -19 -230 -253q18 -247 230 -263q205 18 228 263zM1274 430q-29 -404 -414 -430q-382 28 -411 431q29 402 408 426h3q134 0 228 -64v332q-9 240 -169 242q-160 -2 -160 -253v-90h-183v90q-2 251 -160 253q-154 -15 -168 -166
q1 -128 126 -177v-177h-6q-277 40 -303 354q19 299 349 333q160 2 252 -148q93 150 254 148q343 2 354 -404v-700z" />
    <glyph glyph-name="uniE031" unicode="&#xe031;" horiz-adv-x="969" 
d="M904 430q-3 -382 -333 -462v188q158 52 148 274q0 186 -221 199q-235 -26 -235 -217v-412h-183v1124q16 402 363 412q317 -20 336 -304q-36 -335 -516 -355v-182q25 73 235 102q385 -18 406 -367zM599 1232q-1 118 -156 134q-180 -9 -180 -185v-146q321 1 336 197z" />
    <glyph glyph-name="uniE032" unicode="&#xe032;" horiz-adv-x="1058" 
d="M993 420q-13 -252 -240 -334q227 -86 240 -317q-54 -473 -495 -488q-394 32 -433 551v315q0 26 10 265.5t60 445.5h188q-54 -174 -74 -649v-377q27 -363 247 -387q288 2 321 322q17 182 -201 233h-111v174h104q215 39 210 242q-2 112 -127.5 183t-111.5 257h180
q-9 -141 108.5 -209t124.5 -227z" />
    <glyph glyph-name="uniE033" unicode="&#xe033;" horiz-adv-x="1058" 
d="M1023 420q-13 -252 -240 -334q227 -86 240 -317q-14 -473 -465 -488q-474 32 -513 551v315q0 26 10 265.5t70 445.5h188q-64 -174 -84 -649v-377q27 -363 327 -387q282 18 291 322q17 182 -201 233h-111v174h104q215 39 210 242q-2 112 -127.5 183t-111.5 257h180
q-9 -141 108.5 -209t124.5 -227z" />
    <glyph glyph-name="uniE034" unicode="&#xe034;" horiz-adv-x="958" 
d="M893 420q-13 -252 -150 -334q137 -86 150 -317q-22 -488 -395 -488q-373 -1 -433 551v315q12 566 60 711h188q-49 -148 -64 -649v-377q41 -380 247 -387q205 0 221 322q17 182 -121 233h-91v174h84q135 39 130 242q-2 112 -82.5 183t-66.5 257h180q-9 -141 63.5 -209
t79.5 -227z" />
    <glyph glyph-name="uniE035" unicode="&#xe035;" horiz-adv-x="972" 
d="M892 430q-40 -396 -415 -430q-383 24 -412 424q29 394 410 432q164 1 232 -96v777h185v-1107zM707 430q0 233 -236 254q-201 -27 -225 -260q20 -231 231 -256q204 25 230 262z" />
    <glyph glyph-name="uniE036" unicode="&#xe036;" horiz-adv-x="982" 
d="M256 430q22 -250 236 -262q203 25 231 262q-25 230 -231 254q-227 -24 -236 -254zM80 1124q0 372 316 412q180 0 232 -170q75 170 263 170h66v-170h-55q-177 -22 -176 -192v-116h-174v116q-2 177 -138 192q-149 -26 -149 -242v-376q40 95 227 108q382 -33 412 -426
q-33 -389 -412 -430q-383 30 -412 430v694z" />
    <glyph glyph-name="uniE037" unicode="&#xe037;" horiz-adv-x="954" 
d="M699 512q-19 172 -183 172q-212 20 -229 -172q17 -218 54 -430t37 -429h30q70 300 179 483.5t112 375.5zM929 1366h-54q-128 -26 -135 -172v-133h-181v133q-17 171 -171 171q-115 0 -130 -241l10 -270l10 -91q66 95 251 95q306 -21 342 -346q-20 -263 -152.5 -465.5
t-312.5 -722.5h-155l10 199q-17 240 -67 472.5t-78 516.5q-41 315 -38 612q25 396 313 410q200 2 254 -168q78 170 230 168h54v-168z" />
    <glyph glyph-name="uniE038" unicode="&#xe038;" horiz-adv-x="1338" 
d="M736 391q-13 243 -258 253q-228 -16 -230 -173q2 -243 83.5 -483.5t122.5 -459.5q102 255 188 433.5t94 425.5v4zM964 1024q116 16 132 155q-7 186 -171 188q-171 -2 -169 -242v-101h-180v101q-11 240 -161 240q-165 0 -165 -240v-385q95 75 228 77q397 -17 430 -426
q-17 -324 -143 -556t-256 -553h-170q-2 273 -138 586t-136 684v573q0 411 354 409q159 2 243 -135q92 137 263 135q340 2 348 -355q-18 -295 -309 -332v177z" />
    <glyph glyph-name="uniE039" unicode="&#xe039;" horiz-adv-x="1339" 
d="M250 431q23 -245 228 -263q212 16 230 263q-11 234 -230 253q-214 -17 -228 -253zM64 1130q11 406 354 404q161 2 254 -148q92 150 252 148q330 -34 349 -333q-26 -314 -303 -354h-6v177q125 49 126 177q-14 151 -168 166q-158 -2 -160 -253v-90h-183v90q0 251 -160 253
q-160 -2 -169 -242v-332q94 64 228 64h3q379 -24 408 -426q-29 -403 -411 -431q-385 26 -414 430v700z" />
    <glyph glyph-name="uniE03A" unicode="&#xe03a;" horiz-adv-x="955" 
d="M887 -311q-25 -373 -409 -407q-381 21 -413 407l30 155h184l-30 -157q27 -225 229 -240q208 15 230 242q-2 167 -116 283t-135 314l-86 -18q-277 26 -304 307q27 271 316 309l74 -8v660h167v-745q79 -47 84 -134h182v-158h-186q-1 -85 -82 -139v-76q25 -169 146.5 -293.5
t118.5 -301.5zM237 577q13 -160 162 -160q157 6 170 160q-13 140 -162 151q-157 -14 -170 -151z" />
    <glyph glyph-name="uniE03B" unicode="&#xe03b;" horiz-adv-x="972" 
d="M907 430q-26 -406 -417 -430q-388 20 -410 430v1106h182v-798q104 118 228 119q391 -24 417 -427zM718 430q-20 227 -228 254q-228 -34 -228 -254q16 -244 228 -262q211 18 228 262z" />
    <glyph glyph-name="uniE03C" unicode="&#xe03c;" horiz-adv-x="956" 
d="M891 -311q-46 -390 -418 -408q-383 25 -408 408l30 155h183l-30 -155q22 -227 225 -244q213 24 233 243q0 240 -144.5 374t-174.5 397v128l-322 118v179l322 -128v369h174v-443l316 -146v-176l-316 153v-56q0 -168 150 -329.5t180 -438.5z" />
    <glyph glyph-name="uniE03D" unicode="&#xe03d;" horiz-adv-x="1236" 
d="M164 427l-109 107q159 279 468 81l114 -95l96 110q154 148 11 230l123 121q261 -192 -22 -475l-76 -91l121 -98q148 -160 233 22l126 -116q-189 -263 -455 -28l-128 104l-167 -209q270 -75 296 -368q-11 -442 -536 -442v168q340 -2 350 274q-54 238 -288 187l-102 131
l312 356l-106 88q-148 131 -261 -57z" />
    <glyph glyph-name="uniE03E" unicode="&#xe03e;" horiz-adv-x="956" 
d="M891 -311q-46 -390 -418 -408q-383 25 -408 408l30 155h183l-30 -155q22 -227 225 -244q213 24 233 243q0 240 -144.5 374t-174.5 397v128l-322 118v179l322 -128v369h174v-443l316 -146v-176l-316 153v-56q0 -168 150 -329.5t180 -438.5z" />
    <glyph glyph-name="uniE03F" unicode="&#xe03f;" horiz-adv-x="1236" 
d="M164 427l-109 107q159 279 468 81l114 -95l96 110q154 148 11 230l123 121q261 -192 -22 -475l-76 -91l121 -98q148 -160 233 22l126 -116q-189 -263 -455 -28l-128 104l-167 -209q270 -75 296 -368q-11 -442 -536 -442v168q340 -2 350 274q-54 238 -288 187l-102 131
l312 356l-106 88q-148 131 -261 -57z" />
    <glyph glyph-name="uniE040" unicode="&#xe040;" horiz-adv-x="961" 
d="M891 356q-32 -332 -410 -356q-391 27 -416 412v100h181v-100q17 -229 231 -244q209 25 231 180q-2 129 -108 164h-158v168h158q106 19 106 110q0 92 -106 105h-158v170h166q98 13 98 120q0 84 -230 118t-230 233h185q0 -94 230 -119.5t230 -233.5q0 -139 -101 -196
q101 -63 101 -198q0 -126 -107 -193q107 -105 107 -240z" />
    <glyph glyph-name="uniE041" unicode="&#xe041;" horiz-adv-x="1062" 
d="M979 -352q-30 -342 -484 -367q-367 32 -425 407q3 480 53 824.5t-50 600.5h185q93 -256 46.5 -600.5t-46.5 -824.5q72 -257 237 -241q254 0 305 201q-2 217 -104 229h-124v178h124q92 20 102 147q-7 122 -98 140h-128v176h126q90 12 100 157q-7 115 -102 130h-124v180
h124q102 8 102 171q-10 113 -153.5 161t-145.5 219h174q1 -77 149.5 -133t156.5 -247q-8 -213 -135 -257q99 -42 117 -87.5t18 -136.5q-8 -205 -145 -247q137 -46 145 -226q-5 -178 -137 -223q150 -81 137 -331z" />
    <glyph glyph-name="uniE042" unicode="&#xe042;" horiz-adv-x="956" 
d="M65 -100q185 2 238 99q-238 169 -238 456q25 378 413 402q398 -21 413 -402q0 -287 -244 -458q59 -97 244 -97v-205q-263 49 -413 241q-153 -192 -413 -241v205zM250 455q0 -287 228 -367q228 80 228 367q0 229 -228 229t-228 -229z" />
    <glyph glyph-name="uniE043" unicode="&#xe043;" horiz-adv-x="961" 
d="M891 -311q-16 -379 -418 -408q-408 49 -408 408l30 230h183l-30 -230q2 -242 230 -242t228 242v155q-40 261 -273 283h-112v178h112q263 95 241 379h-390v-173h-179v347h786q-10 -472 -270 -633q230 -120 270 -381v-155z" />
    <glyph glyph-name="uniE044" unicode="&#xe044;" horiz-adv-x="961" 
d="M891 -311q0 -380 -413 -407q-413 27 -413 407l30 227h183l-30 -227q2 -242 230 -242t228 242v155q0 190 -233 283h-152v178h152q233 105 231 371q-109 -43 -223 -29q-416 37 -416 402q22 316 416 407v-176q-231 -58 -237 -231q6 -192 234 -240q194 -3 413 166v-260
q0 -339 -260 -496q260 -141 260 -375v-155z" />
    <glyph glyph-name="uniE045" unicode="&#xe045;" horiz-adv-x="1074" 
d="M891 512v-178q1 -334 -414 -336q-412 2 -412 336q0 350 406 354h236v160h-236q-406 9 -406 360q0 328 413 328t414 -328v-184h117v-176h-117v-160h117v-176h-118zM250 1205q0 -181 221 -181h236v184q-1 157 -229 157t-228 -160zM706 512h-235q-221 0 -221 -174
q0 -170 228 -170q229 0 228 180v164z" />
    <glyph glyph-name="uniE046" unicode="&#xe046;" horiz-adv-x="1598" 
d="M1533 430q-22 -404 -414 -430q-154 20 -228 119v-430q0 -407 -413 -407v165q228 0 228 240v743q0 254 -228 254q-208 -27 -228 -254q20 -242 247 -252v-178q-412 20 -432 430q20 406 413 427q228 0 316 -173q97 173 325 173q392 -19 414 -427zM1347 430q-20 234 -233 258
q-203 -31 -223 -258q8 -206 228 -262q208 20 228 262z" />
    <glyph glyph-name="uniE047" unicode="&#xe047;" horiz-adv-x="1083" 
d="M1033 -240q-33 -427 -491 -479q-456 39 -492 479q2 345 325.5 458.5t323.5 326.5q-14 169 -155 169q-147 0 -182 -129l10 -43l-166 -30l-10 63q39 311 348 311q303 -33 336 -341q-9 -305 -324 -415t-326 -363q28 -288 314 -320q303 38 321 313q9 101 -59 169l151 89
q73 -106 76 -258z" />
    <glyph glyph-name="uniE048" unicode="&#xe048;" horiz-adv-x="963" 
d="M70 856h180v-500q21 -166 236 -188q219 18 231 262q-22 243 -111 406l170 60q96 -214 122 -466q-24 -403 -412 -430h-2q-148 0 -234 86v-397q38 -227 236 -244q215 20 231 244l-30 155h181l30 -155q-44 -369 -412 -408q-391 28 -416 406v1169z" />
    <glyph glyph-name="uniE049" unicode="&#xe049;" horiz-adv-x="1083" 
d="M228 427q27 -353 316 -393q286 51 307 393q-34 300 -307 317q-282 -17 -316 -317zM50 427q51 456 494 490q445 -41 489 -490q-27 -427 -334 -547t-307 -277q19 -138 158 -150q148 -6 192 109v73h177v-73q-28 -263 -369 -281q-322 42 -340 311q4 229 238 320
q-396 88 -398 515z" />
    <glyph glyph-name="uniE04A" unicode="&#xe04a;" horiz-adv-x="953" 
d="M645 -163q2 2 -52 56t-158 69q-149 -10 -196 -117l-128 76l32.5 49t147.5 76q-222 140 -222 376q0 166 109.5 300.5t308.5 134.5q161 0 280 -98.5t124 -312.5q0 -100 -49 -141l-145 57q11 31 11 87q0 113 -57 174t-164 61q-98 0 -162.5 -66.5t-64.5 -192.5
q11 -233 194 -311q205 -80 300 -185z" />
    <glyph glyph-name="ring" horiz-adv-x="682" 
d="M162 1338q0 73 53.5 126t126.5 53q74 0 127 -53.5t53 -129.5q0 -77 -53 -130t-126 -53q-75 0 -128 53.5t-53 133.5zM238 1337q0 -47 31.5 -79t74.5 -32t74.5 32t31.5 77t-31 77t-75 32q-43 0 -74.5 -31.5t-31.5 -75.5z" />
    </font>
</defs>
</svg>
