<?xml version="1.0" standalone="no"?>
<!DOCTYPE svg PUBLIC "-//W3C//DTD SVG 1.1//EN" "http://www.w3.org/Graphics/SVG/1.1/DTD/svg11.dtd" >
<svg xmlns="http://www.w3.org/2000/svg" xmlns:xlink="http://www.w3.org/1999/xlink" version="1.1">
<metadata>
Created by FontForge 20201107 at Mon May 14 05:45:02 2007
 By 
Copyright (c) BPG-InfoTech, 2006. All rights reserved.
</metadata>
<defs>
<font id="BPGAlgeti" horiz-adv-x="484" >
  <font-face 
    font-family="BPG Algeti"
    font-weight="400"
    font-stretch="normal"
    units-per-em="1000"
    panose-1="2 0 5 3 0 0 0 2 0 4"
    ascent="800"
    descent="-200"
    x-height="515"
    cap-height="716"
    bbox="-533 -332 1676 1012"
    underline-thickness="73"
    underline-position="-142"
    unicode-range="U+0020-FFFC"
  />
<missing-glyph horiz-adv-x="750" 
d="M125 0h500v625h-500v-625zM141 16v593h468v-593h-468z" />
    <glyph glyph-name="uniFDF2" unicode="&#xfdf2;" horiz-adv-x="534" arabic-form="isolated" 
d="M401 649l-2 1zM308 713h2l-2 4v-4zM363 520l-2 8q-1 0 -1 -1t-1 -2q-2 -2 -3 -4q1 0 3.5 -0.5t3.5 -0.5zM308 713h-1v7q0 3 -14 33q-6 14 -20 14q-7 0 -11 -10q4 -5 9.5 -11t9 -10t4.5 -6q8 -8 14 -20q3 -7 5 -22v-1q2 1 3.5 2t2.5 2l2 1l-4 -18q17 -8 24 -11
q-8 21 -24 50zM380 649q0 -14 -1 -22q-11 -23 -21 -23q-20 0 -27 15v10h16l-36 25q1 -2 1.5 -4.5t0.5 -4.5q3 -15 7 -25q-1 -2 -1 -3q-5 -12 -9 -20q-12 -25 -21 -25q-20 0 -26 16v6q1 2 1 7q1 1 1 4l13 1q-3 2 -6.5 6t-6.5 6l-16 16q0 -38 4 -49v-6q0 -43 28 -43
q10 0 24 14l1 1v1q9 13 15 28q23 -13 37 -13t22 22q6 17 11 37q4 10 6 25l2 -1l5 3q1 0 4 1q-9 7 -29 21v-16q1 -3 1 -10zM188 308l11 -69q-25 -36 -54 -36q-33 0 -60 13q17 34 42 57q8 7 61 35zM510 229q0 35 -11 94q-11 76 -21 123q-2 12 -4.5 24t-2.5 13q-3 13 -4 28
q-6 -10 -13 -20v-2q-9 -19 -9 -34t2 -27q0 -4 1 -5v-3q2 -6 2 -11t1 -8q4 -24 11 -59q10 -54 14 -79q-9 -49 -34 -49q-28 0 -46 26q-13 15 -21 58l-9 47q0 1 -7 38q-1 2 -1 5t-1 5q-2 10 -4 33q-4 10 -6 31q-1 1 -1 5q0 1 -1.5 3.5t-1.5 4.5q-1 4 -1 12q0 7 -1 15
q7 14 15 24q-4 1 -10.5 3.5t-11.5 4t-11 3.5q4 -16 6 -21q0 -3 1 -6l-1 1q2 -6 2 -7l-4 -5v-1q0 -3 -2 -5q-9 -20 -9 -33q0 -15 4 -27q0 -6 3 -27q3 -12 5.5 -26.5t5 -32.5t4.5 -28q2 -8 5 -25.5t4 -25.5q-15 -32 -30 -43q-10 -7 -30 -7q-52 0 -62 57q-11 67 -17 116
q-6 23 -7 39q0 5 -1 7v6q-5 0 -9 1l-1 -1q0 -2 -1 -2v1q-2 -6 -2 -7l-2 -2q-9 -22 -9 -33q0 -5 8 -45q-69 -41 -119 -94q-44 -52 -44 -89q0 -20 97 -20q21 0 41 19q15 11 43 53q17 -41 36 -54q21 -18 50 -18q24 0 43 11v-1q19 13 40 54q32 -41 49 -48q27 -16 76 -16v3l1 3
q9 22 12 44q1 9 1 32z" />
    <glyph glyph-name=".notdef" horiz-adv-x="750" 
d="M125 0h500v625h-500v-625zM141 16v593h468v-593h-468z" />
    <glyph glyph-name=".null" horiz-adv-x="0" 
 />
    <glyph glyph-name="nonmarkingreturn" horiz-adv-x="278" 
 />
    <glyph glyph-name="uni00A0" unicode=" " horiz-adv-x="229" 
 />
    <glyph glyph-name="uni00A0" unicode="&#xa0;" horiz-adv-x="229" 
 />
    <glyph glyph-name="exclam" unicode="!" horiz-adv-x="255" 
d="M91 0h76v88h-76v-88zM110 182h39q6 124 10 188q2 35 5.5 99.5t4.5 92.5v154h-81v-154q1 -30 5 -83q9 -144 13 -229q0 -7 1 -11q0 -7 1 -18.5t1.5 -21t0.5 -17.5z" />
    <glyph glyph-name="quotedbl" unicode="&#x22;" horiz-adv-x="318" 
d="M209 473h36q4 18 5 35q1 3 4 34q2 9 4 23q5 35 6 41v110h-74v-110q2 -19 8 -53q0 -2 1 -8t1 -9q6 -39 9 -63zM74 473h36q2 11 4 33q1 6 2.5 19t2.5 20v-1q2 18 4 27q1 9 4 34v111h-73v-111q0 -6 2 -16l1 -3q11 -86 17 -113z" />
    <glyph glyph-name="numbersign" unicode="#" 
d="M154 259l32 197h141q-3 -19 -9 -54.5t-8 -46.5q-9 -46 -17 -96h-139zM57 -12h51q3 16 33 200l1 2q2 7 4 10h138l-34 -212h49q6 32 23 135l9 48q1 4 2.5 14.5t2.5 14.5h125v59h-117q8 44 12 67q3 19 10.5 62.5t11.5 67.5h83v59h-74l37 214h-50q-18 -92 -26 -144v1
q-1 -6 -2.5 -18t-2.5 -18q-3 -15 -5 -35h-142l35 214h-48q-13 -73 -16 -92q-2 -11 -5.5 -32t-4.5 -29q-10 -39 -12 -61h-123v-59h114q-1 -9 -4 -27t-4 -22q-5 -28 -15 -81t-12 -67h-79v-59h70z" />
    <glyph glyph-name="dollar" unicode="$" 
d="M223 683v-268q-56 23 -80 55.5t-24 81.5t27 85q25 33 77 46zM257 43v293q71 -31 87 -59q23 -34 23 -82q0 -57 -30 -102q-28 -38 -80 -50zM223 -105h34v90q78 9 129 65q47 65 47 150q0 128 -97 177q-13 10 -61 26q-8 2 -18 6v272q77 -26 94 -118q2 0 7 1t9 1.5t8 1.5l15 3
q9 3 26 5q-14 82 -55 121q-33 34 -104 45v42h-34v-42q-77 -12 -114 -49q-53 -53 -53 -147q0 -105 71 -157h-1q49 -29 97 -42v-303q-51 11 -86 59q-21 41 -29 101q-20 -5 -25 -6q-20 -3 -40 -9q6 -64 29 -107q21 -45 57 -68q28 -18 94 -29v-89z" />
    <glyph glyph-name="percent" unicode="%" horiz-adv-x="758" 
d="M182 683q30 0 50 -32q20 -27 20 -105q0 -80 -20 -111v1q-18 -32 -50 -32q-29 0 -50 30q-20 35 -20 106q0 76 20 111q20 32 50 32zM574 298q29 0 50 -31q20 -33 20 -104q0 -75 -21 -112q-21 -31 -49 -31q-29 0 -53 33q-18 33 -18 102q0 79 19 112q23 31 52 31zM192 -26h50
l249 582l74 173h-49l-204 -477zM59 548q0 -94 35 -143q36 -47 88 -47q50 0 89 47q36 55 36 138q0 87 -35 139v-1q-43 48 -91 48q-58 0 -91 -53h1q-32 -57 -32 -128zM448 165q0 -91 34 -145v1q41 -47 89 -47q52 0 91 47q34 49 34 138q0 94 -34 138q-38 47 -91 47
q-60 0 -91 -52q-32 -58 -32 -127z" />
    <glyph glyph-name="ampersand" unicode="&#x26;" horiz-adv-x="577" 
d="M255 451l-35 49q-31 48 -31 83q0 32 21 62q24 25 55 25q28 0 52 -25q21 -27 21 -66q0 -35 -14 -63q-17 -27 -69 -65zM227 362l140 -213q-28 -49 -62 -73q-37 -24 -70 -24q-56 0 -87 50t-31 97q0 35 22 79q28 41 88 84zM401 82h12q36 -56 86 -98q2 3 25 36l18 24
q-46 45 -94 115q35 68 54 151q-3 1 -11.5 3t-11.5 3t-7 3q-3 1 -10 2.5l-14 3t-12 2.5q-17 -66 -32 -104q-12 17 -27 40l-92 141q119 80 119 177q0 57 -39 104q-42 44 -97 44q-61 0 -104 -48q-41 -44 -41 -108q0 -30 13 -64q17 -37 61 -99q-149 -89 -149 -216q0 -69 42 -133
q54 -73 144 -73q96 0 167 94z" />
    <glyph glyph-name="quotesingle" unicode="'" horiz-adv-x="184" 
d="M71 473h38q3 20 8 65l5 30q1 5 2.5 17.5t2.5 18.5v112h-73v-113q5 -37 8 -68q2 -11 5 -31t4 -31z" />
    <glyph glyph-name="parenleft" unicode="(" horiz-adv-x="301" 
d="M209 -215h41q-119 241 -119 471q0 99 19 190q16 78 40 145q25 67 60 138h-41q-74 -123 -111 -248q-32 -107 -32 -225q0 -122 42 -256q40 -118 101 -215z" />
    <glyph glyph-name="parenright" unicode=")" horiz-adv-x="301" 
d="M70 -215h42q59 95 99 215q43 122 43 256q0 114 -31 225q-37 125 -112 248h-40q41 -87 60 -138q27 -76 39 -146q19 -95 19 -189q0 -228 -119 -471z" />
    <glyph glyph-name="asterisk" unicode="*" horiz-adv-x="347" 
d="M59 651l-16 -56q19 -5 25 -7q5 -1 37.5 -10t44.5 -11q-32 -36 -73 -98q2 -1 4 -3.5t4 -3.5l31 -27l11 22q22 39 43 90q30 -63 55 -105q2 -3 4 -7q2 4 9 8q2 2 7 6t6 6q5 5 9 8q1 1 3 2.5t3 2t2 1.5q-42 59 -76 98q47 6 109 27q-11 34 -15 57q-51 -22 -100 -51q0 17 2 27
q7 75 9 102h-51v-2q2 -46 6 -88q0 -1 0.5 -5.5t0.5 -6.5q0 -8 3 -29q-47 31 -97 53z" />
    <glyph glyph-name="plus" unicode="+" horiz-adv-x="507" 
d="M224 119h60v199h164v70h-164v198h-60v-198h-164v-70h164v-199z" />
    <glyph glyph-name="comma" unicode="," horiz-adv-x="255" 
d="M90 0h42q-3 -88 -44 -118l6 -9q8 -13 9 -17q61 43 61 136v96h-74v-88z" />
    <glyph glyph-name="uni00AD" unicode="-" horiz-adv-x="301" 
d="M42 220h217v74h-217v-74z" />
    <glyph glyph-name="uni00AD" unicode="&#xad;" horiz-adv-x="301" 
d="M42 220h217v74h-217v-74z" />
    <glyph glyph-name="period" unicode="." horiz-adv-x="255" 
d="M91 0h76v88h-76v-88z" />
    <glyph glyph-name="slash" unicode="/" horiz-adv-x="255" 
d="M18 -12h48l74 322l97 419h-47q-4 -20 -14.5 -61.5t-14.5 -62.5l-53 -225l-62 -268q-18 -78 -28 -124z" />
    <glyph glyph-name="zero" unicode="0" 
d="M113 353q0 185 40 252q33 55 85 55q55 0 91 -62q36 -66 36 -245q0 -183 -36 -245q-38 -62 -90 -62q-50 0 -90 62q-36 66 -36 245zM48 353q0 -194 58 -292q53 -73 133 -73q66 0 106 41q43 45 63 118q23 89 23 206q0 105 -13 170q-18 71 -37 106q-48 91 -142 91
q-61 0 -105 -42q-38 -36 -64 -119q-22 -83 -22 -206z" />
    <glyph glyph-name="one" unicode="1" 
d="M317 0v720h-40q-23 -51 -66 -97q-44 -50 -106 -85v-72q23 12 73 44h-1q26 19 77 70v-580h63z" />
    <glyph glyph-name="two" unicode="2" 
d="M427 70h-301q14 29 38 62q30 37 87 94q65 65 113 127q63 86 63 170q0 83 -50 139q-50 58 -133 58q-81 0 -130.5 -51t-60.5 -146q2 0 8.5 -1t9.5 -1q2 0 6 -0.5t5 -0.5q15 -4 37 -6q3 67 35 106q30 40 88 40q52 0 85 -37q33 -40 33 -98q0 -54 -36 -112h1
q-35 -58 -135 -157q-61 -61 -97 -110q-25 -37 -47 -95q-7 -23 -8 -51h389v70z" />
    <glyph glyph-name="three" unicode="3" 
d="M114 188l-64 -9q9 -86 57 -136q49 -56 128 -56q86 0 142 66q55 61 55 155q0 62 -32.5 108.5t-92.5 70.5q97 63 97 150q0 44 -22 90v-1q-20 41 -62 68q-41 26 -89 26q-69 0 -117 -49q-42 -45 -56 -127q2 0 12 -2.5t15 -4.5h-1q10 -2 22 -5q6 -2 14 -3q11 65 41 98.5
t73 33.5q44 0 75 -34q29 -37 29 -88q0 -68 -41 -100q-38 -29 -89 -30q4 8 4 19q-3 -5 -11 -14t-10 -12q6 -2 10 -3q-2 -9 -2 -16q0 -3 -2 -23q-1 -6 -2 -11q32 8 47 8q51 0 88 -43q35 -45 35 -108q0 -69 -38 -114q-37 -46 -91 -46q-95 0 -122 142z" />
    <glyph glyph-name="four" unicode="4" 
d="M286 243h-205l133 234l63 111l9 -2v-343zM286 0h63v175h83v68h-83v473h-54l-54 -95l-36 -62l-181 -312v-72h262v-175z" />
    <glyph glyph-name="five" unicode="5" 
d="M116 184l-68 -7q14 -87 57 -135q51 -54 131 -54q98 0 156 86q46 74 46 167q0 94 -52 164q-56 65 -130 65q-51 0 -123 -54q19 112 35 220h241v70h-291q0 -3 -1 -9.5t-2 -9.5q-2 -11 -5 -32.5t-5.5 -38.5t-4.5 -31q-7 -44 -20 -128t-18 -112q21 -3 46 -8q3 -1 7 -1t7 -1
q44 71 114 71q60 0 95 -47q38 -42 38 -127q0 -81 -38 -135q-43 -51 -95 -51q-43 0 -75 36t-45 102z" />
    <glyph glyph-name="six" unicode="6" 
d="M119 229q0 71 37 121q38 46 90 46q50 0 86 -47q35 -52 35 -125q0 -81 -35 -130q-34 -48 -84 -48q-30 0 -64 23q-27 21 -49 69q-16 50 -16 91zM358 546l62 6q-10 75 -50 120h1q-48 48 -114 48q-93 0 -150 -82q-62 -106 -62 -303q0 -187 56 -267q60 -80 148 -80q55 0 95 31
q43 31 65 85q24 60 24 125q0 100 -51 166q-53 64 -122 64q-76 0 -153 -113q5 144 23 196h-1q21 61 57 94v-1q29 26 64 26q46 0 78 -40q20 -27 30 -75z" />
    <glyph glyph-name="seven" unicode="7" 
d="M53 636h304q-69 -101 -116 -204q-49 -114 -76 -233q-23 -113 -29 -199h67q7 106 28 196q38 143 88 254q66 134 113 198v59h-379v-71z" />
    <glyph glyph-name="eight" unicode="8" 
d="M136 542q0 48 31 84q29 35 74 35q43 0 73 -36q30 -38 30 -88q0 -48 -30 -87q-30 -35 -72 -35q-48 0 -75 36q-31 41 -31 91zM113 203q0 64 35 111q38 44 91 44q57 0 92 -45q38 -47 38 -113t-36 -111q-40 -43 -91 -43q-36 0 -67 20h1q-32 22 -48 59q-15 36 -15 78zM157 397
l-3 -17q-51 -20 -79.5 -65.5t-28.5 -110.5q0 -88 55 -156q51 -60 140 -60q86 0 141 61h-1q54 63 54 152q0 60 -33 108.5t-95 79.5q102 55 102 147q0 74 -45 130q-49 54 -125 54q-75 0 -123 -53q-44 -53 -44 -128q0 -101 85 -142z" />
    <glyph glyph-name="nine" unicode="9" 
d="M363 484q0 -78 -36 -127q-36 -45 -88 -45q-48 0 -90 44q-36 52 -36 121q0 77 39 132q39 51 90 51t85 -47q36 -49 36 -129zM120 161l-59 -6q10 -76 49 -122q47 -45 114 -45q68 0 113 41q47 42 72 123q26 86 26 222q0 130 -25 202v-1q-29 74 -73 107q-50 38 -104 38
q-81 0 -132 -67q-54 -68 -54 -173q0 -101 51 -168q51 -63 124 -63q44 0 80 25q32 24 70 84v-40q0 -46 -14 -111q-9 -55 -26 -89v1q-37 -73 -106 -73q-82 0 -106 115z" />
    <glyph glyph-name="colon" unicode=":" horiz-adv-x="255" 
d="M91 428h74v87h-74v-87zM91 0h74v88h-74v-88z" />
    <glyph glyph-name="uni037E" unicode=";" horiz-adv-x="255" 
d="M90 428h74v87h-74v-87zM90 0h42q-3 -88 -44 -118l6 -9q8 -13 9 -17q61 43 61 136v96h-74v-88z" />
    <glyph glyph-name="uni037E" unicode="&#x37e;" horiz-adv-x="255" 
d="M90 428h74v87h-74v-87zM90 0h42q-3 -88 -44 -118l6 -9q8 -13 9 -17q61 43 61 136v96h-74v-88z" />
    <glyph glyph-name="less" unicode="&#x3c;" horiz-adv-x="507" 
d="M58 317l390 -201v72l-130 66h1q-1 1 -5 2.5t-6 2.5l-188 95l328 163v72l-335 -171q-3 -1 -23.5 -12t-31.5 -16v-73z" />
    <glyph glyph-name="equal" unicode="=" horiz-adv-x="507" 
d="M448 430v68h-388v-68h388zM448 208v68h-388v-68h388z" />
    <glyph glyph-name="greater" unicode="&#x3e;" horiz-adv-x="507" 
d="M448 317v74q-14 7 -63 32l-130 66h1l-170 86q-5 3 -9 5t-9.5 4.5t-9.5 4.5v-72l158 -79l170 -84l-328 -166v-72l124 64q21 11 60 31t41 21l71 37q53 28 94 48z" />
    <glyph glyph-name="question" unicode="?" 
d="M202 0h74v88h-74v-88zM207 181h61q2 52 6 71q8 28 18 46q8 17 47 58q47 47 72 97q18 50 18 84q0 77 -50 135q-54 57 -138 57q-79 0 -128 -51t-62 -146q8 -2 27.5 -4.5t27.5 -3.5q2 0 5 -0.5t5 -0.5q27 147 126 147q52 0 85 -42q36 -42 36 -98q0 -27 -12 -56
q-15 -31 -53 -68q-10 -12 -14 -16q-32 -38 -36 -47q-8 -9 -28 -52v1l-2 -5l1 1q-12 -34 -12 -89v-3v-15z" />
    <glyph glyph-name="at" unicode="@" horiz-adv-x="862" 
d="M277 209q0 48 14 97q13 52 35 90q43 70 99 70q44 0 71 -39q29 -39 29 -111q0 -57 -14 -105q-17 -55 -40 -86q-50 -69 -100 -69q-36 0 -66 42q-28 42 -28 111zM474 76l13 -4q3 -29 7 -36q16 -38 67 -38q83 0 160 99q83 116 83 251q0 95 -39 183q-46 97 -127 148
q-80 50 -180 50q-126 0 -219 -72.5t-144 -200.5q-40 -112 -40 -230q0 -112 33 -200q28 -74 79 -129q109 -112 298 -112q100 0 169 31q63 27 119 85q45 50 66 93h-63q-39 -63 -109 -107q-74 -44 -183 -44q-99 0 -185 43q-86 44 -129 134v-1q-45 87 -45 215q0 120 45 224
q43 102 124 159q83 55 179 55q87 0 156 -44q66 -42 109 -119q35 -80 35 -159q0 -73 -28 -143q-29 -71 -76 -110q-35 -31 -61 -31q-13 0 -23 12t-10 28q0 9 13 80q8 46 17.5 101.5t21 122t17.5 102.5h-63q-1 -9 -5.5 -35.5t-6.5 -37.5v-19q-64 105 -129 105q-47 0 -94 -38
q-47 -36 -82 -117q-33 -81 -33 -155q0 -65 20 -114q20 -50 53.5 -76t70.5 -26q63 0 119 77z" />
    <glyph glyph-name="A" unicode="A" horiz-adv-x="577" 
d="M172 285l70 226q19 73 31 140h11q6 -27 42 -152l51 -163q4 -15 16 -51h-221zM14 0h72q2 8 9 28.5t10 32.5q8 28 20 64q3 10 6.5 22.5t8 28.5t6.5 24l7 22h261l68 -222h81q-13 41 -25 74l-168 496h-1q-5 17 -36 109q-8 21 -13 37h-79l-36 -112l-95 -300z" />
    <glyph glyph-name="B" unicode="B" horiz-adv-x="577" 
d="M143 409v237h126q63 0 93 -12q29 -10 44 -39.5t15 -69.5q0 -79 -67 -108q-22 -8 -75 -8h-136zM143 70v268h145q53 0 89 -13q31 -13 50.5 -46t19.5 -75q0 -25 -11 -62q-26 -56 -83 -68q-20 -4 -55 -4h-155zM73 0h225q111 0 162 46q28 30 42 66q17 43 17 92q0 57 -33 103
t-92 72q95 66 95 158q0 47 -22 91q-23 46 -64 67t-109 21h-221v-716z" />
    <glyph glyph-name="C" unicode="C" horiz-adv-x="622" 
d="M574 218l-69 22q-19 -91 -66 -138.5t-113 -47.5q-56 0 -105 37q-96 71 -96 273q0 64 19 142q17 69 66 113q51 42 123 42q118 0 164 -151q2 0 4.5 1t3.5 1q4 1 12 3.5t11 3.5q4 1 16 4.5t19 5.5q-28 98 -80 145q-66 55 -150 55q-75 0 -145 -43q-67 -45 -98 -127
q-35 -77 -35 -196q0 -103 29 -193q34 -85 96.5 -133.5t152.5 -48.5q88 0 156 60q59 61 85 170z" />
    <glyph glyph-name="D" unicode="D" horiz-adv-x="622" 
d="M146 70v576h131q71 0 106 -16q44 -21 77 -86t33 -181q0 -161 -63 -239q-14 -20 -54 -40q-37 -14 -97 -14h-133zM77 0h212q106 0 166 47q47 41 78 121.5t31 193.5q0 188 -92 293q-38 36 -86 51h1q-42 10 -109 10h-201v-716z" />
    <glyph glyph-name="E" unicode="E" horiz-adv-x="577" 
d="M80 0h438v70h-370v266h333v70h-333v240h356v70h-424v-716z" />
    <glyph glyph-name="F" unicode="F" horiz-adv-x="530" 
d="M81 0h69v333h284v71h-284v242h328v70h-397v-716z" />
    <glyph glyph-name="G" unicode="G" horiz-adv-x="667" 
d="M358 287h178v-148q-28 -28 -79 -56q-49 -24 -103 -24q-61 0 -114 33q-112 72 -112 268q0 77 23 151q23 66 74 108t128 42q43 0 85 -20q32 -15 60 -52q23 -40 33 -85q31 10 54 19q4 0 8 2q-14 69 -42 108q-28 43 -81 71q-51 25 -117 25q-86 0 -158 -44h1
q-64 -44 -104 -135q-36 -98 -36 -196q0 -102 36 -190q34 -82 106 -131q76 -45 161 -45q128 0 245 111v258h-246v-70z" />
    <glyph glyph-name="H" unicode="H" horiz-adv-x="622" 
d="M79 0h68v345h325v-345h71v716h-71v-301h-325v301h-68v-716z" />
    <glyph glyph-name="I" unicode="I" horiz-adv-x="255" 
d="M94 0h68v716h-68v-716z" />
    <glyph glyph-name="J" unicode="J" horiz-adv-x="438" 
d="M100 203l-62 -10q2 -100 42.5 -152.5t114.5 -52.5q51 0 90 25q38 22 57 73v-1q18 49 18 140v491h-69v-496q0 -59 -9 -95q-21 -67 -87 -67q-44 0 -67 34q-22 31 -28 111z" />
    <glyph glyph-name="K" unicode="K" horiz-adv-x="577" 
d="M73 0h70v250l105 123l216 -373h91q-18 27 -36 59l-75 122l-150 247l246 288h-91l-218 -263q-2 -3 -6.5 -8.5t-6.5 -8.5q-18 -23 -75 -91v371h-70v-716z" />
    <glyph glyph-name="L" unicode="L" 
d="M74 0h367v70h-297v646h-70v-716z" />
    <glyph glyph-name="M" unicode="M" horiz-adv-x="713" 
d="M73 0h67q0 102 0.5 306t0.5 306l9 2l172 -614h66q4 16 16.5 59t18.5 67l52 182q27 93 35 122q38 130 52 174l9 -1v-603h67v716h-98l-54 -193l-64 -222q0 -1 -1 -4t-1 -5q-7 -27 -23 -81l-37 -135q-7 28 -17 62q-2 8 -7.5 29.5t-9.5 35.5l-12 40l-59 215l-71 258h-111
v-716z" />
    <glyph glyph-name="N" unicode="N" horiz-adv-x="622" 
d="M76 0h65v572l8 2l319 -574h73v716h-66v-572l-8 -2l-318 574h-73v-716z" />
    <glyph glyph-name="O" unicode="O" horiz-adv-x="667" 
d="M124 347q0 163 63 242q63 72 148 72q62 0 112 -37q99 -78 99 -266q0 -141 -59 -224q-62 -80 -153 -80q-87 0 -151 79q-59 80 -59 214zM51 349q0 -96 34 -180q33 -80 100 -132q66 -49 149 -49q79 0 145 44q69 47 103 131q36 84 36 194t-34 192q-35 86 -100 133
q-67 47 -149 47q-124 0 -204 -101q-80 -102 -80 -279z" />
    <glyph glyph-name="P" unicode="P" horiz-adv-x="577" 
d="M147 369v277h158q58 0 77 -8h-1q34 -11 54.5 -46t20.5 -83q0 -64 -35 -104q-36 -36 -113 -36h-161zM78 0h69v297h158q122 0 175 63q46 66 46 152q0 57 -16 95q-31 79 -119 102q-38 7 -92 7h-221v-716z" />
    <glyph glyph-name="Q" unicode="Q" horiz-adv-x="667" 
d="M356 186l-15 -57q39 -15 84 -49q-55 -26 -93 -26q-92 0 -153 79q-60 78 -60 225q0 149 60 227q62 76 153 76q60 0 109 -37q101 -76 101 -266q0 -152 -76 -243q-57 51 -110 71zM525 62v16q89 104 89 280q0 107 -36 192q-28 76 -99 132q-71 47 -147 47q-77 0 -149 -45
q-60 -42 -101 -133q-36 -90 -36 -193q0 -104 36 -191q34 -81 101 -132q65 -47 147 -47q79 0 147 47q66 -61 127 -91q4 12 7 18q1 3 3 7q1 6 8 24h-1q1 3 2 5q-47 24 -98 64z" />
    <glyph glyph-name="R" unicode="R" horiz-adv-x="622" 
d="M146 393v258h197q68 0 101 -35q33 -36 33 -92q0 -38 -17 -71q-32 -60 -135 -60h-179zM77 0h69v325h98q26 0 48 -4q29 -9 59 -47t76 -126l78 -148h88q-32 59 -50 98v-1q-21 38 -27 50q-3 6 -10.5 19t-10.5 20q-29 52 -66 97h1q-31 25 -66 47q107 22 146 68q39 51 39 126
q0 63 -24 105q-24 51 -63 67q-43 20 -123 20h-262v-716z" />
    <glyph glyph-name="S" unicode="S" horiz-adv-x="577" 
d="M115 227l-66 -7q4 -64 32 -120q65 -112 220 -112q66 0 116 28q46 27 76 78q27 54 27 105q0 115 -99 171q-30 17 -134 46q-99 28 -123 54q-25 26 -25 72q0 49 37 83q34 34 109 34q130 0 150 -140q3 0 10 1t12 1.5t8 0.5q1 0 3 0.5t3 0.5l30 3q-5 65 -28 101
q-55 102 -193 102q-60 0 -111 -24h1q-51 -30 -72 -73q-25 -45 -25 -97q0 -98 82 -153q33 -20 116 -44q94 -28 108 -36q72 -37 74 -111q2 -56 -41 -94.5t-114 -37.5q-51 0 -93 21q-74 38 -90 147z" />
    <glyph glyph-name="T" unicode="T" horiz-adv-x="530" 
d="M230 0h71v646h199v70h-468v-70h198v-646z" />
    <glyph glyph-name="U" unicode="U" horiz-adv-x="622" 
d="M472 716v-413q0 -142 -39 -193q-41 -51 -128 -51q-52 0 -91 25q-34 23 -53 77q-15 52 -15 142v413h-67v-415q0 -117 22 -180v1q24 -63 77.5 -98.5t132.5 -35.5q89 0 139 38q55 45 71 103q22 68 22 172v415h-71z" />
    <glyph glyph-name="V" unicode="V" horiz-adv-x="577" 
d="M248 0h74l101 310l114 354q3 6 12 34q2 5 3.5 10.5t1.5 7.5h-71l-161 -527q-23 -82 -31 -124h-9q-2 9 -32 123l-158 528h-72l41 -131l43 -136l50 -158z" />
    <glyph glyph-name="W" unicode="W" horiz-adv-x="805" 
d="M178 0h74l64 278l30 130q14 57 34 145q6 27 10 51l6 33h9q3 -9 8 -22q4 -30 13 -62l125 -553h70l65 286q1 6 9.5 41t12.5 51l63 284q5 23 13 54h-71q-3 -19 -11 -56.5t-10 -49.5q-15 -82 -25 -128q-21 -97 -46 -231q-12 -50 -22 -111q-3 -12 -10 -45h-9q-17 126 -46 256
l-87 365h-87l-75 -321q-9 -37 -19 -84q-2 -8 -18 -80q-2 -5 -17 -74q-5 -32 -6 -35q-2 -4 -2 -8v1q0 -2 -6 -22l-9 1q-1 4 -2.5 12t-1.5 12q-17 110 -20 125l-93 473h-70l54 -239q1 -8 5 -23.5t5 -23.5l85 -397q0 -3 8 -33z" />
    <glyph glyph-name="X" unicode="X" horiz-adv-x="577" 
d="M23 0h81l150 252v-1q2 3 7.5 14t13.5 26.5t12 23.5q12 -25 30 -57l151 -258h85l-225 378l207 338h-72l-49 -79l-46 -73l-25 -39q-17 -27 -53 -92q-6 14 -40 80q-6 9 -11 19q-47 77 -71 121l-20 33q-3 5 -8.5 15t-8.5 15h-83l70 -116l133 -226z" />
    <glyph glyph-name="Y" unicode="Y" horiz-adv-x="577" 
d="M248 0h68v306l236 410h-80q-10 -17 -17 -32q-12 -21 -48 -90q-1 -2 -7 -11q-19 -37 -44 -80l-69 -138q-19 44 -66 134q-4 7 -16 29t-18 34l-83 154h-84l104 -188l124 -222v-306z" />
    <glyph glyph-name="Z" unicode="Z" horiz-adv-x="530" 
d="M31 0h464v70h-392l46 66l141 209l90 136l106 159v76h-422v-70h347q-38 -46 -66 -90v1q-6 -8 -8 -12l-306 -467v-78z" />
    <glyph glyph-name="bracketleft" unicode="[" horiz-adv-x="255" 
d="M72 -204h153v60h-90v801h90v59h-153v-920z" />
    <glyph glyph-name="backslash" unicode="\" horiz-adv-x="255" 
d="M190 -12h47l-71 310l-9 42l-30 123l-61 266h-49l55 -238l23 -96z" />
    <glyph glyph-name="bracketright" unicode="]" horiz-adv-x="255" 
d="M185 -204v920h-152v-59h89v-801h-89v-60h152z" />
    <glyph glyph-name="asciicircum" unicode="^" horiz-adv-x="412" 
d="M103 345l103 307l104 -307h64q-14 37 -64 176l-45 123v-1q-10 26 -32 86h-54q-6 -20 -19.5 -55.5t-18.5 -52.5q-2 -6 -8.5 -24t-9.5 -26l-84 -226h64z" />
    <glyph glyph-name="underscore" unicode="_" 
d="M0 -204h482v50h-482v-50z" />
    <glyph glyph-name="grave" unicode="`" horiz-adv-x="301" 
d="M49 721h10q-1 1 -1 2v-1q-1 2 -2.5 3.5t-1.5 2.5zM192 595l-49 126h-84l27 -41q4 -7 9.5 -15.5t13 -19t11.5 -16.5q3 -4 11 -15.5t13 -18.5h48z" />
    <glyph glyph-name="a" unicode="a" 
d="M347 270v-45q0 -59 -12 -94q-18 -41 -51.5 -65t-77.5 -24q-45 0 -69 25.5t-24 66.5q0 32 11 48q14 24 32 31h-1q21 10 67 19q73 13 125 38zM343 61l11 -4q2 -31 12 -57h64q-10 29 -13 55q-5 38 -5 159v120q0 65 -4 81q-4 32 -21 59v-1q-37 53 -139 53q-53 0 -97 -18
q-72 -35 -93 -130q5 -1 16 -2l10 -2q16 -2 31 -5q2 -1 2.5 -1h2.5q11 52 37 76q27 23 80 23q57 0 88 -31q23 -26 23 -84v-7q0 -1 -0.5 -4t-0.5 -5v-13q-40 -17 -136 -34q-52 -7 -66 -13q-43 -13 -72 -51t-29 -93q0 -59 37 -104q42 -40 106 -40q41 0 81 16q41 21 75 57z" />
    <glyph glyph-name="b" unicode="b" 
d="M126 262q0 96 37 155q38 51 86 51q50 0 87 -51q37 -61 37 -160t-39 -157q-36 -53 -87 -53q-60 0 -99 72q-22 46 -22 143zM126 0v80q59 -92 128 -92q72 0 130 72q53 75 53 206q0 115 -49 188q-23 33 -57.5 52.5t-73.5 19.5q-61 0 -126 -81v271h-64v-716h59z" />
    <glyph glyph-name="c" unicode="c" horiz-adv-x="438" 
d="M416 168l-62 10q-11 -65 -41 -98t-74 -33q-59 0 -91 51q-36 50 -36 159q0 108 37 160q36 51 95 51q77 0 102 -106q5 0 13 2q5 1 13 2.5t9 1.5q4 1 14 3q12 3 13 3q-16 74 -58.5 113t-108.5 39q-57 0 -103 -31q-44 -32 -68.5 -95.5t-24.5 -145.5q0 -123 53 -197
q56 -69 141 -69q72 0 119 50q43 48 58 130z" />
    <glyph glyph-name="d" unicode="d" 
d="M107 256q0 105 33 160q39 51 89 51q53 0 87 -52q37 -55 37 -165q0 -101 -35 -153q-35 -50 -85 -50t-88 52q-38 55 -38 157zM353 0h59v716h-65v-276q-62 86 -124 86q-56 0 -96 -33q-42 -32 -64 -96q-21 -66 -21 -141q0 -82 24 -140q22 -56 65 -94q42 -34 94 -34
q65 0 128 93v-81z" />
    <glyph glyph-name="e" unicode="e" 
d="M370 301h-258q9 84 43 124q34 43 89 43q59 0 94 -53q23 -37 32 -114zM431 145l-66 10q-35 -108 -117 -108q-57 0 -94 48q-39 49 -44 147h327v15q0 130 -55 200q-55 69 -138 69q-91 0 -145 -71q-55 -70 -55 -203q0 -116 54 -194q60 -70 150 -70q68 0 115 40.5t68 116.5z
" />
    <glyph glyph-name="f" unicode="f" horiz-adv-x="255" 
d="M88 0h63v460h86v55h-86v56q0 50 17 72q18 19 51 19q23 0 39 -3q5 30 6 39q2 10 2 24q-32 7 -61 7q-85 0 -110 -74q-7 -19 -7 -75v-65h-65v-55h65v-460z" />
    <glyph glyph-name="g" unicode="g" 
d="M106 267q0 93 35 150q36 50 88 50q54 0 90 -51q37 -53 37 -152q0 -108 -36 -157q-38 -48 -89 -48q-55 0 -90 50q-35 54 -35 158zM117 -72l-61 12q5 -76 43 -114q53 -41 124 -41q67 0 108 28q42 28 65 80q19 51 19 171v451h-57v-75q-71 86 -133 86q-55 0 -99 -34
q-40 -34 -64 -96q-21 -60 -21 -135q0 -108 47 -185h-1q53 -76 137 -76q60 0 127 80v-34q0 -66 -6 -102q-23 -101 -122 -101q-48 0 -81 28q-18 20 -25 57z" />
    <glyph glyph-name="h" unicode="h" 
d="M68 0h65v282q0 68 12 101q18 43 43 60q30 21 66 21q97 0 97 -136v-328h64v328q0 73 -16 115q-15 38 -49.5 60.5t-80.5 22.5q-64 0 -136 -83v273h-65v-716z" />
    <glyph glyph-name="i" unicode="i" horiz-adv-x="208" 
d="M72 629h64v87h-64v-87zM72 0h64v515h-64v-515z" />
    <glyph glyph-name="j" unicode="j" horiz-adv-x="208" 
d="M72 628h64v88h-64v-88zM-8 -145l-12 -62q36 -8 51 -8q56 0 86 47h-1q20 40 20 132v551h-64v-549q0 -71 -12 -98q-15 -20 -38 -20q-10 0 -30 7z" />
    <glyph glyph-name="k" unicode="k" horiz-adv-x="438" 
d="M68 0h66v207q3 3 58 68l145 -275h78l-180 326l158 189h-79l-94 -118l-86 -107v426h-66v-716z" />
    <glyph glyph-name="l" unicode="l" horiz-adv-x="208" 
d="M69 0h64v716h-64v-716z" />
    <glyph glyph-name="m" unicode="m" horiz-adv-x="713" 
d="M66 0h64v268q0 74 13 113h-1q10 37 39 61q33 22 62 22q82 0 82 -127v-337h64v300q0 85 31 125q30 39 81 39q27 0 46 -15q19 -11 32 -47q6 -26 6 -76v-326h62v356q0 170 -128 170q-75 0 -138 -98q-19 45 -51 71.5t-71 26.5q-71 0 -136 -100v89h-57v-515z" />
    <glyph glyph-name="n" unicode="n" 
d="M68 0h65v282q0 104 35 144q38 38 86 38q30 0 55 -18q22 -14 32 -48q8 -36 8 -84v-314h65v318q0 63 -5 86q-5 37 -21 62q-15 26 -49 43q-30 17 -70 17q-77 0 -144 -102v91h-57v-515z" />
    <glyph glyph-name="o" unicode="o" horiz-adv-x="493" 
d="M113 256q0 104 36 159q42 52 98 52t95 -52q38 -53 38 -154q0 -109 -38 -161q-38 -53 -95 -53q-55 0 -98 52q-36 53 -36 157zM46 256q0 -118 55 -198q60 -70 146 -70q54 0 103 32q49 33 69 87q28 61 28 158q0 121 -57 192q-55 69 -143 69q-82 0 -134 -58q-67 -70 -67 -212
z" />
    <glyph glyph-name="p" unicode="p" 
d="M125 253q0 110 38 163q37 55 86 55q50 0 89 -54q35 -59 35 -155q0 -102 -36 -162q-41 -53 -90 -53t-86 51q-36 51 -36 155zM67 -204h66v271q64 -79 118 -79q47 0 95 33q44 33 68 96q23 64 23 145q0 69 -20 134q-23 60 -65.5 95t-94.5 35q-67 0 -131 -94v83h-59v-719z" />
    <glyph glyph-name="q" unicode="q" 
d="M108 258q0 108 36 161q36 51 85 51q50 0 87 -54q39 -58 39 -166q0 -100 -36 -152q-37 -51 -84 -51q-52 0 -89 53q-38 55 -38 158zM347 -204h65v719h-57v-85q-65 96 -132 96q-52 0 -95 -31q-36 -27 -64 -94v1q-21 -62 -21 -139q0 -124 54 -202q60 -73 130 -73q31 0 65 18
q24 16 55 65v-275z" />
    <glyph glyph-name="r" unicode="r" horiz-adv-x="301" 
d="M68 0h64v270q0 57 13 106q10 34 30.5 53.5t46.5 19.5q24 0 51 -16q9 20 10 30q11 35 11 38q-35 25 -68 25q-25 0 -47 -16q-22 -20 -44 -72l-9 2v75h-58v-515z" />
    <glyph glyph-name="s" unicode="s" horiz-adv-x="438" 
d="M104 156l-63 -13q30 -155 181 -155q48 0 90 20q41 25 59 60q20 37 20 79q0 41 -15 73q-15 26 -46 46h1q-39 16 -111 41q-8 3 -21.5 7t-15.5 5q-28 9 -29 10q-23 14 -32 26q-9 14 -9 38q0 32 24 53q24 22 76 22q82 0 100 -86q4 0 12 2q2 0 4.5 0.5t3.5 0.5q2 0 6.5 1l9 2
t8.5 1h1q4 1 8.5 2t8.5 1q-11 48 -25 70q-18 29 -56 46.5t-87 17.5q-69 0 -108 -34q-47 -42 -47 -111q0 -32 14 -67q15 -30 47 -46q30 -19 111 -44q64 -20 77 -31q25 -18 25 -54q0 -38 -28 -66q-23 -26 -76 -26q-100 0 -118 109z" />
    <glyph glyph-name="t" unicode="t" horiz-adv-x="255" 
d="M232 -1l-8 64q-26 -2 -28 -2q-17 0 -29 8q-8 6 -16 23q-3 12 -3 51v317h75v55h-75v180h-1q-4 -3 -12.5 -9.5t-14.5 -11t-9 -6.5q-9 -4 -17 -11q-2 -1 -5 -4t-5 -4v-134h-53v-55h53v-313q0 -74 9 -103q19 -51 90 -51q19 0 49 6z" />
    <glyph glyph-name="u" unicode="u" 
d="M355 0h57v515h-65v-276q0 -71 -14 -109q-13 -39 -42 -59q-31 -21 -65 -21q-35 0 -59.5 21.5t-31.5 59.5q-4 34 -4 98v286h-65v-321q0 -55 5 -83q5 -34 23 -64q14 -23 47 -42q36 -17 71 -17q74 0 143 105v-93z" />
    <glyph glyph-name="v" unicode="v" horiz-adv-x="438" 
d="M188 0h63l39 124l122 391h-65q-34 -118 -51 -168q-3 -13 -11 -40.5t-12 -40.5l-21 -69q-23 -80 -29 -106h-9q-5 16 -11 48q-2 7 -8 29t-9 34l-93 313h-67l122 -387q10 -30 15 -47q18 -54 25 -81z" />
    <glyph glyph-name="w" unicode="w" horiz-adv-x="622" 
d="M146 0h71q28 140 54 248l16 75l18 78h8l18 -89q18 -93 53 -244q4 -22 9 -42q1 -3 6 -26h70l17 68l46 179l67 268h-58l-39 -160l-9 -33q-11 -45 -26 -110q-13 -47 -26 -103h-9q-11 43 -20 92q0 2 -2 12q-3 12 -8.5 37.5t-8.5 38.5q-38 182 -47 226h-70q-3 -14 -6.5 -30.5
t-8 -37t-6.5 -31.5q-3 -15 -8.5 -41.5t-7.5 -33.5l-30 -132q-3 -12 -8.5 -38.5t-8.5 -38.5q-1 -5 -4 -25q-1 -3 -9 -16q-8 37 -11 46q-2 9 -8.5 35.5t-9.5 41.5q-7 30 -31 136.5t-36 164.5h-67l66 -258l22 -88q28 -106 42 -169z" />
    <glyph glyph-name="x" unicode="x" horiz-adv-x="438" 
d="M26 0h76q6 12 72 130q16 32 24 46q3 6 11 20.5t9 16.5l31 -50l87 -163h76q-10 17 -83 145q-23 38 -36 62q-14 25 -39 66l146 242h-75l-13 -25q-14 -21 -17 -27q-1 -1 -3 -5l1 1q-15 -28 -39 -67v1q-3 -6 -13 -22q-20 -35 -25 -45l-10 21l-23 46l-68 122h-78l78 -132
l33 -59l32 -56z" />
    <glyph glyph-name="y" unicode="y" horiz-adv-x="438" 
d="M58 -138l8 -69q30 -8 42 -8q62 0 102 82q7 16 42 120h-1l163 528h-62q-5 -15 -15 -49l-24 -78l-22 -73l-31 -106q-18 -59 -31 -118h-9q-18 76 -32 120l-90 304h-67l93 -301l70 -223l-4 -11q0 -2 -2 -4v-3q-1 -2 -1 -7q-8 -28 -24 -70q-24 -39 -69 -39q-8 0 -36 5z" />
    <glyph glyph-name="z" unicode="z" horiz-adv-x="438" 
d="M32 0h374v62h-198q-39 0 -106 -7l55 77l236 334v49h-348v-57h174q53 0 97 3l-284 -399v-62z" />
    <glyph glyph-name="braceleft" unicode="{" horiz-adv-x="301" 
d="M38 290v-66q35 -6 49 -22q17 -17 30 -59q7 -34 7 -127t5 -127q10 -71 62 -97q21 -7 58 -7h17v62h-8q-37 0 -55 16v-1q-13 12 -20 53v118q0 101 -21 149q-16 40 -75 73q54 37 68 59h-1q19 32 25 78q4 50 4 164q0 66 17 92q17 17 58 17h8v64h-17q-38 0 -51 -4
q-32 -13 -49.5 -41t-23.5 -85q-1 -17 -1 -109q0 -64 -7 -120q-8 -31 -28.5 -52.5t-50.5 -27.5z" />
    <glyph glyph-name="bar" unicode="|" horiz-adv-x="240" 
d="M94 -215h54v944h-54v-944z" />
    <glyph glyph-name="braceright" unicode="}" horiz-adv-x="301" 
d="M262 224v65q-33 7 -49 23q-21 22 -28 59q-7 34 -7 126q0 91 -8 127q-9 74 -60 97q-17 8 -57 8h-18v-64h7q41 0 55 -13q14 -14 20 -53v-21q1 -21 1 -96q0 -103 18 -149q17 -38 79 -77q-82 -48 -92 -141q-5 -28 -5 -157q0 -68 -15 -90q-19 -21 -61 -21h-7v-62h18q31 0 54 7
h-1q31 12 47 39.5t22 84.5q3 51 3 107q0 86 7 120q5 32 25.5 54t51.5 27z" />
    <glyph glyph-name="asciitilde" unicode="~" horiz-adv-x="507" 
d="M208 416l2 9h-2l-1 -9h1zM47 370v-84q37 37 53 45q24 15 51 15q35 0 81 -27h-1l7 -3q62 -29 65 -30q20 -7 47 -7q60 0 110 53v85q-24 -24 -42 -38q-34 -22 -60 -22q-17 0 -29 6v-1q-16 4 -44 20q-53 28 -78 34q-25 9 -48 9q-63 0 -112 -55z" />
    <glyph glyph-name="exclamdown" unicode="&#xa1;" horiz-adv-x="301" 
d="M189 515h-75v-87h75v87zM170 332h-39l-21 -381v-153h81v153l-4 79q-6 113 -6 121q-4 79 -11 181z" />
    <glyph glyph-name="cent" unicode="&#xa2;" 
d="M419 369l5 6l-2 -1h-2h-2q0 -4 1 -5zM278 469l-96 -401q-58 71 -58 190q0 72 12 115q16 48 46.5 72.5t66.5 24.5q13 0 29 -1zM215 51l96 399q36 -40 46 -89q2 0 8.5 1.5t9.5 2.5t9.5 2t9.5 2l4 1q4 1 10.5 2t9.5 2q-19 92 -92 137l47 191q-5 1 -13 5q-13 2 -23 7
q-2 -11 -16 -64q-7 -33 -29 -120v-7q-32 3 -46 3q-48 0 -98 -30h1q-91 -61 -91 -242q0 -94 29 -155q27 -59 80 -93l-48 -196q30 -11 30 -13l7 -1q2 11 11 49l36 150q24 -9 46 -9q69 0 118 52q43 47 60 131q-2 0 -6.5 1t-5.5 1q-12 2 -17 3q-7 2 -34 4q-11 -63 -40 -97
q-34 -37 -76 -37q-11 0 -33 7z" />
    <glyph glyph-name="sterling" unicode="&#xa3;" 
d="M295 389h-128q-26 96 -26 152q0 54 34 91h-1q29 38 80 38q43 0 77 -36q28 -36 37 -91q18 4 32 5q2 0 5.5 0.5t5.5 1.5q18 4 21 4q-16 88 -57 126q-47 49 -119 49q-68 0 -121 -46v1q-61 -59 -61 -157q0 -25 3 -48q5 -19 12 -57q1 -4 3 -16.5t3 -16.5h-63v-59h77
q10 -36 10 -69q0 -74 -28 -125q-28 -47 -65 -75q4 -10 10 -30q1 -2 4 -12.5t5 -15.5l5 -14q64 44 122 44q15 0 35 -4q1 0 1 -0.5t1 -0.5q18 -3 57 -20q34 -13 53 -17q17 -3 35 -3q17 0 40 5h-1q17 5 53 22q-4 13 -7 26q-1 3 -4 13.5t-4 13.5h1q-6 13 -6 15q-49 -25 -76 -25
q-26 0 -96 20q-45 13 -76 13q-20 0 -79 -18q87 122 87 205q0 26 -11 52h120v59z" />
    <glyph glyph-name="currency" unicode="&#xa4;" 
d="M410 571v-1v1zM127 168q10 1 11 1l-4 9q-1 -2 -5 -6q-2 -2 -2 -4zM127 354q0 56 35 97q32 41 77 41t80 -39q33 -44 33 -99t-34 -98q-34 -39 -79 -39q-44 0 -77 40q-35 41 -35 97zM46 540l57 -67q-31 -62 -31 -119q0 -56 31 -118l-57 -67q3 -3 24 -31q7 -5 16 -18q4 4 8 9
t9 11.5t8 10.5q4 5 10.5 12.5t7.5 8.5q2 2 4 6l1 1q1 1 3.5 4t4.5 5q50 -37 99 -37t98 37l57 -68q16 22 28 34q5 9 11 14l-1 1v1q-14 14 -16 17h1q-25 30 -42 49q32 64 32 118q0 55 -32 119l58 67q-1 1 -3.5 4t-3.5 4q-14 18 -17 21l-1 1q-1 1 -4 4.5t-3 4.5q-1 1 -3.5 4
t-4.5 6q-3 -3 -8.5 -10.5t-9.5 -11.5l-18 -22.5t-20 -24.5q-54 38 -98 38q-49 0 -98 -37l-58 68q-1 -1 -3.5 -4.5t-4.5 -5.5q-8 -12 -12 -16q-2 -2 -8 -10q-2 -2 -5.5 -6.5t-5.5 -6.5z" />
    <glyph glyph-name="yen" unicode="&#xa5;" 
d="M210 0h63v163h169v53h-169v87h169v58h-145l168 355h-76q-24 -54 -27 -60l-58 -130l-27 -60q-1 -3 -3 -7.5t-3 -6.5q-3 -7 -10 -23.5t-12.5 -30.5t-9.5 -24q-16 46 -36 88l-117 254h-70q6 -16 13 -23l156 -332h-146v-58h171v-87h-171v-53h171v-163z" />
    <glyph glyph-name="brokenbar" unicode="&#xa6;" horiz-adv-x="240" 
d="M148 729h-54v-379h54v379zM148 164h-54v-379h54v379z" />
    <glyph glyph-name="section" unicode="&#xa7;" 
d="M119 266h9l-3 -8q-2 2 -6 8zM310 107l-6 2q-39 34 -94 72q-65 45 -93 85h2q-16 28 -16 58q0 56 68 105q18 -17 86 -71q72 -55 94 -85q23 -36 23 -66q0 -57 -64 -100zM137 -38l-64 -11q13 -78 58 -122t116 -44q43 0 82 21q36 17 56 57v-1q21 44 21 78q0 72 -74 143
q51 26 73 50q28 39 28 91q0 65 -56 126q-36 34 -86 69q-107 82 -128 111q-16 32 -16 53q0 32 27 62q23 25 63 25q39 0 61 -24t34 -84q4 0 14 2q6 0 7 1q26 4 43 5q-10 78 -53 118.5t-113 40.5q-64 0 -106 -45q-38 -46 -38 -104q0 -60 60 -129q-55 -23 -76 -56
q-25 -36 -25 -82q0 -28 16 -67q16 -34 38 -60q20 -22 85 -70q107 -80 140 -124q17 -25 17 -53q0 -36 -25 -67q-30 -27 -69 -27q-48 0 -71 28q-25 27 -39 89z" />
    <glyph glyph-name="dieresis" unicode="&#xa8;" horiz-adv-x="301" 
d="M41 634h66v88h-66v-88zM193 634h67v88h-67v-88z" />
    <glyph glyph-name="copyright" unicode="&#xa9;" horiz-adv-x="634" 
d="M461 275l-39 15q-11 -40 -39 -68q-30 -28 -67 -28q-50 0 -79 42q-30 42 -30 121q0 82 32 124q31 42 81 42q65 0 96 -75q10 2 15 4h-1q22 6 26 7q-18 48 -53.5 76t-80.5 28q-72 2 -116.5 -54t-43.5 -151q0 -99 43 -151q42 -56 114 -56q54 0 93 36q33 32 49 88zM319 681
q63 0 128 -41q63 -41 99 -119q36 -81 36 -162q0 -83 -34 -160q-39 -80 -99 -120q-65 -41 -130 -41q-67 0 -132 41q-61 42 -100 120q-34 79 -34 160q0 87 36 162q39 79 98 119q65 41 132 41zM319 729q-78 0 -152 -48q-75 -50 -113 -137q-41 -90 -41 -185q0 -98 41 -183
q40 -90 112 -136h-1q73 -49 154 -49q79 0 150 50q76 49 114 135q40 89 40 183q0 93 -40 185q-39 87 -114 137h1q-77 48 -151 48z" />
    <glyph glyph-name="ordfeminine" unicode="&#xaa;" horiz-adv-x="332" 
d="M225 550l10 -8q0 -38 -5 -56v1q-6 -27 -31 -50v1q-20 -21 -56 -21q-27 0 -42.5 16t-15.5 41q0 24 13 38q11 12 52 21q16 4 23 5q17 3 52 12zM229 422l12 -6q2 -25 7 -35h47q-12 36 -12 83v152q0 54 -25 84q-24 29 -92 29q-52 0 -86 -29q-25 -22 -34 -61q6 -2 20 -6
q12 -4 17 -5h-1q1 -1 10 -4q14 62 73 62q25 0 40 -10q17 -12 23 -24q7 -11 7 -55q-10 -6 -45 -13l-60 -11q-35 -8 -41 -11q-55 -23 -55 -88q0 -45 26 -73q25 -28 70 -28q50 0 99 49z" />
    <glyph glyph-name="guillemotleft" unicode="&#xab;" 
d="M141 255l103 221h-47l-35 -62l-53 -91l-19 -33q-15 -26 -20 -35q1 -2 5.5 -8.5t6.5 -10.5q1 -2 5.5 -10.5t6.5 -11.5q3 -6 11 -19t11 -18l81 -140h47zM301 255l104 221h-50q-5 -10 -21 -38.5t-24 -43.5q-14 -22 -24 -42l-22 -39q-13 -22 -33 -58l125 -218h50l-52 108
q-2 5 -10 20.5t-11 23.5q-13 24 -32 66z" />
    <glyph glyph-name="logicalnot" unicode="&#xac;" horiz-adv-x="507" 
d="M448 211v287h-388v-68h327v-219h61z" />
    <glyph glyph-name="registered" unicode="&#xae;" horiz-adv-x="634" 
d="M230 372v137h67q39 0 57 -8q33 -16 33 -60q0 -33 -20 -50q-18 -19 -66 -19h-71zM187 160h43v172h38q29 0 46 -16q23 -20 59 -97l27 -59h52q-6 12 -10 19l-24 47q-39 68 -48 80v-1q-8 9 -28 21v14q46 7 69 35q24 34 24 72q0 29 -17 55q-10 26 -36 34q-26 13 -86 13h-109
v-389zM319 681q63 0 128 -41q63 -41 99 -119q36 -81 36 -162q0 -83 -34 -160q-39 -80 -99 -120q-65 -41 -130 -41q-67 0 -132 41q-61 42 -100 120q-34 79 -34 160q0 87 36 162q39 79 98 119q65 41 132 41zM319 729q-78 0 -152 -48q-75 -50 -113 -137q-41 -90 -41 -185
q0 -98 41 -183q40 -90 112 -136h-1q73 -49 154 -49q79 0 150 50q76 49 114 135q40 89 40 183q0 93 -40 185q-39 87 -114 137h1q-77 48 -151 48z" />
    <glyph glyph-name="macron" unicode="&#xaf;" horiz-adv-x="482" 
d="M0 782h482v49h-482v-49z" />
    <glyph glyph-name="degree" unicode="&#xb0;" horiz-adv-x="356" 
d="M102 599q0 38 20 64q25 28 54 28q25 0 53 -28q21 -25 21 -64q0 -41 -21 -66q-23 -27 -53 -27q-29 0 -53 27q-21 25 -21 66zM67 599q0 -52 32 -94q33 -38 76 -38q46 0 78 38q33 42 33 94q0 51 -32 91q-34 39 -79 39q-43 0 -76 -39q-32 -40 -32 -91z" />
    <glyph glyph-name="plusminus" unicode="&#xb1;" horiz-adv-x="478" 
d="M433 0v68h-388v-68h388zM210 130h58v201h165v67h-165v201h-58v-201h-165v-67h165v-201z" />
    <glyph glyph-name="uni00B2" unicode="&#xb2;" horiz-adv-x="301" 
d="M27 366h243v45h-166q39 44 59 63v-1q56 49 84 85v-1q22 34 22 74t-26 66q-31 29 -88 29q-49 0 -77 -22.5t-42 -71.5q14 -2 23 -2q2 -1 5 -1.5t5 -0.5q11 -2 18 -3q13 35 23 43q13 13 44 13q29 0 45 -17t16 -44q0 -26 -17 -49q-16 -20 -71 -68q-54 -49 -84 -94
q-9 -14 -16 -43z" />
    <glyph glyph-name="uni00B3" unicode="&#xb3;" horiz-adv-x="301" 
d="M80 455l-49 -6q28 -92 120 -92q58 0 91 33q28 32 28 74q0 65 -68 89v14q54 25 54 73q0 33 -25 60q-28 26 -84 26q-46 0 -72 -21h1q-21 -17 -38 -59q12 -4 48 -12q24 52 61 52q27 0 40.5 -15t13.5 -38t-17 -39t-47 -20q-2 -8 -2 -20q-3 -2 -3 -9h-17q3 -4 9.5 -14
t12.5 -17q2 14 6 22q74 0 74 -62q0 -33 -21 -54h1q-19 -21 -51 -21q-23 0 -44 16q-11 8 -22 40z" />
    <glyph glyph-name="acute" unicode="&#xb4;" horiz-adv-x="301" 
d="M110 595h50q1 2 11 19q5 7 12.5 19t8.5 13l17 25l32 50h-82q-1 -3 -4 -9.5t-4 -8.5q-1 -5 -5 -15t-5 -14l-11 -27q-3 -9 -10 -26t-10 -26z" />
    <glyph glyph-name="mu" unicode="&#xb5;" horiz-adv-x="501" 
d="M420 515h-62v-219q0 -126 -10 -159q-10 -34 -39 -62q-28 -22 -61 -22t-58 22t-38 61q-11 50 -11 161v218h-61v-719h61v269q43 -57 51 -62q26 -15 58 -15q36 0 65 19q13 11 51 68v-75h54v515z" />
    <glyph glyph-name="paragraph" unicode="&#xb6;" horiz-adv-x="469" 
d="M179 -204h60v850h100v-850h59v850h61v70h-256q-92 0 -143 -56l1 1q-47 -56 -47 -147q0 -84 43 -137q42 -52 122 -59v-522z" />
    <glyph glyph-name="periodcentered" unicode="&#xb7;" horiz-adv-x="255" 
d="M91 310h74v86h-74v-86z" />
    <glyph glyph-name="periodcentered" unicode="&#x2219;" horiz-adv-x="255" 
d="M91 310h74v86h-74v-86z" />
    <glyph glyph-name="cedilla" unicode="&#xb8;" horiz-adv-x="301" 
d="M123 -4l-17 -74q36 -3 48 -12.5t14 -25.5q0 -23 -14 -34q-17 -13 -55 -13h-5q-19 0 -31 1q0 -10 -1 -13v-5q0 -8 -1 -13q0 -2 -0.5 -6.5t-0.5 -5.5q25 -5 53 -5q60 0 87 27q26 25 26 60q0 22 -18.5 40.5t-52.5 25.5l13 53h-45z" />
    <glyph glyph-name="uni00B9" unicode="&#xb9;" horiz-adv-x="301" 
d="M151 366h51v360h-38q-20 -28 -50 -58q-39 -26 -54 -35v-45q47 21 91 62v-284z" />
    <glyph glyph-name="ordmasculine" unicode="&#xba;" horiz-adv-x="327" 
d="M163 677q36 0 57.5 -31.5t21.5 -93.5q0 -132 -79 -132q-37 0 -58 32t-21 97q0 128 79 128zM163 729q-52 0 -95 -48q-35 -53 -35 -134q0 -83 35 -131v1q41 -48 95 -48q55 0 94 48q37 50 37 132q0 81 -37 132q-41 48 -94 48z" />
    <glyph glyph-name="guillemotright" unicode="&#xbb;" 
d="M340 255l-103 -218h46q3 4 23 37q3 5 41 72q1 2 8 14t11 18q9 15 24.5 41.5t20.5 35.5q-1 2 -8.5 14.5t-11.5 19.5l-70 122q-3 4 -17.5 28.5t-20.5 36.5h-46zM181 255l-105 -218h48l126 218q-36 64 -61 106q-3 7 -17 30l-48 85h-48q10 -23 41 -88q2 -5 8 -14
q8 -19 20 -42q25 -53 36 -77z" />
    <glyph glyph-name="onequarter" unicode="&#xbc;" horiz-adv-x="713" 
d="M600 100h-116l62 84l54 73v-157zM146 366h49v360h-35q-29 -37 -52 -58q-15 -12 -53 -36v-44q49 23 91 62v-284zM120 -28h50l110 187l92 156l70 119l174 295h-52q-5 -9 -14 -24t-11 -19l-34 -59l-64 -109zM600 -15h47v77h43v38h-43v244h-43l-130 -185q-7 -10 -34 -47v-50
h160v-77z" />
    <glyph glyph-name="onehalf" unicode="&#xbd;" horiz-adv-x="713" 
d="M146 366h49v360h-35q-24 -32 -52 -58q-15 -12 -53 -36v-44q49 23 91 62v-284zM442 -15h246v45h-170l18 17l43 45q49 40 85 84h-1q23 37 23 74q0 38 -26 66q-30 28 -89 28q-47 0 -75.5 -22.5t-43.5 -71.5q4 0 16.5 -1t17.5 -2h-1q5 0 8 -1h10q7 22 23 41q22 13 44 13
q30 0 45.5 -17t15.5 -46q0 -23 -17 -48q-18 -21 -70 -67q-58 -50 -83 -94q-10 -15 -19 -43zM110 -28h51l285 486l160 271h-52l-129 -221l-72 -123l-56 -95z" />
    <glyph glyph-name="threequarters" unicode="&#xbe;" horiz-adv-x="713" 
d="M600 100h-114q28 41 67 92l47 65v-157zM76 455l-51 -6q26 -92 121 -92q58 0 90 33q29 34 29 74q0 65 -68 89v14q54 25 54 73q0 35 -23 60q-28 26 -85 26q-43 0 -73 -21q-21 -21 -37 -59q9 -3 49 -12q22 52 61 52q26 0 40 -15t14 -38t-16.5 -39t-46.5 -20v-1q-2 -4 -2 -9
q-3 -8 -5 -21q0 -3 -1 -7h11h5q69 0 69 -62q0 -34 -19 -54q-19 -21 -50 -21q-24 0 -45 16q-10 9 -21 40zM120 -28h51l148 251l138 235l56 97l102 174h-51l-87 -148l-55 -96l-169 -287zM600 -15h47v77h43v38h-43v244h-43l-130 -185q-22 -32 -34 -47v-50h160v-77z" />
    <glyph glyph-name="questiondown" unicode="&#xbf;" horiz-adv-x="530" 
d="M455 -19h2h4l-5 6q0 -3 -1 -6zM305 515h-76v-87h76v87zM299 335h-59q-2 -39 -9 -73q-7 -30 -17 -46v1q-8 -14 -47 -59q-59 -64 -72 -96q-17 -42 -17 -84q0 -79 49 -136q54 -56 140 -56q77 0 126 50.5t62 144.5q-5 1 -14 2.5t-11 1.5q-33 6 -40 7q-27 -148 -124 -148
q-50 0 -87 42q-36 40 -36 98q0 28 12 57q13 30 50 68q38 38 55 60h-1q19 31 28 58q13 45 13 89v4q0 8 -1 15z" />
    <glyph glyph-name="Agrave" unicode="&#xc0;" horiz-adv-x="577" 
d="M185 285l70 226q19 73 31 140h11q6 -27 42 -152l51 -163q4 -15 16 -51h-221zM27 0h72q2 8 9 28.5t10 32.5q8 28 20 64q3 10 6.5 22.5t8 28.5t6.5 24l7 22h261l68 -222h81q-13 41 -25 74l-168 496h-1q-5 17 -36 109q-8 21 -13 37h-79l-36 -112l-95 -300zM206 898h10
q-1 1 -1 2v-1q-1 2 -2.5 3.5t-1.5 2.5zM349 772l-49 126h-84l27 -41q4 -7 9.5 -15.5t13 -19t11.5 -16.5q3 -4 11 -15.5t13 -18.5h48z" />
    <glyph glyph-name="Aacute" unicode="&#xc1;" horiz-adv-x="577" 
d="M185 285l70 226q19 73 31 140h11q6 -27 42 -152l51 -163q4 -15 16 -51h-221zM27 0h72q2 8 9 28.5t10 32.5q8 28 20 64q3 10 6.5 22.5t8 28.5t6.5 24l7 22h261l68 -222h81q-13 41 -25 74l-168 496h-1q-5 17 -36 109q-8 21 -13 37h-79l-36 -112l-95 -300zM252 772h50
q1 1 11 19q5 7 12.5 19t8.5 13l17 25l32 50h-82q-1 -3 -4 -9.5t-4 -8.5q-1 -5 -5 -15t-5 -14l-11 -27q-3 -9 -10 -26t-10 -26z" />
    <glyph glyph-name="Acircumflex" unicode="&#xc2;" horiz-adv-x="577" 
d="M185 285l70 226q19 73 31 140h11q6 -27 42 -152l51 -163q4 -15 16 -51h-221zM27 0h72q2 8 9 28.5t10 32.5q8 28 20 64q3 10 6.5 22.5t8 28.5t6.5 24l7 22h261l68 -222h81q-13 41 -25 74l-168 496h-1q-5 17 -36 109q-8 21 -13 37h-79l-36 -112l-95 -300zM293 863l47 -91
h71q-24 40 -37 55q-11 20 -46 71h-75q-3 -6 -20 -31q-9 -16 -20 -32q-3 -6 -13.5 -21.5t-15.5 -24.5v-1q-6 -8 -11 -16h71z" />
    <glyph glyph-name="Atilde" unicode="&#xc3;" horiz-adv-x="577" 
d="M185 285l70 226q19 73 31 140h11q6 -27 42 -152l51 -163q4 -15 16 -51h-221zM27 0h72q2 8 9 28.5t10 32.5q8 28 20 64q3 10 6.5 22.5t8 28.5t6.5 24l7 22h261l68 -222h81q-13 41 -25 74l-168 496h-1q-5 17 -36 109q-8 21 -13 37h-79l-36 -112l-95 -300zM169 773h44
q3 25 11 33q13 15 26 15q14 0 43 -19q39 -27 66 -27q30 0 50 25t25 73h-44q-4 -24 -12 -33.5t-22 -9.5q-16 0 -41 15q-41 27 -68 27q-32 0 -56 -30q-17 -18 -22 -69z" />
    <glyph glyph-name="Adieresis" unicode="&#xc4;" horiz-adv-x="577" 
d="M185 285l70 226q19 73 31 140h11q6 -27 42 -152l51 -163q4 -15 16 -51h-221zM27 0h72q2 8 9 28.5t10 32.5q8 28 20 64q3 10 6.5 22.5t8 28.5t6.5 24l7 22h261l68 -222h81q-13 41 -25 74l-168 496h-1q-5 17 -36 109q-8 21 -13 37h-79l-36 -112l-95 -300zM181 774h66v88
h-66v-88zM333 774h67v88h-67v-88z" />
    <glyph glyph-name="Aring" unicode="&#xc5;" horiz-adv-x="577" 
d="M185 285l70 226q19 73 31 140h11q6 -27 42 -152l51 -163q4 -15 16 -51h-221zM27 0h72q2 8 9 28.5t10 32.5q8 28 20 64q3 10 6.5 22.5t8 28.5t6.5 24l7 22h261l68 -222h81q-13 41 -25 74l-168 496h-1q-5 17 -36 109q-8 21 -13 37h-79l-36 -112l-95 -300zM244 787
q0 24 14 43q17 18 35 18q20 0 36 -17q13 -19 13 -45q0 -23 -13 -44q-16 -17 -36 -17q-16 0 -34 15q-15 23 -15 47zM225 788q0 -40 19 -62q18 -23 49 -23q27 0 48 24q20 25 20 59q0 35 -20 58q-21 26 -48 26q-29 0 -48 -26q-20 -20 -20 -56z" />
    <glyph glyph-name="AE" unicode="&#xc6;" horiz-adv-x="851" 
d="M198 282l145 364h70v-364h-215zM14 0h73l46 116q10 24 23 59q8 19 13 36h244v-211h383v70h-315v265h283v70h-283v241h306v70h-490l-110 -280l-92 -231z" />
    <glyph glyph-name="Ccedilla" unicode="&#xc7;" horiz-adv-x="622" 
d="M587 218l-69 22q-19 -91 -66 -138.5t-113 -47.5q-56 0 -105 37q-96 71 -96 273q0 64 19 142q17 69 66 113q51 42 123 42q118 0 164 -151q1 0 4 1t4 1q4 1 12 3.5t11 3.5q4 1 16 4.5t19 5.5q-28 98 -80 145q-66 55 -150 55q-75 0 -145 -43q-67 -45 -98 -127
q-35 -77 -35 -196q0 -103 29 -193q34 -85 96.5 -133.5t152.5 -48.5q88 0 156 60q59 61 85 170zM298 -4l-17 -74q36 -3 48 -12.5t14 -25.5q0 -23 -14 -34q-17 -13 -55 -13h-5q-19 0 -31 1q0 -10 -1 -13v-5q0 -8 -1 -13q0 -2 -0.5 -6.5t-0.5 -5.5q25 -5 53 -5q60 0 87 27
q26 25 26 60q0 22 -18.5 40.5t-52.5 25.5l13 53h-45z" />
    <glyph glyph-name="Egrave" unicode="&#xc8;" horiz-adv-x="577" 
d="M93 0h438v70h-370v266h333v70h-333v240h356v70h-424v-716zM216 898h10q-1 1 -1 2v-1q-1 2 -2.5 3.5t-1.5 2.5zM359 772l-49 126h-84l27 -41q4 -7 9.5 -15.5t13 -19t11.5 -16.5q3 -4 11 -15.5t13 -18.5h48z" />
    <glyph glyph-name="Eacute" unicode="&#xc9;" horiz-adv-x="577" 
d="M93 0h438v70h-370v266h333v70h-333v240h356v70h-424v-716zM260 772h50q1 1 11 19q5 7 12.5 19t8.5 13l17 25l32 50h-82q-1 -3 -4 -9.5t-4 -8.5q-1 -5 -5 -15t-5 -14l-11 -27q-3 -9 -10 -26t-10 -26z" />
    <glyph glyph-name="Ecircumflex" unicode="&#xca;" horiz-adv-x="577" 
d="M93 0h438v70h-370v266h333v70h-333v240h356v70h-424v-716zM311 863l47 -91h71q-24 40 -37 55q-11 20 -46 71h-75q-3 -6 -20 -31q-9 -16 -20 -32q-3 -6 -13.5 -21.5t-15.5 -24.5v-1q-6 -8 -11 -16h71z" />
    <glyph glyph-name="Edieresis" unicode="&#xcb;" horiz-adv-x="577" 
d="M93 0h438v70h-370v266h333v70h-333v240h356v70h-424v-716zM201 774h66v88h-66v-88zM353 774h67v88h-67v-88z" />
    <glyph glyph-name="Igrave" unicode="&#xcc;" horiz-adv-x="255" 
d="M107 0h68v716h-68v-716zM49 898h10q-1 1 -1 2v-1q-1 2 -2.5 3.5t-1.5 2.5zM192 772l-49 126h-84l27 -41q4 -7 9.5 -15.5t13 -19t11.5 -16.5q3 -4 11 -15.5t13 -18.5h48z" />
    <glyph glyph-name="Iacute" unicode="&#xcd;" horiz-adv-x="255" 
d="M107 0h68v716h-68v-716zM91 772h50q1 1 11 19q5 7 12.5 19t8.5 13l17 25l32 50h-82q-1 -3 -4 -9.5t-4 -8.5q-1 -5 -5 -15t-5 -14l-11 -27q-3 -9 -10 -26t-10 -26z" />
    <glyph glyph-name="Icircumflex" unicode="&#xce;" horiz-adv-x="255" 
d="M107 0h68v716h-68v-716zM141 863l47 -91h71q-24 40 -37 55q-11 20 -46 71h-75q-3 -6 -20 -31q-9 -16 -20 -32q-3 -6 -13.5 -21.5t-15.5 -24.5v-1q-6 -8 -11 -16h71z" />
    <glyph glyph-name="Idieresis" unicode="&#xcf;" horiz-adv-x="255" 
d="M107 0h68v716h-68v-716zM31 774h66v88h-66v-88zM183 774h67v88h-67v-88z" />
    <glyph glyph-name="Eth" unicode="&#xd0;" horiz-adv-x="622" 
d="M147 70v263h165v51h-165v262h132q60 0 97 -13q31 -11 59 -44q30 -42 43 -86q16 -60 16 -140q0 -163 -63 -239q-21 -25 -55 -40q-36 -14 -96 -14h-133zM78 0h213q58 0 85 9q56 19 94 51h-1q37 32 68 112q28 77 28 190q0 198 -92 293q-32 35 -86 51q-42 10 -107 10h-202
v-332h-68v-51h68v-333z" />
    <glyph glyph-name="Ntilde" unicode="&#xd1;" horiz-adv-x="622" 
d="M89 0h65v572l8 2l319 -574h73v716h-66v-572l-8 -2l-318 574h-73v-716zM201 773h44q3 25 11 33q13 15 26 15q14 0 43 -19q39 -27 66 -27q30 0 50 25t25 73h-44q-4 -24 -12 -33.5t-22 -9.5q-16 0 -41 15q-41 27 -68 27q-32 0 -56 -30q-17 -18 -22 -69z" />
    <glyph glyph-name="Ograve" unicode="&#xd2;" horiz-adv-x="667" 
d="M137 347q0 163 63 242q63 72 148 72q62 0 112 -37q99 -78 99 -266q0 -141 -59 -224q-62 -80 -153 -80q-87 0 -151 79q-59 80 -59 214zM64 349q0 -96 34 -180q33 -80 100 -132q66 -49 149 -49q79 0 145 44q69 47 103 131q36 84 36 194t-34 192q-35 86 -100 133
q-67 47 -149 47q-124 0 -204 -101q-80 -102 -80 -279zM244 898h10q-1 1 -1 2v-1q-1 2 -2.5 3.5t-1.5 2.5zM387 772l-49 126h-84l27 -41q4 -7 9.5 -15.5t13 -19t11.5 -16.5q3 -4 11 -15.5t13 -18.5h48z" />
    <glyph glyph-name="Oacute" unicode="&#xd3;" horiz-adv-x="667" 
d="M137 347q0 163 63 242q63 72 148 72q62 0 112 -37q99 -78 99 -266q0 -141 -59 -224q-62 -80 -153 -80q-87 0 -151 79q-59 80 -59 214zM64 349q0 -96 34 -180q33 -80 100 -132q66 -49 149 -49q79 0 145 44q69 47 103 131q36 84 36 194t-34 192q-35 86 -100 133
q-67 47 -149 47q-124 0 -204 -101q-80 -102 -80 -279zM306 772h50q1 1 11 19q5 7 12.5 19t8.5 13l17 25l32 50h-82q-1 -3 -4 -9.5t-4 -8.5q-1 -5 -5 -15t-5 -14l-11 -27q-3 -9 -10 -26t-10 -26z" />
    <glyph glyph-name="Ocircumflex" unicode="&#xd4;" horiz-adv-x="667" 
d="M137 347q0 163 63 242q63 72 148 72q62 0 112 -37q99 -78 99 -266q0 -141 -59 -224q-62 -80 -153 -80q-87 0 -151 79q-59 80 -59 214zM64 349q0 -96 34 -180q33 -80 100 -132q66 -49 149 -49q79 0 145 44q69 47 103 131q36 84 36 194t-34 192q-35 86 -100 133
q-67 47 -149 47q-124 0 -204 -101q-80 -102 -80 -279zM346 863l47 -91h71q-24 40 -37 55q-11 20 -46 71h-75q-3 -6 -20 -31q-9 -16 -20 -32q-3 -6 -13.5 -21.5t-15.5 -24.5v-1q-6 -8 -11 -16h71z" />
    <glyph glyph-name="Otilde" unicode="&#xd5;" horiz-adv-x="667" 
d="M137 347q0 163 63 242q63 72 148 72q62 0 112 -37q99 -78 99 -266q0 -141 -59 -224q-62 -80 -153 -80q-87 0 -151 79q-59 80 -59 214zM64 349q0 -96 34 -180q33 -80 100 -132q66 -49 149 -49q79 0 145 44q69 47 103 131q36 84 36 194t-34 192q-35 86 -100 133
q-67 47 -149 47q-124 0 -204 -101q-80 -102 -80 -279zM215 773h44q3 25 11 33q13 15 26 15q14 0 43 -19q39 -27 66 -27q30 0 50 25t25 73h-44q-4 -24 -12 -33.5t-22 -9.5q-16 0 -41 15q-41 27 -68 27q-32 0 -56 -30q-17 -18 -22 -69z" />
    <glyph glyph-name="Odieresis" unicode="&#xd6;" horiz-adv-x="667" 
d="M137 347q0 163 63 242q63 72 148 72q62 0 112 -37q99 -78 99 -266q0 -141 -59 -224q-62 -80 -153 -80q-87 0 -151 79q-59 80 -59 214zM64 349q0 -96 34 -180q33 -80 100 -132q66 -49 149 -49q79 0 145 44q69 47 103 131q36 84 36 194t-34 192q-35 86 -100 133
q-67 47 -149 47q-124 0 -204 -101q-80 -102 -80 -279zM237 774h66v88h-66v-88zM389 774h67v88h-67v-88z" />
    <glyph glyph-name="multiply" unicode="&#xd7;" horiz-adv-x="507" 
d="M83 197l41 -51l53 64l77 93l128 -156q8 10 23.5 28t19.5 23q-1 2 -4.5 5.5t-4.5 5.5l-122 145l129 156q-1 2 -4 6t-4 5q-2 2 -4.5 5t-3.5 4l-24 30l-44 -51l-85 -105l-130 157l-41 -51l70 -86l59 -70z" />
    <glyph glyph-name="Oslash" unicode="&#xd8;" horiz-adv-x="667" 
d="M191 122l316 429q39 -106 39 -196q0 -140 -62 -221q-60 -80 -151 -80q-41 0 -77 18q-27 14 -65 50zM479 590l-317 -429l-6 17q-21 58 -24 74q-10 44 -10 106q0 151 60 227q62 76 152 76q40 0 70 -13q31 -16 75 -58zM590 742l-69 -96q-57 52 -91 64q-42 19 -96 19
q-78 0 -147 -45q-63 -45 -101 -130q-36 -88 -36 -198q0 -66 13 -124v1q21 -63 57 -131l-73 -96l15 -15q3 -5 15 -15l3 -3q24 34 38 50h-1q6 10 33 43q56 -49 84 -60q49 -18 101 -18q80 0 141 44q68 44 104 130q36 84 36 196q0 81 -16 138q-14 52 -51 114l74 98l-2 2l-11 12
l-8 8z" />
    <glyph glyph-name="Ugrave" unicode="&#xd9;" horiz-adv-x="622" 
d="M485 716v-413q0 -142 -39 -193q-40 -51 -128 -51q-52 0 -91 25q-34 23 -53 77q-15 52 -15 142v413h-67v-415q0 -117 22 -180v1q24 -63 77.5 -98.5t132.5 -35.5q89 0 139 38q55 45 71 103q22 68 22 172v415h-71zM218 898h10q-1 1 -1 2v-1q-1 2 -2.5 3.5t-1.5 2.5zM361 772
l-49 126h-84l27 -41q4 -7 9.5 -15.5t13 -19t11.5 -16.5q3 -4 11 -15.5t13 -18.5h48z" />
    <glyph glyph-name="Uacute" unicode="&#xda;" horiz-adv-x="622" 
d="M485 716v-413q0 -142 -39 -193q-40 -51 -128 -51q-52 0 -91 25q-34 23 -53 77q-15 52 -15 142v413h-67v-415q0 -117 22 -180v1q24 -63 77.5 -98.5t132.5 -35.5q89 0 139 38q55 45 71 103q22 68 22 172v415h-71zM281 772h50q1 1 11 19q5 7 12.5 19t8.5 13l17 25l32 50h-82
q-1 -3 -4 -9.5t-4 -8.5q-1 -5 -5 -15t-5 -14l-11 -27q-3 -9 -10 -26t-10 -26z" />
    <glyph glyph-name="Ucircumflex" unicode="&#xdb;" horiz-adv-x="622" 
d="M485 716v-413q0 -142 -39 -193q-40 -51 -128 -51q-52 0 -91 25q-34 23 -53 77q-15 52 -15 142v413h-67v-415q0 -117 22 -180v1q24 -63 77.5 -98.5t132.5 -35.5q89 0 139 38q55 45 71 103q22 68 22 172v415h-71zM322 863l47 -91h71q-24 40 -37 55q-11 20 -46 71h-75
q-3 -6 -20 -31q-9 -16 -20 -32q-3 -6 -13.5 -21.5t-15.5 -24.5v-1q-6 -8 -11 -16h71z" />
    <glyph glyph-name="Udieresis" unicode="&#xdc;" horiz-adv-x="622" 
d="M485 716v-413q0 -142 -39 -193q-40 -51 -128 -51q-52 0 -91 25q-34 23 -53 77q-15 52 -15 142v413h-67v-415q0 -117 22 -180v1q24 -63 77.5 -98.5t132.5 -35.5q89 0 139 38q55 45 71 103q22 68 22 172v415h-71zM212 774h66v88h-66v-88zM364 774h67v88h-67v-88z" />
    <glyph glyph-name="Yacute" unicode="&#xdd;" horiz-adv-x="577" 
d="M261 0h68v306l236 410h-80q-10 -17 -17 -32q-12 -21 -48 -90q-1 -2 -7 -11q-19 -37 -44 -80l-69 -138q-19 44 -66 134q-4 7 -16 29t-18 34l-83 154h-84l104 -188l124 -222v-306zM256 772h50q1 1 11 19q5 7 12.5 19t8.5 13l17 25l32 50h-82q-1 -3 -4 -9.5t-4 -8.5
q-1 -5 -5 -15t-5 -14l-11 -27q-3 -9 -10 -26t-10 -26z" />
    <glyph glyph-name="Thorn" unicode="&#xde;" horiz-adv-x="577" 
d="M147 219v278h158q54 0 76 -9v1q34 -10 54.5 -45.5t20.5 -83.5q0 -65 -32 -102q-41 -39 -116 -39h-161zM78 0h69v149h158q123 0 175 62q46 66 46 152q0 56 -16 95q-34 81 -119 102q-34 7 -92 7h-152v149h-69v-716z" />
    <glyph glyph-name="germandbls" unicode="&#xdf;" horiz-adv-x="530" 
d="M75 0h64v487q0 113 29 148t76 35q40 0 62 -24q25 -26 25 -62q0 -22 -7 -42q-8 -29 -28 -66q-18 -37 -25 -63q-6 -28 -6 -37q0 -24 15 -54q18 -26 83 -83h-1q42 -35 49 -46v1q14 -23 14 -53q0 -37 -24 -67q-25 -28 -57 -28q-23 0 -43.5 18t-42.5 62l-12 -6q-6 -3 -15 -8
t-16 -8.5t-12 -7.5q21 -46 54 -76q37 -32 89 -32q62 0 103 47t41 112q0 50 -24 85q-22 29 -74 71q-41 34 -50 51q-12 18 -12 37q0 1 3 22q0 1 1.5 5t1.5 5q3 6 5 12q1 2 7.5 18t11.5 25q33 73 33 115q0 51 -38 94q-42 42 -108 42q-52 0 -96 -28h1q-43 -28 -59 -74
q-18 -51 -18 -136v-491z" />
    <glyph glyph-name="agrave" unicode="&#xe0;" 
d="M360 270v-45q0 -59 -12 -94q-18 -41 -51.5 -65t-77.5 -24q-45 0 -69 25.5t-24 66.5q0 32 11 48q14 24 32 31h-1q21 10 67 19q73 13 125 38zM356 61l11 -4q1 -31 12 -57h64q-10 29 -13 55q-5 38 -5 159v120q0 65 -4 81q-4 32 -21 59v-1q-37 53 -139 53q-53 0 -97 -18
q-72 -35 -93 -130q5 -1 15 -2l11 -2q16 -2 31 -5q2 -1 3 -1h2q11 52 37 76q27 23 80 23q57 0 88 -31q23 -26 23 -84v-7q0 -1 -0.5 -4t-0.5 -5v-13q-40 -17 -136 -34q-52 -7 -66 -13q-43 -13 -72 -51t-29 -93q0 -59 37 -104q42 -40 106 -40q41 0 81 16q41 21 75 57zM163 721
h10q-1 1 -1 2v-1q-1 2 -2.5 3.5t-1.5 2.5zM306 595l-49 126h-84l27 -41q4 -7 9.5 -15.5t13 -19t11.5 -16.5q3 -4 11 -15.5t13 -18.5h48z" />
    <glyph glyph-name="aacute" unicode="&#xe1;" 
d="M360 270v-45q0 -59 -12 -94q-18 -41 -51.5 -65t-77.5 -24q-45 0 -69 25.5t-24 66.5q0 32 11 48q14 24 32 31h-1q21 10 67 19q73 13 125 38zM356 61l11 -4q1 -31 12 -57h64q-10 29 -13 55q-5 38 -5 159v120q0 65 -4 81q-4 32 -21 59v-1q-37 53 -139 53q-53 0 -97 -18
q-72 -35 -93 -130q5 -1 15 -2l11 -2q16 -2 31 -5q2 -1 3 -1h2q11 52 37 76q27 23 80 23q57 0 88 -31q23 -26 23 -84v-7q0 -1 -0.5 -4t-0.5 -5v-13q-40 -17 -136 -34q-52 -7 -66 -13q-43 -13 -72 -51t-29 -93q0 -59 37 -104q42 -40 106 -40q41 0 81 16q41 21 75 57zM220 595
h50q1 2 11 19q5 7 12.5 19t8.5 13l17 25l32 50h-82q-1 -3 -4 -9.5t-4 -8.5q-1 -5 -5 -15t-5 -14l-11 -27q-3 -9 -10 -26t-10 -26z" />
    <glyph glyph-name="acircumflex" unicode="&#xe2;" 
d="M360 270v-45q0 -59 -12 -94q-18 -41 -51.5 -65t-77.5 -24q-45 0 -69 25.5t-24 66.5q0 32 11 48q14 24 32 31h-1q21 10 67 19q73 13 125 38zM356 61l11 -4q1 -31 12 -57h64q-10 29 -13 55q-5 38 -5 159v120q0 65 -4 81q-4 32 -21 59v-1q-37 53 -139 53q-53 0 -97 -18
q-72 -35 -93 -130q5 -1 15 -2l11 -2q16 -2 31 -5q2 -1 3 -1h2q11 52 37 76q27 23 80 23q57 0 88 -31q23 -26 23 -84v-7q0 -1 -0.5 -4t-0.5 -5v-13q-40 -17 -136 -34q-52 -7 -66 -13q-43 -13 -72 -51t-29 -93q0 -59 37 -104q42 -40 106 -40q41 0 81 16q41 21 75 57zM254 686
l47 -91h71q-24 40 -37 55q-11 20 -46 71h-75q-3 -6 -20 -31q-9 -16 -20 -32q-3 -6 -13.5 -21.5t-15.5 -24.5v-1q-6 -8 -11 -16h71z" />
    <glyph glyph-name="atilde" unicode="&#xe3;" 
d="M360 270v-45q0 -59 -12 -94q-18 -41 -51.5 -65t-77.5 -24q-45 0 -69 25.5t-24 66.5q0 32 11 48q14 24 32 31h-1q21 10 67 19q73 13 125 38zM356 61l11 -4q1 -31 12 -57h64q-10 29 -13 55q-5 38 -5 159v120q0 65 -4 81q-4 32 -21 59v-1q-37 53 -139 53q-53 0 -97 -18
q-72 -35 -93 -130q5 -1 15 -2l11 -2q16 -2 31 -5q2 -1 3 -1h2q11 52 37 76q27 23 80 23q57 0 88 -31q23 -26 23 -84v-7q0 -1 -0.5 -4t-0.5 -5v-13q-40 -17 -136 -34q-52 -7 -66 -13q-43 -13 -72 -51t-29 -93q0 -59 37 -104q42 -40 106 -40q41 0 81 16q41 21 75 57zM121 608
h44q3 25 11 33q13 15 26 15q14 0 43 -19q39 -27 66 -27q30 0 50 25t25 73h-44q-4 -24 -12 -33.5t-22 -9.5q-16 0 -41 15q-41 27 -68 27q-32 0 -56 -30q-17 -18 -22 -69z" />
    <glyph glyph-name="adieresis" unicode="&#xe4;" 
d="M360 270v-45q0 -59 -12 -94q-18 -41 -51.5 -65t-77.5 -24q-45 0 -69 25.5t-24 66.5q0 32 11 48q14 24 32 31h-1q21 10 67 19q73 13 125 38zM356 61l11 -4q1 -31 12 -57h64q-10 29 -13 55q-5 38 -5 159v120q0 65 -4 81q-4 32 -21 59v-1q-37 53 -139 53q-53 0 -97 -18
q-72 -35 -93 -130q5 -1 15 -2l11 -2q16 -2 31 -5q2 -1 3 -1h2q11 52 37 76q27 23 80 23q57 0 88 -31q23 -26 23 -84v-7q0 -1 -0.5 -4t-0.5 -5v-13q-40 -17 -136 -34q-52 -7 -66 -13q-43 -13 -72 -51t-29 -93q0 -59 37 -104q42 -40 106 -40q41 0 81 16q41 21 75 57zM144 634
h66v88h-66v-88zM296 634h67v88h-67v-88z" />
    <glyph glyph-name="aring" unicode="&#xe5;" 
d="M360 270v-45q0 -59 -12 -94q-18 -41 -51.5 -65t-77.5 -24q-45 0 -69 25.5t-24 66.5q0 32 11 48q14 24 32 31h-1q21 10 67 19q73 13 125 38zM356 61l11 -4q1 -31 12 -57h64q-10 29 -13 55q-5 38 -5 159v120q0 65 -4 81q-4 32 -21 59v-1q-37 53 -139 53q-53 0 -97 -18
q-72 -35 -93 -130q5 -1 15 -2l11 -2q16 -2 31 -5q2 -1 3 -1h2q11 52 37 76q27 23 80 23q57 0 88 -31q23 -26 23 -84v-7q0 -1 -0.5 -4t-0.5 -5v-13q-40 -17 -136 -34q-52 -7 -66 -13q-43 -13 -72 -51t-29 -93q0 -59 37 -104q42 -40 106 -40q41 0 81 16q41 21 75 57zM204 659
q0 24 14 43q17 18 35 18q20 0 36 -17q13 -19 13 -45q0 -23 -13 -44q-16 -17 -36 -17q-16 0 -34 15q-15 23 -15 47zM185 660q0 -40 19 -62q18 -23 49 -23q27 0 48 24q20 25 20 59q0 35 -20 58q-21 26 -48 26q-29 0 -48 -26q-20 -20 -20 -56z" />
    <glyph glyph-name="ae" unicode="&#xe6;" horiz-adv-x="758" 
d="M651 301h-255q11 86 41 125q38 41 88 41q110 0 126 -166zM326 265l10 -11q0 -84 -6 -107v1q-11 -46 -49 -76t-84 -30q-43 0 -67 27h1q-25 27 -25 66t27 69q18 17 66 26q79 14 127 35zM710 147l-65 11q-14 -53 -44.5 -82t-71.5 -29q-37 0 -68 21q-31 22 -47 58
q-15 31 -17 116h308v-20q5 7 22 25q-4 -1 -8.5 -2.5t-5.5 -1.5q4 14 4 22q0 58 -22 124h1q-20 60 -62 100q-41 37 -108 37q-80 0 -140 -74q-24 40 -43 49q-40 25 -109 25q-54 0 -93 -18q-41 -20 -58 -52q-18 -29 -31 -80q2 0 5 -0.5t7 -1.5t6 -1q16 -2 21 -2q12 -3 18 -4h1
l2 -1q10 45 21 59v-1q25 43 101 43q52 0 78 -26q24 -29 24 -94v-27q-39 -13 -108 -26q-71 -11 -118 -31h1q-34 -22 -53 -55q-21 -38 -21 -76q0 -51 37 -103q43 -41 108 -41q91 0 181 102q73 -102 163 -102q66 0 113.5 41t70.5 118z" />
    <glyph glyph-name="ccedilla" unicode="&#xe7;" horiz-adv-x="438" 
d="M429 168l-62 10q-11 -65 -41 -98t-74 -33q-59 0 -91 51q-36 50 -36 159q0 108 37 160q36 51 95 51q77 0 102 -106q5 0 13 2q5 1 13 2.5t9 1.5q4 1 14 3q12 3 13 3q-16 74 -58.5 113t-108.5 39q-56 0 -103 -31q-44 -32 -68.5 -95.5t-24.5 -145.5q0 -123 53 -197
q56 -69 141 -69q72 0 119 50q43 48 58 130zM214 6l-17 -74q36 -3 48 -12.5t14 -25.5q0 -23 -14 -34q-17 -13 -55 -13h-5q-19 0 -31 1q0 -10 -1 -13v-5q0 -8 -1 -13q0 -2 -0.5 -6.5t-0.5 -5.5q25 -5 53 -5q60 0 87 27q26 25 26 60q0 22 -18.5 40.5t-52.5 25.5l13 53h-45z" />
    <glyph glyph-name="egrave" unicode="&#xe8;" 
d="M383 301h-258q9 84 43 124q34 43 89 43q59 0 94 -53q23 -37 32 -114zM444 145l-66 10q-35 -108 -117 -108q-57 0 -94 48q-39 49 -44 147h327v15q0 130 -55 200q-55 69 -138 69q-91 0 -145 -71q-55 -70 -55 -203q0 -116 54 -194q60 -70 150 -70q68 0 115 40.5t68 116.5z
M151 721h10q-1 1 -1 2v-1q-1 2 -2.5 3.5t-1.5 2.5zM294 595l-49 126h-84l27 -41q4 -7 9.5 -15.5t13 -19t11.5 -16.5q3 -4 11 -15.5t13 -18.5h48z" />
    <glyph glyph-name="eacute" unicode="&#xe9;" 
d="M383 301h-258q9 84 43 124q34 43 89 43q59 0 94 -53q23 -37 32 -114zM444 145l-66 10q-35 -108 -117 -108q-57 0 -94 48q-39 49 -44 147h327v15q0 130 -55 200q-55 69 -138 69q-91 0 -145 -71q-55 -70 -55 -203q0 -116 54 -194q60 -70 150 -70q68 0 115 40.5t68 116.5z
M221 595h50q1 2 11 19q5 7 12.5 19t8.5 13l17 25l32 50h-82q-1 -3 -4 -9.5t-4 -8.5q-1 -5 -5 -15t-5 -14l-11 -27q-3 -9 -10 -26t-10 -26z" />
    <glyph glyph-name="ecircumflex" unicode="&#xea;" 
d="M383 301h-258q9 84 43 124q34 43 89 43q59 0 94 -53q23 -37 32 -114zM444 145l-66 10q-35 -108 -117 -108q-57 0 -94 48q-39 49 -44 147h327v15q0 130 -55 200q-55 69 -138 69q-91 0 -145 -71q-55 -70 -55 -203q0 -116 54 -194q60 -70 150 -70q68 0 115 40.5t68 116.5z
M254 686l47 -91h71q-24 40 -37 55q-11 20 -46 71h-75q-3 -6 -20 -31q-9 -16 -20 -32q-3 -6 -13.5 -21.5t-15.5 -24.5v-1q-6 -8 -11 -16h71z" />
    <glyph glyph-name="edieresis" unicode="&#xeb;" 
d="M383 301h-258q9 84 43 124q34 43 89 43q59 0 94 -53q23 -37 32 -114zM444 145l-66 10q-35 -108 -117 -108q-57 0 -94 48q-39 49 -44 147h327v15q0 130 -55 200q-55 69 -138 69q-91 0 -145 -71q-55 -70 -55 -203q0 -116 54 -194q60 -70 150 -70q68 0 115 40.5t68 116.5z
M144 634h66v88h-66v-88zM296 634h67v88h-67v-88z" />
    <glyph glyph-name="igrave" unicode="&#xec;" horiz-adv-x="255" 
d="M111 0h62v515h-62v-515zM40 721h10q-1 1 -1 2v-1q-1 2 -2.5 3.5t-1.5 2.5zM183 595l-49 126h-84l27 -41q4 -7 9.5 -15.5t13 -19t11.5 -16.5q3 -4 11 -15.5t13 -18.5h48z" />
    <glyph glyph-name="iacute" unicode="&#xed;" horiz-adv-x="255" 
d="M111 0h62v515h-62v-515zM110 595h50q1 2 11 19q5 7 12.5 19t8.5 13l17 25l32 50h-82q-1 -3 -4 -9.5t-4 -8.5q-1 -5 -5 -15t-5 -14l-11 -27q-3 -9 -10 -26t-10 -26z" />
    <glyph glyph-name="icircumflex" unicode="&#xee;" horiz-adv-x="255" 
d="M111 0h62v515h-62v-515zM147 686l47 -91h71q-24 40 -37 55q-11 20 -46 71h-75q-3 -6 -20 -31q-9 -16 -20 -32q-3 -6 -13.5 -21.5t-15.5 -24.5v-1q-6 -8 -11 -16h71z" />
    <glyph glyph-name="idieresis" unicode="&#xef;" horiz-adv-x="255" 
d="M111 0h62v515h-62v-515zM33 634h66v88h-66v-88zM185 634h67v88h-67v-88z" />
    <glyph glyph-name="eth" unicode="&#xf0;" 
d="M372 255q0 -101 -40 -156q-35 -53 -93 -53t-93 50q-38 52 -38 153q0 107 37 159q39 53 92 53q56 0 95 -53q40 -54 40 -153zM223 716h-68q52 -50 75 -76l-102 -57q1 -3 4 -10.5t4 -11.5q2 -4 4 -8.5t3 -6.5q53 29 67 38q21 11 42 24q22 -26 38 -54q4 -8 14 -33
q2 -3 9 -20.5t10 -23.5q-33 21 -58 32h1q-18 6 -42 6q-80 0 -129 -70q-52 -68 -52 -195q0 -103 38 -168h-1q61 -94 159 -94q83 0 143 71q56 72 56 192q0 187 -136 383l72 44q-2 4 -2 7q-1 3 -3.5 9t-2.5 7q0 3 -4 11l-1 1v1q-30 -17 -58 -35v1l-4 -3l-10 -5l-14 -7
q-35 36 -52 51z" />
    <glyph glyph-name="ntilde" unicode="&#xf1;" 
d="M81 0h65v282q0 104 35 144q38 38 86 38q29 0 55 -18q22 -14 32 -48q8 -36 8 -84v-314h65v318q0 63 -5 86q-5 37 -21 62q-15 26 -49 43q-30 17 -70 17q-77 0 -144 -102v91h-57v-515zM134 608h44q3 25 11 33q13 15 26 15q14 0 43 -19q39 -27 66 -27q30 0 50 25t25 73h-44
q-4 -24 -12 -33.5t-22 -9.5q-15 0 -41 15q-41 27 -68 27q-32 0 -56 -30q-17 -18 -22 -69z" />
    <glyph glyph-name="ograve" unicode="&#xf2;" 
d="M126 256q0 104 36 159q42 52 98 52t95 -52q38 -53 38 -154q0 -109 -38 -161q-38 -53 -95 -53q-55 0 -98 52q-36 53 -36 157zM59 256q0 -118 55 -198q60 -70 146 -70q54 0 103 32q49 33 69 87q28 61 28 158q0 121 -57 192q-55 69 -143 69q-82 0 -134 -58q-67 -70 -67 -212
zM152 721h10q-1 1 -1 2v-1q-1 2 -2.5 3.5t-1.5 2.5zM295 595l-49 126h-84l27 -41q4 -7 9.5 -15.5t13 -19t11.5 -16.5q3 -4 11 -15.5t13 -18.5h48z" />
    <glyph glyph-name="oacute" unicode="&#xf3;" 
d="M126 256q0 104 36 159q42 52 98 52t95 -52q38 -53 38 -154q0 -109 -38 -161q-38 -53 -95 -53q-55 0 -98 52q-36 53 -36 157zM59 256q0 -118 55 -198q60 -70 146 -70q54 0 103 32q49 33 69 87q28 61 28 158q0 121 -57 192q-55 69 -143 69q-82 0 -134 -58q-67 -70 -67 -212
zM221 595h50q1 2 11 19q5 7 12.5 19t8.5 13l17 25l32 50h-82q-1 -3 -4 -9.5t-4 -8.5q-1 -5 -5 -15t-5 -14l-11 -27q-3 -9 -10 -26t-10 -26z" />
    <glyph glyph-name="ocircumflex" unicode="&#xf4;" 
d="M126 256q0 104 36 159q42 52 98 52t95 -52q38 -53 38 -154q0 -109 -38 -161q-38 -53 -95 -53q-55 0 -98 52q-36 53 -36 157zM59 256q0 -118 55 -198q60 -70 146 -70q54 0 103 32q49 33 69 87q28 61 28 158q0 121 -57 192q-55 69 -143 69q-82 0 -134 -58q-67 -70 -67 -212
zM254 686l47 -91h71q-24 40 -37 55q-11 20 -46 71h-75q-3 -6 -20 -31q-9 -16 -20 -32q-3 -6 -13.5 -21.5t-15.5 -24.5v-1q-6 -8 -11 -16h71z" />
    <glyph glyph-name="otilde" unicode="&#xf5;" 
d="M126 256q0 104 36 159q42 52 98 52t95 -52q38 -53 38 -154q0 -109 -38 -161q-38 -53 -95 -53q-55 0 -98 52q-36 53 -36 157zM59 256q0 -118 55 -198q60 -70 146 -70q54 0 103 32q49 33 69 87q28 61 28 158q0 121 -57 192q-55 69 -143 69q-82 0 -134 -58q-67 -70 -67 -212
zM121 608h44q3 25 11 33q13 15 26 15q14 0 43 -19q39 -27 66 -27q30 0 50 25t25 73h-44q-4 -24 -12 -33.5t-22 -9.5q-16 0 -41 15q-41 27 -68 27q-32 0 -56 -30q-17 -18 -22 -69z" />
    <glyph glyph-name="odieresis" unicode="&#xf6;" 
d="M126 256q0 104 36 159q42 52 98 52t95 -52q38 -53 38 -154q0 -109 -38 -161q-38 -53 -95 -53q-55 0 -98 52q-36 53 -36 157zM59 256q0 -118 55 -198q60 -70 146 -70q54 0 103 32q49 33 69 87q28 61 28 158q0 121 -57 192q-55 69 -143 69q-82 0 -134 -58q-67 -70 -67 -212
zM144 634h66v88h-66v-88zM296 634h67v88h-67v-88z" />
    <glyph glyph-name="divide" unicode="&#xf7;" horiz-adv-x="478" 
d="M201 460h75v87h-75v-87zM201 160h75v86h-75v-86zM433 318v70h-388v-70h388z" />
    <glyph glyph-name="oslash" unicode="&#xf8;" horiz-adv-x="530" 
d="M182 84l193 305q19 -50 20 -63q5 -32 5 -69q0 -102 -38 -157q-39 -53 -99 -53q-41 0 -81 37zM353 427l-194 -307q-27 67 -27 136q0 104 36 159q40 52 98 52q43 0 87 -40zM427 546l-41 -65q-67 45 -122 45q-81 0 -141 -66q-57 -64 -57 -210q0 -71 15 -121q10 -32 38 -70
l-44 -68q6 -5 11 -12q12 -9 19 -16l21 33h-1q2 3 5 8l4 5q1 1 3 4t3 4t2.5 4t3 5t2.5 3q55 -41 116 -41q76 0 134 55q66 74 66 213q0 70 -12 115q-7 31 -36 79l42 68h-1q-14 12 -18 17l-3 3q-3 3 -9 8z" />
    <glyph glyph-name="ugrave" unicode="&#xf9;" 
d="M368 0h57v515h-65v-276q0 -71 -14 -109q-13 -39 -42 -59q-32 -21 -65 -21q-35 0 -59.5 21.5t-31.5 59.5q-4 34 -4 98v286h-65v-321q0 -55 5 -83q5 -34 23 -64q14 -23 47 -42q36 -17 71 -17q74 0 143 105v-93zM169 721h10q-1 1 -1 2v-1q-1 2 -2.5 3.5t-1.5 2.5zM312 595
l-49 126h-84l27 -41q4 -7 9.5 -15.5t13 -19t11.5 -16.5q3 -4 11 -15.5t13 -18.5h48z" />
    <glyph glyph-name="uacute" unicode="&#xfa;" 
d="M368 0h57v515h-65v-276q0 -71 -14 -109q-13 -39 -42 -59q-32 -21 -65 -21q-35 0 -59.5 21.5t-31.5 59.5q-4 34 -4 98v286h-65v-321q0 -55 5 -83q5 -34 23 -64q14 -23 47 -42q36 -17 71 -17q74 0 143 105v-93zM215 595h50q1 2 11 19q5 7 12.5 19t8.5 13l17 25l32 50h-82
q-1 -3 -4 -9.5t-4 -8.5q-1 -5 -5 -15t-5 -14l-11 -27q-3 -9 -10 -26t-10 -26z" />
    <glyph glyph-name="ucircumflex" unicode="&#xfb;" 
d="M368 0h57v515h-65v-276q0 -71 -14 -109q-13 -39 -42 -59q-32 -21 -65 -21q-35 0 -59.5 21.5t-31.5 59.5q-4 34 -4 98v286h-65v-321q0 -55 5 -83q5 -34 23 -64q14 -23 47 -42q36 -17 71 -17q74 0 143 105v-93zM253 686l47 -91h71q-24 40 -37 55q-11 20 -46 71h-75
q-3 -6 -20 -31q-9 -16 -20 -32q-3 -6 -13.5 -21.5t-15.5 -24.5v-1q-6 -8 -11 -16h71z" />
    <glyph glyph-name="udieresis" unicode="&#xfc;" 
d="M368 0h57v515h-65v-276q0 -71 -14 -109q-13 -39 -42 -59q-32 -21 -65 -21q-35 0 -59.5 21.5t-31.5 59.5q-4 34 -4 98v286h-65v-321q0 -55 5 -83q5 -34 23 -64q14 -23 47 -42q36 -17 71 -17q74 0 143 105v-93zM143 634h66v88h-66v-88zM295 634h67v88h-67v-88z" />
    <glyph glyph-name="yacute" unicode="&#xfd;" horiz-adv-x="438" 
d="M71 -138l8 -69q30 -8 42 -8q62 0 102 82q7 16 42 120h-1l163 528h-62q-5 -15 -15 -49l-24 -78l-22 -73l-31 -106q-18 -59 -31 -118h-9q-18 76 -32 120l-90 304h-67l93 -301l70 -223l-4 -11q0 -2 -2 -4v-3q-1 -2 -1 -7q-8 -28 -24 -70q-24 -39 -69 -39q-8 0 -36 5z
M201 595h50q1 2 11 19q5 7 12.5 19t8.5 13l17 25l32 50h-82q-1 -3 -4 -9.5t-4 -8.5q-1 -5 -5 -15t-5 -14l-11 -27q-3 -9 -10 -26t-10 -26z" />
    <glyph glyph-name="thorn" unicode="&#xfe;" 
d="M125 253q0 110 38 163q37 55 86 55q50 0 89 -54q35 -59 35 -155q0 -102 -36 -162q-41 -53 -90 -53t-86 51q-36 51 -36 155zM67 -204h66v268q41 -50 57 -60q30 -16 61 -16q47 0 95 33q44 33 68 96q23 64 23 145q0 69 -20 134q-23 60 -65.5 95t-94.5 35q-39 0 -67 -16l1 1
q-23 -19 -58 -61v266h-66v-920z" />
    <glyph glyph-name="ydieresis" unicode="&#xff;" horiz-adv-x="438" 
d="M71 -138l8 -69q30 -8 42 -8q62 0 102 82q7 16 42 120h-1l163 528h-62q-5 -15 -15 -49l-24 -78l-22 -73l-31 -106q-18 -59 -31 -118h-9q-18 76 -32 120l-90 304h-67l93 -301l70 -223l-4 -11q0 -2 -2 -4v-3q-1 -2 -1 -7q-8 -28 -24 -70q-24 -39 -69 -39q-8 0 -36 5z
M126 634h66v88h-66v-88zM278 634h67v88h-67v-88z" />
    <glyph glyph-name="Amacron" unicode="&#x100;" horiz-adv-x="577" 
d="M185 285l70 226q19 73 31 140h11q6 -27 42 -152l51 -163q4 -15 16 -51h-221zM27 0h72q2 8 9 28.5t10 32.5q8 28 20 64q3 10 6.5 22.5t8 28.5t6.5 24l7 22h261l68 -222h81q-13 41 -25 74l-168 496h-1q-5 17 -36 109q-8 21 -13 37h-79l-36 -112l-95 -300zM172 784h247v57
h-247v-57z" />
    <glyph glyph-name="amacron" unicode="&#x101;" 
d="M360 270v-45q0 -59 -12 -94q-18 -41 -51.5 -65t-77.5 -24q-45 0 -69 25.5t-24 66.5q0 32 11 48q14 24 32 31h-1q21 10 67 19q73 13 125 38zM356 61l11 -4q1 -31 12 -57h64q-10 29 -13 55q-5 38 -5 159v120q0 65 -4 81q-4 32 -21 59v-1q-37 53 -139 53q-53 0 -97 -18
q-72 -35 -93 -130q5 -1 15 -2l11 -2q16 -2 31 -5q2 -1 3 -1h2q11 52 37 76q27 23 80 23q57 0 88 -31q23 -26 23 -84v-7q0 -1 -0.5 -4t-0.5 -5v-13q-40 -17 -136 -34q-52 -7 -66 -13q-43 -13 -72 -51t-29 -93q0 -59 37 -104q42 -40 106 -40q41 0 81 16q41 21 75 57zM138 613
h247v57h-247v-57z" />
    <glyph glyph-name="Abreve" unicode="&#x102;" horiz-adv-x="577" 
d="M185 285l70 226q19 73 31 140h11q6 -27 42 -152l51 -163q4 -15 16 -51h-221zM27 0h72q2 8 9 28.5t10 32.5q8 28 20 64q3 10 6.5 22.5t8 28.5t6.5 24l7 22h261l68 -222h81q-13 41 -25 74l-168 496h-1q-5 17 -36 109q-8 21 -13 37h-79l-36 -112l-95 -300zM413 886h-40
q-18 -68 -78 -68q-55 0 -72 68h-39q16 -114 115 -114q44 0 73.5 30t40.5 84z" />
    <glyph glyph-name="abreve" unicode="&#x103;" 
d="M360 270v-45q0 -59 -12 -94q-18 -41 -51.5 -65t-77.5 -24q-45 0 -69 25.5t-24 66.5q0 32 11 48q14 24 32 31h-1q21 10 67 19q73 13 125 38zM356 61l11 -4q1 -31 12 -57h64q-10 29 -13 55q-5 38 -5 159v120q0 65 -4 81q-4 32 -21 59v-1q-37 53 -139 53q-53 0 -97 -18
q-72 -35 -93 -130q5 -1 15 -2l11 -2q16 -2 31 -5q2 -1 3 -1h2q11 52 37 76q27 23 80 23q57 0 88 -31q23 -26 23 -84v-7q0 -1 -0.5 -4t-0.5 -5v-13q-40 -17 -136 -34q-52 -7 -66 -13q-43 -13 -72 -51t-29 -93q0 -59 37 -104q42 -40 106 -40q41 0 81 16q41 21 75 57zM377 715
h-40q-18 -68 -78 -68q-55 0 -72 68h-39q16 -114 115 -114q44 0 73.5 30t40.5 84z" />
    <glyph glyph-name="Aogonek" unicode="&#x104;" horiz-adv-x="577" 
d="M185 285l70 226q19 73 31 140h11q6 -27 42 -152l51 -163q4 -15 16 -51h-221zM27 0h72q2 8 9 28.5t10 32.5q8 28 20 64q3 10 6.5 22.5t8 28.5t6.5 24l7 22h261l68 -222h81q-13 41 -25 74l-168 496h-1q-5 17 -36 109q-8 21 -13 37h-79l-36 -112l-95 -300zM531 1h-38
q-17 -71 -17 -106q0 -46 24 -75q21 -27 61 -27q37 0 86 26v44q-39 -19 -65 -19q-27 0 -45.5 23t-18.5 60q0 31 13 74z" />
    <glyph glyph-name="aogonek" unicode="&#x105;" 
d="M360 270v-45q0 -59 -12 -94q-18 -41 -51.5 -65t-77.5 -24q-45 0 -69 25.5t-24 66.5q0 32 11 48q14 24 32 31h-1q21 10 67 19q73 13 125 38zM356 61l11 -4q1 -31 12 -57h64q-10 29 -13 55q-5 38 -5 159v120q0 65 -4 81q-4 32 -21 59v-1q-37 53 -139 53q-53 0 -97 -18
q-72 -35 -93 -130q5 -1 15 -2l11 -2q16 -2 31 -5q2 -1 3 -1h2q11 52 37 76q27 23 80 23q57 0 88 -31q23 -26 23 -84v-7q0 -1 -0.5 -4t-0.5 -5v-13q-40 -17 -136 -34q-52 -7 -66 -13q-43 -13 -72 -51t-29 -93q0 -59 37 -104q42 -40 106 -40q41 0 81 16q41 21 75 57zM417 8
h-38q-17 -71 -17 -106q0 -46 24 -75q21 -27 61 -27q37 0 86 26v44q-39 -19 -65 -19q-27 0 -45.5 23t-18.5 60q0 31 13 74z" />
    <glyph glyph-name="Cacute" unicode="&#x106;" horiz-adv-x="622" 
d="M587 218l-69 22q-19 -91 -66 -138.5t-113 -47.5q-56 0 -105 37q-96 71 -96 273q0 64 19 142q17 69 66 113q51 42 123 42q118 0 164 -151q1 0 4 1t4 1q4 1 12 3.5t11 3.5q4 1 16 4.5t19 5.5q-28 98 -80 145q-66 55 -150 55q-75 0 -145 -43q-67 -45 -98 -127
q-35 -77 -35 -196q0 -103 29 -193q34 -85 96.5 -133.5t152.5 -48.5q88 0 156 60q59 61 85 170zM300 772h50q1 1 11 19q5 7 12.5 19t8.5 13l17 25l32 50h-82q-1 -3 -4 -9.5t-4 -8.5q-1 -5 -5 -15t-5 -14l-11 -27q-3 -9 -10 -26t-10 -26z" />
    <glyph glyph-name="cacute" unicode="&#x107;" horiz-adv-x="438" 
d="M429 168l-62 10q-11 -65 -41 -98t-74 -33q-59 0 -91 51q-36 50 -36 159q0 108 37 160q36 51 95 51q77 0 102 -106q5 0 13 2q5 1 13 2.5t9 1.5q4 1 14 3q12 3 13 3q-16 74 -58.5 113t-108.5 39q-56 0 -103 -31q-44 -32 -68.5 -95.5t-24.5 -145.5q0 -123 53 -197
q56 -69 141 -69q72 0 119 50q43 48 58 130zM204 595h50q1 2 11 19q5 7 12.5 19t8.5 13l17 25l32 50h-82q-1 -3 -4 -9.5t-4 -8.5q-1 -5 -5 -15t-5 -14l-11 -27q-3 -9 -10 -26t-10 -26z" />
    <glyph glyph-name="Ccircumflex" unicode="&#x108;" horiz-adv-x="622" 
d="M587 218l-69 22q-19 -91 -66 -138.5t-113 -47.5q-56 0 -105 37q-96 71 -96 273q0 64 19 142q17 69 66 113q51 42 123 42q118 0 164 -151q1 0 4 1t4 1q4 1 12 3.5t11 3.5q4 1 16 4.5t19 5.5q-28 98 -80 145q-66 55 -150 55q-75 0 -145 -43q-67 -45 -98 -127
q-35 -77 -35 -196q0 -103 29 -193q34 -85 96.5 -133.5t152.5 -48.5q88 0 156 60q59 61 85 170zM338 860l47 -91h71q-24 40 -37 55q-11 20 -46 71h-75q-3 -6 -20 -31q-9 -16 -20 -32q-3 -6 -13.5 -21.5t-15.5 -24.5v-1q-6 -8 -11 -16h71z" />
    <glyph glyph-name="ccircumflex" unicode="&#x109;" horiz-adv-x="438" 
d="M429 168l-62 10q-11 -65 -41 -98t-74 -33q-59 0 -91 51q-36 50 -36 159q0 108 37 160q36 51 95 51q77 0 102 -106q5 0 13 2q5 1 13 2.5t9 1.5q4 1 14 3q12 3 13 3q-16 74 -58.5 113t-108.5 39q-56 0 -103 -31q-44 -32 -68.5 -95.5t-24.5 -145.5q0 -123 53 -197
q56 -69 141 -69q72 0 119 50q43 48 58 130zM265 686l47 -91h71q-24 40 -37 55q-11 20 -46 71h-75q-3 -6 -20 -31q-9 -16 -20 -32q-3 -6 -13.5 -21.5t-15.5 -24.5v-1q-6 -8 -11 -16h71z" />
    <glyph glyph-name="Cdotaccent" unicode="&#x10a;" horiz-adv-x="622" 
d="M587 218l-69 22q-19 -91 -66 -138.5t-113 -47.5q-56 0 -105 37q-96 71 -96 273q0 64 19 142q17 69 66 113q51 42 123 42q118 0 164 -151q1 0 4 1t4 1q4 1 12 3.5t11 3.5q4 1 16 4.5t19 5.5q-28 98 -80 145q-66 55 -150 55q-75 0 -145 -43q-67 -45 -98 -127
q-35 -77 -35 -196q0 -103 29 -193q34 -85 96.5 -133.5t152.5 -48.5q88 0 156 60q59 61 85 170zM297 790h80v97h-80v-97z" />
    <glyph glyph-name="cdotaccent" unicode="&#x10b;" horiz-adv-x="438" 
d="M429 168l-62 10q-11 -65 -41 -98t-74 -33q-59 0 -91 51q-36 50 -36 159q0 108 37 160q36 51 95 51q77 0 102 -106q5 0 13 2q5 1 13 2.5t9 1.5q4 1 14 3q12 3 13 3q-16 74 -58.5 113t-108.5 39q-56 0 -103 -31q-44 -32 -68.5 -95.5t-24.5 -145.5q0 -123 53 -197
q56 -69 141 -69q72 0 119 50q43 48 58 130zM220 595h80v97h-80v-97z" />
    <glyph glyph-name="Ccaron" unicode="&#x10c;" horiz-adv-x="622" 
d="M587 218l-69 22q-19 -91 -66 -138.5t-113 -47.5q-56 0 -105 37q-96 71 -96 273q0 64 19 142q17 69 66 113q51 42 123 42q118 0 164 -151q1 0 4 1t4 1q4 1 12 3.5t11 3.5q4 1 16 4.5t19 5.5q-28 98 -80 145q-66 55 -150 55q-75 0 -145 -43q-67 -45 -98 -127
q-35 -77 -35 -196q0 -103 29 -193q34 -85 96.5 -133.5t152.5 -48.5q88 0 156 60q59 61 85 170zM344 805l-48 90h-71l72 -114l6 -12h77q4 8 7 11h-1q1 2 2.5 4.5t3 4.5t2.5 3q10 14 25 38q6 9 20 30.5t23 34.5h-69l-18 -33q-15 -33 -31 -57z" />
    <glyph glyph-name="ccaron" unicode="&#x10d;" horiz-adv-x="438" 
d="M429 168l-62 10q-11 -65 -41 -98t-74 -33q-59 0 -91 51q-36 50 -36 159q0 108 37 160q36 51 95 51q77 0 102 -106q5 0 13 2q5 1 13 2.5t9 1.5q4 1 14 3q12 3 13 3q-16 74 -58.5 113t-108.5 39q-56 0 -103 -31q-44 -32 -68.5 -95.5t-24.5 -145.5q0 -123 53 -197
q56 -69 141 -69q72 0 119 50q43 48 58 130zM251 631l-48 90h-71l72 -114l6 -12h77q4 8 7 11h-1q1 2 2.5 4.5t3 4.5t2.5 3q11 14 25 38q6 9 20 30.5t23 34.5h-69l-18 -33q-15 -33 -31 -57z" />
    <glyph glyph-name="Dcaron" unicode="&#x10e;" horiz-adv-x="622" 
d="M159 70v576h131q71 0 106 -16q44 -21 77 -86t33 -181q0 -161 -63 -239q-14 -20 -54 -40q-37 -14 -97 -14h-133zM90 0h212q106 0 166 47q47 41 78 121.5t31 193.5q0 188 -92 293q-38 36 -86 51h1q-42 10 -109 10h-201v-716zM267 805l-48 90h-71l72 -114l6 -12h77q4 8 7 11
h-1q1 2 2.5 4.5t3 4.5t2.5 3q11 14 25 38q6 9 20 30.5t23 34.5h-69l-18 -33q-15 -33 -31 -57z" />
    <glyph glyph-name="dcaron" unicode="&#x10f;" horiz-adv-x="533" 
d="M457 639h37q-3 -75 -38 -107v-1q1 -1 1 -2t2 -5q3 -6 5 -9q1 -2 2 -2q0 -1 1 -2q55 36 55 120v85h-65v-77zM106 256q0 105 33 160q39 51 89 51q51 0 89 -52q35 -58 35 -165q0 -101 -35 -153q-35 -50 -85 -50q-51 0 -88 52q-38 53 -38 157zM352 0h58v716h-64v-276
q-60 86 -124 86q-54 0 -96 -33q-40 -30 -64 -96q-20 -61 -20 -141q0 -82 22 -139q24 -59 67 -95q43 -34 93 -34q67 0 128 93v-81z" />
    <glyph glyph-name="Dcroat" unicode="&#x110;" horiz-adv-x="622" 
d="M147 70v263h165v51h-165v262h132q60 0 97 -13q31 -11 59 -44q30 -42 43 -86q16 -60 16 -140q0 -163 -63 -239q-21 -25 -55 -40q-36 -14 -96 -14h-133zM78 0h213q58 0 85 9q56 19 94 51h-1q37 32 68 112q28 77 28 190q0 198 -92 293q-32 35 -86 51q-42 10 -107 10h-202
v-332h-68v-51h68v-333z" />
    <glyph glyph-name="dcroat" unicode="&#x111;" 
d="M108 256q0 108 34 161q36 50 87 50q53 0 87 -52q37 -55 37 -165q0 -100 -36 -153q-34 -50 -86 -50q-51 0 -86 52q-37 52 -37 157zM347 608v-168q-62 86 -125 86q-54 0 -97 -33q-39 -31 -63 -96q-20 -66 -20 -141q0 -80 24 -139q24 -63 65 -95q45 -34 94 -34q67 0 128 93
v-81h57v608h59v51h-59v57h-63v-57h-141v-51h141z" />
    <glyph glyph-name="Emacron" unicode="&#x112;" horiz-adv-x="577" 
d="M93 0h438v70h-370v266h333v70h-333v240h356v70h-424v-716zM193 790h247v57h-247v-57z" />
    <glyph glyph-name="emacron" unicode="&#x113;" 
d="M383 301h-258q9 84 43 124q34 43 89 43q59 0 94 -53q23 -37 32 -114zM444 145l-66 10q-35 -108 -117 -108q-57 0 -94 48q-39 49 -44 147h327v15q0 130 -55 200q-55 69 -138 69q-91 0 -145 -71q-55 -70 -55 -203q0 -116 54 -194q60 -70 150 -70q68 0 115 40.5t68 116.5z
M129 613h247v57h-247v-57z" />
    <glyph glyph-name="Ebreve" unicode="&#x114;" horiz-adv-x="577" 
d="M93 0h438v70h-370v266h333v70h-333v240h356v70h-424v-716zM425 892h-40q-18 -68 -78 -68q-55 0 -72 68h-39q16 -114 115 -114q44 0 73.5 30t40.5 84z" />
    <glyph glyph-name="ebreve" unicode="&#x115;" 
d="M383 301h-258q9 84 43 124q34 43 89 43q59 0 94 -53q23 -37 32 -114zM444 145l-66 10q-35 -108 -117 -108q-57 0 -94 48q-39 49 -44 147h327v15q0 130 -55 200q-55 69 -138 69q-91 0 -145 -71q-55 -70 -55 -203q0 -116 54 -194q60 -70 150 -70q68 0 115 40.5t68 116.5z
M376 715h-40q-18 -68 -78 -68q-55 0 -72 68h-39q17 -114 115 -114q44 0 73.5 30t40.5 84z" />
    <glyph glyph-name="Edotaccent" unicode="&#x116;" horiz-adv-x="577" 
d="M93 0h438v70h-370v266h333v70h-333v240h356v70h-424v-716zM277 772h80v97h-80v-97z" />
    <glyph glyph-name="edotaccent" unicode="&#x117;" 
d="M383 301h-258q9 84 43 124q34 43 89 43q59 0 94 -53q23 -37 32 -114zM444 145l-66 10q-35 -108 -117 -108q-57 0 -94 48q-39 49 -44 147h327v15q0 130 -55 200q-55 69 -138 69q-91 0 -145 -71q-55 -70 -55 -203q0 -116 54 -194q60 -70 150 -70q68 0 115 40.5t68 116.5z
M224 595h80v97h-80v-97z" />
    <glyph glyph-name="Eogonek" unicode="&#x118;" horiz-adv-x="577" 
d="M93 0h438v70h-370v266h333v70h-333v240h356v70h-424v-716zM412 -4h-38q-17 -71 -17 -106q0 -46 24 -75q21 -27 61 -27q37 0 86 26v44q-39 -19 -65 -19q-27 0 -45.5 23t-18.5 60q0 31 13 74z" />
    <glyph glyph-name="eogonek" unicode="&#x119;" 
d="M383 301h-258q9 84 43 124q34 43 89 43q59 0 94 -53q23 -37 32 -114zM444 145l-66 10q-35 -108 -117 -108q-57 0 -94 48q-39 49 -44 147h327v15q0 130 -55 200q-55 69 -138 69q-91 0 -145 -71q-55 -70 -55 -203q0 -116 54 -194q60 -70 150 -70q68 0 115 40.5t68 116.5z
M284 -4h-38q-17 -71 -17 -106q0 -46 24 -75q21 -27 61 -27q37 0 86 26v44q-39 -19 -65 -19q-27 0 -45.5 23t-18.5 60q0 31 13 74z" />
    <glyph glyph-name="Ecaron" unicode="&#x11a;" horiz-adv-x="577" 
d="M93 0h438v70h-370v266h333v70h-333v240h356v70h-424v-716zM294 805l-48 90h-71l72 -114l6 -12h77q4 8 7 11h-1q1 2 2.5 4.5t3 4.5t2.5 3q10 14 25 38q6 9 20 30.5t23 34.5h-69l-18 -33q-15 -33 -31 -57z" />
    <glyph glyph-name="ecaron" unicode="&#x11b;" 
d="M383 301h-258q9 84 43 124q34 43 89 43q59 0 94 -53q23 -37 32 -114zM444 145l-66 10q-35 -108 -117 -108q-57 0 -94 48q-39 49 -44 147h327v15q0 130 -55 200q-55 69 -138 69q-91 0 -145 -71q-55 -70 -55 -203q0 -116 54 -194q60 -70 150 -70q68 0 115 40.5t68 116.5z
M260 631l-48 90h-71l72 -114l6 -12h77q4 8 7 11h-1q1 2 2.5 4.5t3 4.5t2.5 3q10 14 25 38q6 9 20 30.5t23 34.5h-69l-18 -33q-15 -33 -31 -57z" />
    <glyph glyph-name="Gcircumflex" unicode="&#x11c;" horiz-adv-x="667" 
d="M371 287h178v-148q-28 -28 -79 -56q-50 -24 -103 -24q-61 0 -114 33q-112 72 -112 268q0 77 23 151q23 66 74 108t128 42q43 0 85 -20q32 -15 60 -52q23 -40 33 -85q31 10 54 19q4 0 8 2q-14 69 -42 108q-28 43 -81 71q-51 25 -117 25q-86 0 -158 -44h1
q-64 -44 -104 -135q-36 -98 -36 -196q0 -102 36 -190q34 -82 106 -131q76 -45 161 -45q128 0 245 111v258h-246v-70zM376 857l47 -91h71q-24 40 -37 55q-11 20 -46 71h-75q-3 -6 -20 -31q-9 -16 -20 -32q-3 -6 -13.5 -21.5t-15.5 -24.5v-1q-6 -8 -11 -16h71z" />
    <glyph glyph-name="gcircumflex" unicode="&#x11d;" 
d="M119 267q0 93 35 150q36 50 88 50q54 0 90 -51q37 -53 37 -152q0 -108 -36 -157q-37 -48 -89 -48q-55 0 -90 50q-35 54 -35 158zM130 -72l-61 12q5 -76 43 -114q53 -41 124 -41q67 0 108 28q42 28 65 80q19 51 19 171v451h-57v-75q-71 86 -133 86q-55 0 -99 -34
q-40 -34 -64 -96q-21 -60 -21 -135q0 -108 47 -185h-1q53 -76 137 -76q60 0 127 80v-34q0 -66 -6 -102q-23 -101 -122 -101q-48 0 -81 28q-18 20 -25 57zM244 686l47 -91h71q-24 40 -37 55q-11 20 -46 71h-75q-3 -6 -20 -31q-9 -16 -20 -32q-3 -6 -13.5 -21.5t-15.5 -24.5
v-1q-6 -8 -11 -16h71z" />
    <glyph glyph-name="Gbreve" unicode="&#x11e;" horiz-adv-x="667" 
d="M371 287h178v-148q-28 -28 -79 -56q-50 -24 -103 -24q-61 0 -114 33q-112 72 -112 268q0 77 23 151q23 66 74 108t128 42q43 0 85 -20q32 -15 60 -52q23 -40 33 -85q31 10 54 19q4 0 8 2q-14 69 -42 108q-28 43 -81 71q-51 25 -117 25q-86 0 -158 -44h1
q-64 -44 -104 -135q-36 -98 -36 -196q0 -102 36 -190q34 -82 106 -131q76 -45 161 -45q128 0 245 111v258h-246v-70zM490 886h-40q-18 -68 -78 -68q-55 0 -72 68h-39q17 -114 115 -114q44 0 73.5 30t40.5 84z" />
    <glyph glyph-name="gbreve" unicode="&#x11f;" 
d="M119 267q0 93 35 150q36 50 88 50q54 0 90 -51q37 -53 37 -152q0 -108 -36 -157q-37 -48 -89 -48q-55 0 -90 50q-35 54 -35 158zM130 -72l-61 12q5 -76 43 -114q53 -41 124 -41q67 0 108 28q42 28 65 80q19 51 19 171v451h-57v-75q-71 86 -133 86q-55 0 -99 -34
q-40 -34 -64 -96q-21 -60 -21 -135q0 -108 47 -185h-1q53 -76 137 -76q60 0 127 80v-34q0 -66 -6 -102q-23 -101 -122 -101q-48 0 -81 28q-18 20 -25 57zM370 715h-40q-18 -68 -78 -68q-55 0 -72 68h-39q17 -114 115 -114q44 0 73.5 30t40.5 84z" />
    <glyph glyph-name="Gdotaccent" unicode="&#x120;" horiz-adv-x="667" 
d="M371 287h178v-148q-28 -28 -79 -56q-50 -24 -103 -24q-61 0 -114 33q-112 72 -112 268q0 77 23 151q23 66 74 108t128 42q43 0 85 -20q32 -15 60 -52q23 -40 33 -85q31 10 54 19q4 0 8 2q-14 69 -42 108q-28 43 -81 71q-51 25 -117 25q-86 0 -158 -44h1
q-64 -44 -104 -135q-36 -98 -36 -196q0 -102 36 -190q34 -82 106 -131q76 -45 161 -45q128 0 245 111v258h-246v-70zM335 766h80v97h-80v-97z" />
    <glyph glyph-name="gdotaccent" unicode="&#x121;" 
d="M119 267q0 93 35 150q36 50 88 50q54 0 90 -51q37 -53 37 -152q0 -108 -36 -157q-37 -48 -89 -48q-55 0 -90 50q-35 54 -35 158zM130 -72l-61 12q5 -76 43 -114q53 -41 124 -41q67 0 108 28q42 28 65 80q19 51 19 171v451h-57v-75q-71 86 -133 86q-55 0 -99 -34
q-40 -34 -64 -96q-21 -60 -21 -135q0 -108 47 -185h-1q53 -76 137 -76q60 0 127 80v-34q0 -66 -6 -102q-23 -101 -122 -101q-48 0 -81 28q-18 20 -25 57zM215 595h80v97h-80v-97z" />
    <glyph glyph-name="Gcommaaccent" unicode="&#x122;" horiz-adv-x="667" 
d="M371 287h178v-148q-28 -28 -79 -56q-50 -24 -103 -24q-61 0 -114 33q-112 72 -112 268q0 77 23 151q23 66 74 108t128 42q43 0 85 -20q32 -15 60 -52q23 -40 33 -85q31 10 54 19q4 0 8 2q-14 69 -42 108q-28 43 -81 71q-51 25 -117 25q-86 0 -158 -44h1
q-64 -44 -104 -135q-36 -98 -36 -196q0 -102 36 -190q34 -82 106 -131q76 -45 161 -45q128 0 245 111v258h-246v-70zM350 -4l-17 -74q36 -3 48 -12.5t14 -25.5q0 -23 -14 -34q-17 -13 -55 -13h-5q-19 0 -31 1q0 -10 -1 -13v-5q0 -8 -1 -13q0 -2 -0.5 -6.5t-0.5 -5.5
q25 -5 53 -5q60 0 87 27q26 25 26 60q0 22 -18.5 40.5t-52.5 25.5l13 53h-45z" />
    <glyph glyph-name="gcommaaccent" unicode="&#x123;" 
d="M263 655h-42q12 62 43 86q-10 17 -15 29q-62 -39 -62 -135v-51h76v71zM106 267q0 93 35 147q32 53 88 53q59 0 95 -56q32 -59 32 -145q0 -104 -35 -156q-37 -51 -90 -51q-51 0 -90 48q-35 54 -35 160zM118 -72l-62 12q0 -71 39 -110q42 -45 130 -45q65 0 108 30
q47 29 64 83q18 52 18 166v451h-57v-75q-71 86 -133 86q-82 0 -136 -74q-48 -76 -48 -194q0 -111 48 -182q48 -76 136 -76q63 0 126 79q0 -104 -9 -147q-9 -38 -40 -63.5t-79 -25.5q-88 0 -105 85z" />
    <glyph glyph-name="Hcircumflex" unicode="&#x124;" horiz-adv-x="622" 
d="M92 0h68v345h325v-345h71v716h-71v-301h-325v301h-68v-716zM337 863l47 -91h71q-24 40 -37 55q-11 20 -46 71h-75q-3 -6 -20 -31q-9 -16 -20 -32q-3 -6 -13.5 -21.5t-15.5 -24.5v-1q-6 -8 -11 -16h71z" />
    <glyph glyph-name="hcircumflex" unicode="&#x125;" 
d="M81 0h65v282q0 68 12 101q18 43 43 60q30 21 66 21q97 0 97 -136v-328h64v328q0 73 -16 115q-15 38 -49.5 60.5t-80.5 22.5q-64 0 -136 -83v273h-65v-716zM284 863l47 -91h71q-24 40 -37 55q-11 20 -46 71h-75q-3 -6 -20 -31q-9 -16 -20 -32q-3 -6 -13.5 -21.5
t-15.5 -24.5v-1q-6 -8 -11 -16h71z" />
    <glyph glyph-name="Hbar" unicode="&#x126;" horiz-adv-x="622" 
d="M147 549h325v-134h-325v134zM79 549v-549h68v345h325v-345h71v549h53v57h-53v110h-71v-110h-325v110h-68v-110h-56v-57h56z" />
    <glyph glyph-name="hbar" unicode="&#x127;" 
d="M69 598v-598h64v282q0 98 34 140q31 42 84 42q101 0 101 -136v-328h63v328q0 119 -44 161q-46 37 -100 37q-68 0 -138 -82v154h151v51h-151v67h-64v-67h-53v-51h53z" />
    <glyph glyph-name="Itilde" unicode="&#x128;" horiz-adv-x="255" 
d="M107 0h68v716h-68v-716zM3 785h44q3 25 11 33q13 15 26 15q14 0 43 -19q39 -27 66 -27q30 0 50 25t25 73h-44q-4 -24 -12 -33.5t-22 -9.5q-16 0 -41 15q-41 27 -68 27q-32 0 -56 -30q-17 -18 -22 -69z" />
    <glyph glyph-name="itilde" unicode="&#x129;" horiz-adv-x="255" 
d="M111 0h62v515h-62v-515zM10 608h44q3 25 11 33q13 15 26 15q14 0 43 -19q39 -27 66 -27q30 0 50 25t25 73h-44q-4 -24 -12 -33.5t-22 -9.5q-15 0 -41 15q-41 27 -68 27q-32 0 -56 -30q-17 -18 -22 -69z" />
    <glyph glyph-name="Imacron" unicode="&#x12a;" horiz-adv-x="255" 
d="M107 0h68v716h-68v-716zM16 777h247v57h-247v-57z" />
    <glyph glyph-name="imacron" unicode="&#x12b;" horiz-adv-x="255" 
d="M111 0h62v515h-62v-515zM18 613h247v57h-247v-57z" />
    <glyph glyph-name="Ibreve" unicode="&#x12c;" horiz-adv-x="255" 
d="M107 0h68v716h-68v-716zM259 879h-40q-18 -68 -78 -68q-55 0 -72 68h-39q16 -114 115 -114q44 0 73.5 30t40.5 84z" />
    <glyph glyph-name="ibreve" unicode="&#x12d;" horiz-adv-x="255" 
d="M111 0h62v515h-62v-515zM257 715h-40q-18 -68 -78 -68q-55 0 -72 68h-39q16 -114 115 -114q44 0 73.5 30t40.5 84z" />
    <glyph glyph-name="Iogonek" unicode="&#x12e;" horiz-adv-x="255" 
d="M136 0h30v716h-71v-726q-12 -61 -12 -100q0 -49 23 -76v1q23 -27 59 -27q40 0 87 26v44q-38 -19 -64 -19q-28 0 -46 23q-19 28 -19 60q0 28 13 78z" />
    <glyph glyph-name="iogonek" unicode="&#x12f;" horiz-adv-x="208" 
d="M71 629h64v87h-64v-87zM113 0h22v515h-64v-523q-13 -62 -13 -102q0 -48 23 -74q19 -28 61 -28q38 0 84 26v43q-35 -18 -62 -18t-48 23q-17 27 -17 60q0 31 14 78z" />
    <glyph glyph-name="Idotaccent" unicode="&#x130;" horiz-adv-x="255" 
d="M107 0h68v716h-68v-716zM102 772h80v97h-80v-97z" />
    <glyph glyph-name="dotlessi" unicode="&#x131;" horiz-adv-x="255" 
d="M98 0h62v515h-62v-515z" />
    <glyph glyph-name="IJ" unicode="&#x132;" horiz-adv-x="632" 
d="M107 0h68v716h-68v-716zM329 203l-62 -10q2 -100 42.5 -152.5t114.5 -52.5q51 0 90 25q38 22 57 73v-1q18 50 18 140v491h-69v-496q0 -59 -9 -95q-21 -67 -87 -67q-44 0 -67 34q-22 31 -28 111z" />
    <glyph glyph-name="ij" unicode="&#x133;" horiz-adv-x="392" 
d="M85 629h64v87h-64v-87zM85 0h64v515h-64v-515zM278 628h64v88h-64v-88zM198 -145l-12 -62q36 -8 51 -8q56 0 86 47h-1q20 40 20 132v551h-64v-549q0 -71 -12 -98q-15 -20 -38 -20q-10 0 -30 7z" />
    <glyph glyph-name="Jcircumflex" unicode="&#x134;" horiz-adv-x="438" 
d="M113 203l-62 -10q2 -100 42.5 -152.5t114.5 -52.5q51 0 90 25q38 22 57 73v-1q18 49 18 140v491h-69v-496q0 -59 -9 -95q-21 -67 -87 -67q-44 0 -67 34q-22 31 -28 111zM346 863l47 -91h71q-24 40 -37 55q-11 20 -46 71h-75q-3 -6 -20 -31q-9 -16 -20 -32
q-3 -6 -13.5 -21.5t-15.5 -24.5v-1q-6 -8 -11 -16h71z" />
    <glyph glyph-name="jcircumflex" unicode="&#x135;" horiz-adv-x="208" 
d="M105 686l49 -91h69q-2 3 -39 57l-9 15l-35 54h-74q-1 -3 -5 -9q-11 -16 -13 -19l-3 -5v1l-58 -94h69l2 3q8 15 15 27zM-9 -146l-11 -61q34 -8 50 -8q60 0 81 41q25 47 25 138v551h-64v-549q0 -62 -10 -94q-13 -24 -41 -24q-6 0 -30 6z" />
    <glyph glyph-name="Kcommaaccent" unicode="&#x136;" horiz-adv-x="577" 
d="M86 0h70v250l105 123l216 -373h91q-18 27 -36 59l-75 122l-150 247l246 288h-91l-218 -263q-2 -3 -6.5 -8.5t-6.5 -8.5q-18 -23 -75 -91v371h-70v-716zM302 -40v-37h8q56 0 56 -40q0 -46 -73 -46h-9q-1 0 -2 -1h-1q-5 -2 -20 2q0 -11 -1 -13v-5q0 -8 -1 -14q0 -2 -0.5 -6
t-0.5 -6q28 -4 52 -4q62 0 88 27q26 26 26 61q0 32 -22 57q-26 27 -79 27h-9q-3 0 -12 -2z" />
    <glyph glyph-name="kcommaaccent" unicode="&#x137;" horiz-adv-x="438" 
d="M81 0h66v207q3 3 58 68l145 -275h78l-180 326l158 189h-79l-94 -118l-86 -107v426h-66v-716zM234 -40v-37h8q56 0 56 -40q0 -46 -73 -46h-9q-1 0 -2 -1h-1q-5 -2 -20 2q0 -11 -1 -13v-5q0 -8 -1 -14q0 -2 -0.5 -6t-0.5 -6q28 -4 52 -4q62 0 88 27q26 26 26 61
q0 32 -22 57q-26 27 -79 27h-9q-3 0 -12 -2z" />
    <glyph glyph-name="kgreenlandic" unicode="&#x138;" horiz-adv-x="438" 
d="M67 0h66v207q29 35 31 37l27 31l145 -275h78q-10 18 -50 92l-131 234l160 189h-79l-156 -193q-3 -5 -9 -11v1q-2 -2 -9 -14l-7 -11v228h-66v-515z" />
    <glyph glyph-name="Lacute" unicode="&#x139;" 
d="M87 0h367v70h-297v646h-70v-716zM155 772h50q1 1 11 19q5 7 12.5 19t8.5 13l17 25l32 50h-82q-1 -3 -4 -9.5t-4 -8.5q-1 -5 -5 -15t-5 -14l-11 -27q-3 -9 -10 -26t-10 -26z" />
    <glyph glyph-name="lacute" unicode="&#x13a;" horiz-adv-x="208" 
d="M82 0h64v716h-64v-716zM60 764h50q1 2 11 19q5 7 12.5 19t8.5 13l17 25l32 50h-82q-1 -3 -4 -9.5t-4 -8.5q-1 -5 -5 -15t-5 -14l-11 -27q-3 -9 -10 -26t-10 -26z" />
    <glyph glyph-name="Lcommaaccent" unicode="&#x13b;" 
d="M87 0h367v70h-297v646h-70v-716zM254 -40v-37h8q56 0 56 -40q0 -46 -73 -46h-9q-1 0 -2 -1h-1q-5 -2 -20 2q0 -11 -1 -13v-5q0 -8 -1 -14q0 -2 -0.5 -6t-0.5 -6q28 -4 52 -4q62 0 88 27q26 26 26 61q0 32 -22 57q-26 27 -79 27h-9q-3 0 -12 -2z" />
    <glyph glyph-name="lcommaaccent" unicode="&#x13c;" horiz-adv-x="208" 
d="M82 0h64v716h-64v-716zM73 -40v-37h8q56 0 56 -40q0 -46 -73 -46h-9q-1 0 -2 -1h-1q-5 -2 -20 2q0 -11 -1 -13v-5q0 -8 -1 -14q0 -2 -0.5 -6t-0.5 -6q28 -4 52 -4q62 0 88 27q26 26 26 61q0 32 -22 57q-25 27 -79 27h-9q-3 0 -12 -2z" />
    <glyph glyph-name="Lcaron" unicode="&#x13d;" 
d="M305 630h42q-3 -88 -43 -117q5 -12 13 -27q63 42 63 136v94h-75v-86zM74 0h367v70h-297v646h-70v-716z" />
    <glyph glyph-name="lcaron" unicode="&#x13e;" horiz-adv-x="267" 
d="M186 639h36q-3 -78 -38 -107q5 -7 6 -11q0 -2 5 -10q55 36 55 120v85h-64v-77zM71 0h64v716h-64v-716z" />
    <glyph glyph-name="Ldot" unicode="&#x13f;" 
d="M87 0h367v70h-297v646h-70v-716zM323 317h73v88h-73v-88z" />
    <glyph glyph-name="ldot" unicode="&#x140;" horiz-adv-x="301" 
d="M82 0h64v716h-64v-716zM220 317h73v88h-73v-88z" />
    <glyph glyph-name="Lslash" unicode="&#x141;" 
d="M74 286v-286h367v70h-299v290l137 141v66q-9 -10 -68 -69l-27 -29l-42 -44v291h-68v-361l-60 -63v-64q6 7 19 20l17 17q4 6 24 21z" />
    <glyph glyph-name="lslash" unicode="&#x142;" horiz-adv-x="208" 
d="M70 298v-298h65v358l55 58v60l-55 -57v297h-65v-362l-52 -54v-63q6 8 16 16q8 10 12 14q0 1 1 1l1 2l-13 -20q-30 -44 1 -1q12 18 34 49z" />
    <glyph glyph-name="Nacute" unicode="&#x143;" horiz-adv-x="622" 
d="M89 0h65v572l8 2l319 -574h73v716h-66v-572l-8 -2l-318 574h-73v-716zM264 772h50q1 1 11 19q5 7 12.5 19t8.5 13l17 25l32 50h-82q-1 -3 -4 -9.5t-4 -8.5q-1 -5 -5 -15t-5 -14l-11 -27q-3 -9 -10 -26t-10 -26z" />
    <glyph glyph-name="nacute" unicode="&#x144;" 
d="M81 0h65v282q0 104 35 144q38 38 86 38q29 0 55 -18q22 -14 32 -48q8 -36 8 -84v-314h65v318q0 63 -5 86q-5 37 -21 62q-15 26 -49 43q-30 17 -70 17q-77 0 -144 -102v91h-57v-515zM214 595h50q1 2 11 19q5 7 12.5 19t8.5 13l17 25l32 50h-82q-1 -3 -4 -9.5t-4 -8.5
q-1 -5 -5 -15t-5 -14l-11 -27q-3 -9 -10 -26t-10 -26z" />
    <glyph glyph-name="Ncommaaccent" unicode="&#x145;" horiz-adv-x="622" 
d="M89 0h65v572l8 2l319 -574h73v716h-66v-572l-8 -2l-318 574h-73v-716zM312 -40v-37h8q56 0 56 -40q0 -46 -73 -46h-9q-1 0 -2 -1h-1q-5 -2 -20 2q0 -11 -1 -13v-5q0 -8 -1 -14q0 -2 -0.5 -6t-0.5 -6q28 -4 52 -4q62 0 88 27q26 26 26 61q0 32 -22 57q-26 27 -79 27h-9
q-3 0 -12 -2z" />
    <glyph glyph-name="ncommaaccent" unicode="&#x146;" 
d="M81 0h65v282q0 104 35 144q38 38 86 38q29 0 55 -18q22 -14 32 -48q8 -36 8 -84v-314h65v318q0 63 -5 86q-5 37 -21 62q-15 26 -49 43q-30 17 -70 17q-77 0 -144 -102v91h-57v-515zM218 -40v-37h8q56 0 56 -40q0 -46 -73 -46h-9q-1 0 -2 -1h-1q-5 -2 -20 2q0 -11 -1 -13
v-5q0 -8 -1 -14q0 -2 -0.5 -6t-0.5 -6q28 -4 52 -4q62 0 88 27q26 26 26 61q0 32 -22 57q-26 27 -79 27h-9q-3 0 -12 -2z" />
    <glyph glyph-name="Ncaron" unicode="&#x147;" horiz-adv-x="622" 
d="M89 0h65v572l8 2l319 -574h73v716h-66v-572l-8 -2l-318 574h-73v-716zM320 808l-48 90h-71l72 -114l6 -12h77q4 8 7 11h-1q1 2 2.5 4.5t3 4.5t2.5 3q10 14 25 38q6 9 20 30.5t23 34.5h-69q-3 -4 -6 -9.5t-6.5 -12.5l-5.5 -11q-15 -33 -31 -57z" />
    <glyph glyph-name="ncaron" unicode="&#x148;" 
d="M81 0h65v282q0 104 35 144q38 38 86 38q29 0 55 -18q22 -14 32 -48q8 -36 8 -84v-314h65v318q0 63 -5 86q-5 37 -21 62q-15 26 -49 43q-30 17 -70 17q-77 0 -144 -102v91h-57v-515zM261 631l-48 90h-71l72 -114l6 -12h77q4 8 7 11h-1q1 2 2.5 4.5t3 4.5t2.5 3
q11 14 25 38q6 9 20 30.5t23 34.5h-69q-3 -4 -6 -9.5t-6.5 -12.5l-5.5 -11q-15 -33 -31 -57z" />
    <glyph glyph-name="napostrophe" unicode="&#x149;" horiz-adv-x="524" 
d="M178 0h65v282q0 104 35 144q38 38 86 38q30 0 55 -18q22 -14 32 -48q8 -36 8 -84v-314h65v318q0 63 -5 86q-5 37 -21 62q-15 26 -49 43q-30 17 -70 17q-77 0 -144 -102v91h-57v-515zM81 635h37q-1 -81 -44 -111q7 -7 7 -10q4 -4 6 -13q37 24 50 56q12 25 12 92v76h-68
v-90z" />
    <glyph glyph-name="Eng" unicode="&#x14a;" horiz-adv-x="623" 
d="M80 716v-716h68v393q0 102 19 154h-1q14 49 59 84q46 32 98 32q173 0 173 -297q1 -146 -34.5 -224t-87.5 -84q-28 2 -63 24q-1 0 -2 -2l-1 -2q-5 -10 -9 -16q-6 -14 -9 -20q-4 -9 -11 -23q52 -31 95 -31q88 0 139 93q53 95 53 288q0 133 -27 207v-1q-59 154 -192 154
q-53 0 -97 -20q-38 -15 -102 -94v101h-68z" />
    <glyph glyph-name="eng" unicode="&#x14b;" 
d="M416 -36v354q0 70 -12 116q-13 37 -46 65q-33 27 -88 27q-77 0 -144 -102v91h-56v-515h64v282q0 103 35 143q36 39 86 39q51 0 74 -36t23 -114v-348q0 -67 -11 -92q-11 -26 -40 -26q-10 0 -31 7q-1 -5 -3 -17q-3 -13 -3 -14q-2 -6 -2 -12l-5 -20q35 -7 54 -7q58 0 80 41
q25 44 25 138z" />
    <glyph glyph-name="Omacron" unicode="&#x14c;" horiz-adv-x="667" 
d="M137 347q0 163 63 242q63 72 148 72q62 0 112 -37q99 -78 99 -266q0 -141 -59 -224q-62 -80 -153 -80q-87 0 -151 79q-59 80 -59 214zM64 349q0 -96 34 -180q33 -80 100 -132q66 -49 149 -49q79 0 145 44q69 47 103 131q36 84 36 194t-34 192q-35 86 -100 133
q-67 47 -149 47q-124 0 -204 -101q-80 -102 -80 -279zM231 795h247v57h-247v-57z" />
    <glyph glyph-name="omacron" unicode="&#x14d;" 
d="M126 256q0 104 36 159q42 52 98 52t95 -52q38 -53 38 -154q0 -109 -38 -161q-38 -53 -95 -53q-55 0 -98 52q-36 53 -36 157zM59 256q0 -118 55 -198q60 -70 146 -70q54 0 103 32q49 33 69 87q28 61 28 158q0 121 -57 192q-55 69 -143 69q-82 0 -134 -58q-67 -70 -67 -212
zM133 613h247v57h-247v-57z" />
    <glyph glyph-name="Obreve" unicode="&#x14e;" horiz-adv-x="667" 
d="M137 347q0 163 63 242q63 72 148 72q62 0 112 -37q99 -78 99 -266q0 -141 -59 -224q-62 -80 -153 -80q-87 0 -151 79q-59 80 -59 214zM64 349q0 -96 34 -180q33 -80 100 -132q66 -49 149 -49q79 0 145 44q69 47 103 131q36 84 36 194t-34 192q-35 86 -100 133
q-67 47 -149 47q-124 0 -204 -101q-80 -102 -80 -279zM470 892h-40q-18 -68 -78 -68q-55 0 -72 68h-39q16 -114 115 -114q44 0 73.5 30t40.5 84z" />
    <glyph glyph-name="obreve" unicode="&#x14f;" 
d="M126 256q0 104 36 159q42 52 98 52t95 -52q38 -53 38 -154q0 -109 -38 -161q-38 -53 -95 -53q-55 0 -98 52q-36 53 -36 157zM59 256q0 -118 55 -198q60 -70 146 -70q54 0 103 32q49 33 69 87q28 61 28 158q0 121 -57 192q-55 69 -143 69q-82 0 -134 -58q-67 -70 -67 -212
zM372 715h-40q-18 -68 -78 -68q-55 0 -72 68h-39q17 -114 115 -114q44 0 73.5 30t40.5 84z" />
    <glyph glyph-name="Ohungarumlaut" unicode="&#x150;" horiz-adv-x="667" 
d="M137 347q0 163 63 242q63 72 148 72q62 0 112 -37q99 -78 99 -266q0 -141 -59 -224q-62 -80 -153 -80q-87 0 -151 79q-59 80 -59 214zM64 349q0 -96 34 -180q33 -80 100 -132q66 -49 149 -49q79 0 145 44q69 47 103 131q36 84 36 194t-34 192q-35 86 -100 133
q-67 47 -149 47q-124 0 -204 -101q-80 -102 -80 -279zM223 772h48q16 28 52 84q5 9 13 22.5t12 19.5h-80q-13 -37 -23 -60h1q-8 -25 -13 -35q-9 -25 -10 -31zM365 772h52q7 10 40 68l36 58h-80q-5 -15 -16 -42t-15 -39v1z" />
    <glyph glyph-name="ohungarumlaut" unicode="&#x151;" 
d="M126 256q0 104 36 159q42 52 98 52t95 -52q38 -53 38 -154q0 -109 -38 -161q-38 -53 -95 -53q-55 0 -98 52q-36 53 -36 157zM59 256q0 -118 55 -198q60 -70 146 -70q54 0 103 32q49 33 69 87q28 61 28 158q0 121 -57 192q-55 69 -143 69q-82 0 -134 -58q-67 -70 -67 -212
zM146 595h48q16 28 52 84q5 9 13 22.5t12 19.5h-80q-13 -37 -23 -60h1q-8 -25 -13 -35q-8 -26 -10 -31zM288 595h52q7 10 40 68l36 58h-80q-5 -15 -16 -42t-15 -39v1z" />
    <glyph glyph-name="OE" unicode="&#x152;" horiz-adv-x="851" 
d="M299 665q62 0 116 -73q51 -78 51 -228q0 -166 -49 -241q-51 -73 -118 -73q-64 0 -116 73q-50 74 -50 229q0 105 21 178q23 70 63 103q40 32 82 32zM814 70h-279v266h245v71h-245v239h266v70h-332v-114q-76 127 -169 127q-123 0 -180 -105q-58 -107 -58 -265
q0 -152 55 -259q69 -112 183 -112q103 0 161 114l8 -2v-100h345v70z" />
    <glyph glyph-name="oe" unicode="&#x153;" horiz-adv-x="805" 
d="M697 300h-253q5 84 39 125q37 43 89 43q50 0 83 -41q31 -39 42 -127zM110 257q0 65 14 110q17 49 48 75t69 26q59 0 96 -53q39 -58 39 -157q0 -98 -39 -156q-39 -55 -96 -55q-60 0 -103 65q-28 49 -28 145zM400 82h12q52 -94 164 -94q66 0 112 40.5t67 116.5q-6 1 -19 4
t-16 3q-2 1 -6 1.5t-6 0.5h1q-3 0 -8 1t-8 2q-33 -110 -117 -110q-56 0 -95 50q-34 44 -42 143h325q-3 142 -53 214q-61 72 -144 72q-45 0 -87 -28t-72 -78q-29 53 -67 78q-39 28 -96 28q-60 0 -107 -32q-43 -26 -73 -97v1q-22 -63 -22 -148q0 -116 56 -192q58 -70 144 -70
q94 0 157 94z" />
    <glyph glyph-name="Racute" unicode="&#x154;" horiz-adv-x="622" 
d="M159 393v258h197q68 0 101 -35q33 -36 33 -92q0 -38 -17 -71q-32 -60 -135 -60h-179zM90 0h69v325h98q26 0 48 -4q29 -9 59 -47t76 -126l78 -148h88q-32 59 -50 98v-1q-21 38 -27 50q-3 6 -10.5 19t-10.5 20q-29 52 -66 97h1q-31 25 -66 47q107 22 146 68q39 51 39 126
q0 63 -24 105q-24 51 -63 67q-43 20 -123 20h-262v-716zM235 772h50q1 1 11 19q5 7 12.5 19t8.5 13l17 25l32 50h-82q-1 -3 -4 -9.5t-4 -8.5q-1 -5 -5 -15t-5 -14l-11 -27q-3 -9 -10 -26t-10 -26z" />
    <glyph glyph-name="racute" unicode="&#x155;" horiz-adv-x="301" 
d="M81 0h64v270q0 57 13 106q10 34 30.5 53.5t46.5 19.5q24 0 51 -16q9 20 10 30q10 35 11 38q-35 25 -68 25q-25 0 -47 -16q-22 -20 -44 -72l-9 2v75h-58v-515zM131 595h50q1 2 11 19q5 7 12.5 19t8.5 13l17 25l32 50h-82q-1 -3 -4 -9.5t-4 -8.5q-1 -5 -5 -15t-5 -14
l-11 -27q-3 -9 -10 -26t-10 -26z" />
    <glyph glyph-name="Rcommaaccent" unicode="&#x156;" horiz-adv-x="622" 
d="M159 393v258h197q68 0 101 -35q33 -36 33 -92q0 -38 -17 -71q-32 -60 -135 -60h-179zM90 0h69v325h98q26 0 48 -4q29 -9 59 -47t76 -126l78 -148h88q-32 59 -50 98v-1q-21 38 -27 50q-3 6 -10.5 19t-10.5 20q-29 52 -66 97h1q-31 25 -66 47q107 22 146 68q39 51 39 126
q0 63 -24 105q-24 51 -63 67q-43 20 -123 20h-262v-716zM312 -40v-37h8q56 0 56 -40q0 -46 -73 -46h-9q-1 0 -2 -1h-1q-5 -2 -20 2q0 -11 -1 -13v-5q0 -8 -1 -14q0 -2 -0.5 -6t-0.5 -6q28 -4 52 -4q62 0 88 27q26 26 26 61q0 32 -22 57q-26 27 -79 27h-9q-3 0 -12 -2z" />
    <glyph glyph-name="rcommaaccent" unicode="&#x157;" horiz-adv-x="301" 
d="M81 0h64v270q0 57 13 106q10 34 30.5 53.5t46.5 19.5q24 0 51 -16q9 20 10 30q10 35 11 38q-35 25 -68 25q-25 0 -47 -16q-22 -20 -44 -72l-9 2v75h-58v-515zM133 -40v-37h8q56 0 56 -40q0 -46 -73 -46h-9q-1 0 -2 -1h-1q-5 -2 -20 2q0 -11 -1 -13v-5q0 -8 -1 -14
q0 -2 -0.5 -6t-0.5 -6q28 -4 52 -4q62 0 88 27q26 26 26 61q0 32 -22 57q-25 27 -79 27h-9q-3 0 -12 -2z" />
    <glyph glyph-name="Rcaron" unicode="&#x158;" horiz-adv-x="622" 
d="M159 393v258h197q68 0 101 -35q33 -36 33 -92q0 -38 -17 -71q-32 -60 -135 -60h-179zM90 0h69v325h98q26 0 48 -4q29 -9 59 -47t76 -126l78 -148h88q-32 59 -50 98v-1q-21 38 -27 50q-3 6 -10.5 19t-10.5 20q-29 52 -66 97h1q-31 25 -66 47q107 22 146 68q39 51 39 126
q0 63 -24 105q-24 51 -63 67q-43 20 -123 20h-262v-716zM287 805l-48 90h-71l72 -114l6 -12h77q4 8 7 11h-1q1 2 2.5 4.5t3 4.5t2.5 3q11 14 25 38q6 9 20 30.5t23 34.5h-69l-18 -33q-15 -33 -31 -57z" />
    <glyph glyph-name="rcaron" unicode="&#x159;" horiz-adv-x="301" 
d="M81 0h64v270q0 57 13 106q10 34 30.5 53.5t46.5 19.5q24 0 51 -16q9 20 10 30q10 35 11 38q-35 25 -68 25q-25 0 -47 -16q-22 -20 -44 -72l-9 2v75h-58v-515zM178 631l-48 90h-71l72 -114l6 -12h77q4 8 7 11h-1q1 2 2.5 4.5t3 4.5t2.5 3q10 14 25 38q6 9 20 30.5t23 34.5
h-69l-18 -33q-15 -33 -31 -57z" />
    <glyph glyph-name="Sacute" unicode="&#x15a;" horiz-adv-x="577" 
d="M128 227l-66 -7q4 -64 32 -120q65 -112 220 -112q66 0 116 28q46 27 76 78q27 54 27 105q0 115 -99 171q-30 17 -134 46q-99 28 -123 54q-25 26 -25 72q0 49 37 83q34 34 109 34q130 0 150 -140q3 0 10 1t12 1.5t8 0.5q1 0 3 0.5t3 0.5l30 3q-5 65 -28 101
q-55 102 -193 102q-60 0 -111 -24h1q-51 -30 -72 -73q-25 -45 -25 -97q0 -98 82 -153q33 -20 116 -44q94 -28 108 -36q72 -37 74 -111q2 -56 -41 -94.5t-114 -37.5q-51 0 -93 21q-74 38 -90 147zM231 772h50q1 1 11 19q5 7 12.5 19t8.5 13l17 25l32 50h-82q-1 -3 -4 -9.5
t-4 -8.5q-1 -5 -5 -15t-5 -14l-11 -27q-3 -9 -10 -26t-10 -26z" />
    <glyph glyph-name="sacute" unicode="&#x15b;" horiz-adv-x="438" 
d="M117 156l-63 -13q30 -155 181 -155q48 0 90 20q41 25 59 60q20 37 20 79q0 41 -15 73q-15 26 -46 46h1q-39 16 -111 41q-8 3 -21.5 7t-15.5 5q-28 9 -29 10q-23 14 -32 26q-9 14 -9 38q0 32 24 53q24 22 76 22q82 0 100 -86q4 0 12 2q2 0 4.5 0.5t3.5 0.5l24 4h1
q4 1 8.5 2t8.5 1q-11 48 -25 70q-18 29 -56 46.5t-87 17.5q-69 0 -108 -34q-47 -42 -47 -111q0 -32 14 -67q15 -30 47 -46q30 -19 111 -44q64 -20 77 -31q25 -18 25 -54q0 -38 -28 -66q-23 -26 -76 -26q-100 0 -118 109zM193 595h50q1 2 11 19q5 7 12.5 19t8.5 13l17 25
l32 50h-82q-1 -3 -4 -9.5t-4 -8.5q-1 -5 -5 -15t-5 -14l-11 -27q-3 -9 -10 -26t-10 -26z" />
    <glyph glyph-name="Scircumflex" unicode="&#x15c;" horiz-adv-x="577" 
d="M128 227l-66 -7q4 -64 32 -120q65 -112 220 -112q66 0 116 28q46 27 76 78q27 54 27 105q0 115 -99 171q-30 17 -134 46q-99 28 -123 54q-25 26 -25 72q0 49 37 83q34 34 109 34q130 0 150 -140q3 0 10 1t12 1.5t8 0.5q1 0 3 0.5t3 0.5l30 3q-5 65 -28 101
q-55 102 -193 102q-60 0 -111 -24h1q-51 -30 -72 -73q-25 -45 -25 -97q0 -98 82 -153q33 -20 116 -44q94 -28 108 -36q72 -37 74 -111q2 -56 -41 -94.5t-114 -37.5q-51 0 -93 21q-74 38 -90 147zM297 860l47 -91h71q-24 40 -37 55q-11 20 -46 71h-75q-3 -6 -20 -31
q-9 -16 -20 -32q-3 -6 -13.5 -21.5t-15.5 -24.5v-1q-6 -8 -11 -16h71z" />
    <glyph glyph-name="scircumflex" unicode="&#x15d;" horiz-adv-x="438" 
d="M117 156l-63 -13q30 -155 181 -155q48 0 90 20q41 25 59 60q20 37 20 79q0 41 -15 73q-15 26 -46 46h1q-39 16 -111 41q-8 3 -21.5 7t-15.5 5q-28 9 -29 10q-23 14 -32 26q-9 14 -9 38q0 32 24 53q24 22 76 22q82 0 100 -86q4 0 12 2q2 0 4.5 0.5t3.5 0.5l24 4h1
q4 1 8.5 2t8.5 1q-11 48 -25 70q-18 29 -56 46.5t-87 17.5q-69 0 -108 -34q-47 -42 -47 -111q0 -32 14 -67q15 -30 47 -46q30 -19 111 -44q64 -20 77 -31q25 -18 25 -54q0 -38 -28 -66q-23 -26 -76 -26q-100 0 -118 109zM240 686l47 -91h71q-24 40 -37 55q-11 20 -46 71h-75
q-3 -6 -20 -31q-9 -16 -20 -32q-3 -6 -13.5 -21.5t-15.5 -24.5v-1q-6 -8 -11 -16h71z" />
    <glyph glyph-name="Scedilla" unicode="&#x15e;" horiz-adv-x="577" 
d="M128 227l-66 -7q4 -64 32 -120q65 -112 220 -112q66 0 116 28q46 27 76 78q27 54 27 105q0 115 -99 171q-30 17 -134 46q-99 28 -123 54q-25 26 -25 72q0 49 37 83q34 34 109 34q130 0 150 -140q3 0 10 1t12 1.5t8 0.5q1 0 3 0.5t3 0.5l30 3q-5 65 -28 101
q-55 102 -193 102q-60 0 -111 -24h1q-51 -30 -72 -73q-25 -45 -25 -97q0 -98 82 -153q33 -20 116 -44q94 -28 108 -36q72 -37 74 -111q2 -56 -41 -94.5t-114 -37.5q-51 0 -93 21q-74 38 -90 147zM271 1l-17 -74q36 -3 48 -12.5t14 -25.5q0 -23 -14 -34q-17 -13 -55 -13h-5
q-19 0 -31 1q0 -10 -1 -13v-5q0 -8 -1 -13q0 -2 -0.5 -6.5t-0.5 -5.5q25 -5 53 -5q60 0 87 27q26 25 26 60q0 22 -18.5 40.5t-52.5 25.5l13 53h-45z" />
    <glyph glyph-name="scedilla" unicode="&#x15f;" horiz-adv-x="438" 
d="M117 156l-63 -13q30 -155 181 -155q48 0 90 20q41 25 59 60q20 37 20 79q0 41 -15 73q-15 26 -46 46h1q-39 16 -111 41q-8 3 -21.5 7t-15.5 5q-28 9 -29 10q-23 14 -32 26q-9 14 -9 38q0 32 24 53q24 22 76 22q82 0 100 -86q4 0 12 2q2 0 4.5 0.5t3.5 0.5l24 4h1
q4 1 8.5 2t8.5 1q-11 48 -25 70q-18 29 -56 46.5t-87 17.5q-69 0 -108 -34q-47 -42 -47 -111q0 -32 14 -67q15 -30 47 -46q30 -19 111 -44q64 -20 77 -31q25 -18 25 -54q0 -38 -28 -66q-23 -26 -76 -26q-100 0 -118 109zM201 6l-17 -74q36 -3 48 -12.5t14 -25.5
q0 -23 -14 -34q-17 -13 -55 -13h-5q-19 0 -31 1q0 -10 -1 -13v-5q0 -8 -1 -13q0 -2 -0.5 -6.5t-0.5 -5.5q25 -5 53 -5q60 0 87 27q26 25 26 60q0 22 -18.5 40.5t-52.5 25.5l13 53h-45z" />
    <glyph glyph-name="Scaron" unicode="&#x160;" horiz-adv-x="577" 
d="M128 227l-66 -7q4 -64 32 -120q65 -112 220 -112q66 0 116 28q46 27 76 78q27 54 27 105q0 115 -99 171q-30 17 -134 46q-99 28 -123 54q-25 26 -25 72q0 49 37 83q34 34 109 34q130 0 150 -140q3 0 10 1t12 1.5t8 0.5q1 0 3 0.5t3 0.5l30 3q-5 65 -28 101
q-55 102 -193 102q-60 0 -111 -24h1q-51 -30 -72 -73q-25 -45 -25 -97q0 -98 82 -153q33 -20 116 -44q94 -28 108 -36q72 -37 74 -111q2 -56 -41 -94.5t-114 -37.5q-51 0 -93 21q-74 38 -90 147zM290 805l-48 90h-71l72 -114l6 -12h77q4 8 7 11h-1q1 2 2.5 4.5t3 4.5t2.5 3
q10 14 25 38q6 9 20 30.5t23 34.5h-69l-18 -33q-15 -33 -31 -57z" />
    <glyph glyph-name="scaron" unicode="&#x161;" horiz-adv-x="438" 
d="M117 156l-63 -13q30 -155 181 -155q48 0 90 20q41 25 59 60q20 37 20 79q0 41 -15 73q-15 26 -46 46h1q-39 16 -111 41q-8 3 -21.5 7t-15.5 5q-28 9 -29 10q-23 14 -32 26q-9 14 -9 38q0 32 24 53q24 22 76 22q82 0 100 -86q4 0 12 2q2 0 4.5 0.5t3.5 0.5l24 4h1
q4 1 8.5 2t8.5 1q-11 48 -25 70q-18 29 -56 46.5t-87 17.5q-69 0 -108 -34q-47 -42 -47 -111q0 -32 14 -67q15 -30 47 -46q30 -19 111 -44q64 -20 77 -31q25 -18 25 -54q0 -38 -28 -66q-23 -26 -76 -26q-100 0 -118 109zM229 631l-48 90h-71l72 -114l6 -12h77q4 8 7 11h-1
q1 2 2.5 4.5t3 4.5t2.5 3q11 14 25 38q6 9 20 30.5t23 34.5h-69l-18 -33q-15 -33 -31 -57z" />
    <glyph glyph-name="Tcommaaccent" unicode="&#x162;" horiz-adv-x="530" 
d="M227 -164h44q-2 -34 -12 -63q-7 -15 -32 -36q0 -1 2 -5q0 -1 0.5 -2.5t1.5 -2.5l9 -16q62 46 62 118v95h-75v-88zM230 0h71v646h199v70h-468v-70h198v-646z" />
    <glyph glyph-name="tcommaaccent" unicode="&#x163;" horiz-adv-x="255" 
d="M128 -152h39q-4 -60 -40 -91q0 -2 2 -4q2 -4 3 -5t2.5 -3t3.5 -5t3 -4q53 38 53 104v84h-66v-76zM232 -1l-8 64q-26 -2 -28 -2q-17 0 -29 8q-8 6 -16 23q-3 12 -3 51v317h75v55h-75v180h-1q-4 -3 -12.5 -9.5t-14.5 -11t-9 -6.5q-9 -4 -17 -11q-2 -1 -5 -4t-5 -4v-134h-53
v-55h53v-313q0 -74 9 -103q19 -51 90 -51q19 0 49 6z" />
    <glyph glyph-name="Tcaron" unicode="&#x164;" horiz-adv-x="530" 
d="M243 0h71v646h199v70h-468v-70h198v-646zM279 805l-48 90h-71l72 -114l6 -12h77q4 8 7 11h-1q1 2 2.5 4.5t3 4.5t2.5 3q11 14 25 38q6 9 20 30.5t23 34.5h-69l-18 -33q-15 -33 -31 -57z" />
    <glyph glyph-name="tcaron" unicode="&#x165;" horiz-adv-x="335" 
d="M254 639h37q-1 -76 -39 -107q0 -1 1 -2q2 -4 4 -6q4 -4 5 -7l3 -6q54 36 54 120v85h-65v-77zM232 -1l-11 64q-26 -2 -27 -2q-15 0 -29 8q-7 7 -15 22q-4 16 -4 52v317h75v55h-75v179q-30 -22 -37 -26q-5 -2 -13 -9q-8 -6 -14 -10v-134h-53v-55h53v-313q0 -76 10 -103
q17 -51 90 -51q20 0 50 6z" />
    <glyph glyph-name="Tbar" unicode="&#x166;" horiz-adv-x="530" 
d="M230 314v-314h71v314h135v50h-135v282h199v70h-468v-70h198v-282h-134v-50h134z" />
    <glyph glyph-name="tbar" unicode="&#x167;" horiz-adv-x="255" 
d="M144 699l3 3l-8 3v-10q1 1 2.5 2t2.5 2zM76 256v-109q0 -67 6 -94q5 -27 28.5 -43.5t64.5 -16.5q9 0 49 6q-2 10 -5 20q0 9 -4 39q-1 4 -1 5q-26 -2 -28 -2q-30 0 -39 19q-8 19 -8 63v113h71v51h-71v153h74v55h-74v180q-3 -2 -28.5 -20t-34.5 -26v-134h-55v-55h55v-153
h-55v-51h55z" />
    <glyph glyph-name="Utilde" unicode="&#x168;" horiz-adv-x="622" 
d="M485 716v-413q0 -142 -39 -193q-40 -51 -128 -51q-52 0 -91 25q-34 23 -53 77q-15 52 -15 142v413h-67v-415q0 -117 22 -180v1q24 -63 77.5 -98.5t132.5 -35.5q89 0 139 38q55 45 71 103q22 68 22 172v415h-71zM200 782h44q3 25 11 33q13 15 26 15q14 0 43 -19
q39 -27 66 -27q30 0 50 25t25 73h-44q-4 -24 -12 -33.5t-22 -9.5q-15 0 -41 15q-41 27 -68 27q-32 0 -56 -30q-17 -18 -22 -69z" />
    <glyph glyph-name="utilde" unicode="&#x169;" 
d="M368 0h57v515h-65v-276q0 -71 -14 -109q-13 -39 -42 -59q-32 -21 -65 -21q-35 0 -59.5 21.5t-31.5 59.5q-4 34 -4 98v286h-65v-321q0 -55 5 -83q5 -34 23 -64q14 -23 47 -42q36 -17 71 -17q74 0 143 105v-93zM125 608h44q3 25 11 33q13 15 26 15q14 0 43 -19
q39 -27 66 -27q30 0 50 25t25 73h-44q-4 -24 -12 -33.5t-22 -9.5q-16 0 -41 15q-41 27 -68 27q-32 0 -56 -30q-17 -18 -22 -69z" />
    <glyph glyph-name="Umacron" unicode="&#x16a;" horiz-adv-x="622" 
d="M485 716v-413q0 -142 -39 -193q-40 -51 -128 -51q-52 0 -91 25q-34 23 -53 77q-15 52 -15 142v413h-67v-415q0 -117 22 -180v1q24 -63 77.5 -98.5t132.5 -35.5q89 0 139 38q55 45 71 103q22 68 22 172v415h-71zM208 787h247v57h-247v-57z" />
    <glyph glyph-name="umacron" unicode="&#x16b;" 
d="M368 0h57v515h-65v-276q0 -71 -14 -109q-13 -39 -42 -59q-32 -21 -65 -21q-35 0 -59.5 21.5t-31.5 59.5q-4 34 -4 98v286h-65v-321q0 -55 5 -83q5 -34 23 -64q14 -23 47 -42q36 -17 71 -17q74 0 143 105v-93zM133 613h247v57h-247v-57z" />
    <glyph glyph-name="Ubreve" unicode="&#x16c;" horiz-adv-x="622" 
d="M485 716v-413q0 -142 -39 -193q-40 -51 -128 -51q-52 0 -91 25q-34 23 -53 77q-15 52 -15 142v413h-67v-415q0 -117 22 -180v1q24 -63 77.5 -98.5t132.5 -35.5q89 0 139 38q55 45 71 103q22 68 22 172v415h-71zM439 889h-40q-18 -68 -78 -68q-55 0 -72 68h-39
q17 -114 115 -114q44 0 73.5 30t40.5 84z" />
    <glyph glyph-name="ubreve" unicode="&#x16d;" 
d="M368 0h57v515h-65v-276q0 -71 -14 -109q-13 -39 -42 -59q-32 -21 -65 -21q-35 0 -59.5 21.5t-31.5 59.5q-4 34 -4 98v286h-65v-321q0 -55 5 -83q5 -34 23 -64q14 -23 47 -42q36 -17 71 -17q74 0 143 105v-93zM372 715h-40q-18 -68 -78 -68q-55 0 -72 68h-39
q17 -114 115 -114q44 0 73.5 30t40.5 84z" />
    <glyph glyph-name="Uring" unicode="&#x16e;" horiz-adv-x="622" 
d="M485 716v-413q0 -142 -39 -193q-40 -51 -128 -51q-52 0 -91 25q-34 23 -53 77q-15 52 -15 142v413h-67v-415q0 -117 22 -180v1q24 -63 77.5 -98.5t132.5 -35.5q89 0 139 38q55 45 71 103q22 68 22 172v415h-71zM274 814q0 24 14 43q17 18 35 18q20 0 36 -17
q13 -20 13 -45q0 -23 -13 -44q-16 -17 -36 -17q-16 0 -34 15q-15 23 -15 47zM255 815q0 -40 19 -62q18 -23 49 -23q27 0 48 24q20 25 20 59q0 35 -20 58q-21 26 -48 26q-29 0 -48 -26q-20 -20 -20 -56z" />
    <glyph glyph-name="uring" unicode="&#x16f;" 
d="M368 0h57v515h-65v-276q0 -71 -14 -109q-13 -39 -42 -59q-32 -21 -65 -21q-35 0 -59.5 21.5t-31.5 59.5q-4 34 -4 98v286h-65v-321q0 -55 5 -83q5 -34 23 -64q14 -23 47 -42q36 -17 71 -17q74 0 143 105v-93zM204 659q0 24 14 43q17 18 35 18q20 0 36 -17q13 -19 13 -45
q0 -23 -13 -44q-16 -17 -36 -17q-16 0 -34 15q-15 23 -15 47zM185 660q0 -40 19 -62q18 -23 49 -23q27 0 48 24q20 25 20 59q0 35 -20 58q-21 26 -48 26q-29 0 -48 -26q-20 -20 -20 -56z" />
    <glyph glyph-name="Uhungarumlaut" unicode="&#x170;" horiz-adv-x="622" 
d="M485 716v-413q0 -142 -39 -193q-40 -51 -128 -51q-52 0 -91 25q-34 23 -53 77q-15 52 -15 142v413h-67v-415q0 -117 22 -180v1q24 -63 77.5 -98.5t132.5 -35.5q89 0 139 38q55 45 71 103q22 68 22 172v415h-71zM218 772h48q16 28 52 84q5 9 13 22.5t12 19.5h-80
q-13 -37 -23 -60h1q-8 -25 -13 -35q-8 -25 -10 -31zM360 772h52q7 10 40 68l36 58h-80q-5 -15 -16 -42t-15 -39v1z" />
    <glyph glyph-name="uhungarumlaut" unicode="&#x171;" 
d="M368 0h57v515h-65v-276q0 -71 -14 -109q-13 -39 -42 -59q-32 -21 -65 -21q-35 0 -59.5 21.5t-31.5 59.5q-4 34 -4 98v286h-65v-321q0 -55 5 -83q5 -34 23 -64q14 -23 47 -42q36 -17 71 -17q74 0 143 105v-93zM126 595h48q16 28 52 84q5 9 13 22.5t12 19.5h-80
q-13 -37 -23 -60h1q-8 -25 -13 -35q-9 -26 -10 -31zM268 595h52q7 10 40 68l36 58h-80q-5 -15 -16 -42t-15 -39v1z" />
    <glyph glyph-name="Uogonek" unicode="&#x172;" horiz-adv-x="622" 
d="M323 -20l9 8q85 6 129 50q48 41 65 105q17 71 17 158v415h-71v-413q0 -142 -39 -193t-131 -51q-46 0 -84 24q-37 22 -57 78q-15 47 -15 142v413h-67v-415q0 -167 46 -232q47 -66 162 -81q-13 -62 -13 -98q0 -44 24 -75q24 -27 61 -27q38 0 85 26v43q-35 -18 -63 -18
t-46.5 23t-18.5 62q0 22 7 56z" />
    <glyph glyph-name="uogonek" unicode="&#x173;" 
d="M395 0h15v515h-64v-276q0 -66 -9 -99q-11 -39 -44 -65q-31 -25 -69 -25q-36 0 -57 21q-25 19 -32 55q-6 42 -6 103v286h-63v-321q0 -72 13 -112q9 -39 45 -67q35 -27 86 -27q76 0 144 105v-103l-3 -16q-11 -53 -11 -84q0 -47 22 -75q21 -27 61 -27q39 0 86 26v43
q-35 -18 -63 -18q-27 0 -45 21q-19 28 -19 62q0 33 13 78z" />
    <glyph glyph-name="Wcircumflex" unicode="&#x174;" horiz-adv-x="805" 
d="M191 0h74l64 278l30 130q14 57 34 145q6 27 10 51l6 33h9q3 -9 8 -22q4 -30 13 -62l125 -553h70l65 286q1 6 9.5 41t12.5 51l63 284q5 23 13 54h-71q-3 -19 -11 -56.5t-10 -49.5q-15 -82 -25 -128q-21 -97 -46 -231q-12 -50 -22 -111q-2 -12 -10 -45h-9q-17 126 -46 256
l-87 365h-87l-75 -321q-9 -37 -19 -84q-2 -8 -18 -80q-2 -5 -17 -74q-5 -32 -6 -35q-2 -4 -2 -8v1q0 -2 -6 -22l-9 1q0 4 -1.5 12t-2.5 12q-17 110 -20 125l-93 473h-70l54 -239q2 -8 5.5 -23.5t4.5 -23.5l85 -397q1 -3 8 -33zM414 863l47 -91h71q-24 40 -37 55
q-11 20 -46 71h-75q-3 -6 -20 -31q-9 -16 -20 -32q-3 -6 -13.5 -21.5t-15.5 -24.5v-1q-6 -8 -11 -16h71z" />
    <glyph glyph-name="wcircumflex" unicode="&#x175;" horiz-adv-x="622" 
d="M159 0h71q28 140 54 248l16 75l18 78h8l18 -89q18 -93 53 -244q4 -22 9 -42q1 -3 6 -26h70l17 68l46 179l67 268h-58l-39 -160l-9 -33q-11 -45 -26 -110q-13 -47 -26 -103h-9q-11 43 -20 92q0 2 -2 12q-3 12 -8.5 37.5t-8.5 38.5q-38 182 -47 226h-70q-3 -14 -6.5 -30.5
t-8 -37t-6.5 -31.5q-3 -15 -8.5 -41.5t-7.5 -33.5l-30 -132q-2 -12 -8 -38.5t-9 -38.5q-1 -5 -4 -25q-1 -3 -9 -16q-9 37 -11 46t-8.5 35.5t-9.5 41.5q-7 30 -31 136.5t-36 164.5h-67l66 -258l22 -88q28 -106 42 -169zM329 686l47 -91h71q-24 40 -37 55q-11 20 -46 71h-75
q-3 -6 -20 -31q-9 -16 -20 -32q-3 -6 -13.5 -21.5t-15.5 -24.5v-1q-6 -8 -11 -16h71z" />
    <glyph glyph-name="Ycircumflex" unicode="&#x176;" horiz-adv-x="577" 
d="M261 0h68v306l236 410h-80q-10 -17 -17 -32q-12 -21 -48 -90q-1 -2 -7 -11q-19 -37 -44 -80l-69 -138q-19 44 -66 134q-4 7 -16 29t-18 34l-83 154h-84l104 -188l124 -222v-306zM312 863l47 -91h71q-24 40 -37 55q-11 20 -46 71h-75q-3 -6 -20 -31q-9 -16 -20 -32
q-3 -6 -13.5 -21.5t-15.5 -24.5v-1q-6 -8 -11 -16h71z" />
    <glyph glyph-name="ycircumflex" unicode="&#x177;" horiz-adv-x="438" 
d="M71 -138l8 -69q30 -8 42 -8q62 0 102 82q7 16 42 120h-1l163 528h-62q-5 -15 -15 -49l-24 -78l-22 -73l-31 -106q-18 -59 -31 -118h-9q-18 76 -32 120l-90 304h-67l93 -301l70 -223l-4 -11q0 -2 -2 -4v-3q-1 -2 -1 -7q-8 -28 -24 -70q-24 -39 -69 -39q-8 0 -36 5z
M250 686l47 -91h71q-24 40 -37 55q-11 20 -46 71h-75q-3 -6 -20 -31q-9 -16 -20 -32q-3 -6 -13.5 -21.5t-15.5 -24.5v-1q-6 -8 -11 -16h71z" />
    <glyph glyph-name="Ydieresis" unicode="&#x178;" horiz-adv-x="577" 
d="M261 0h68v306l236 410h-80q-10 -17 -17 -32q-12 -21 -48 -90q-1 -2 -7 -11q-19 -37 -44 -80l-69 -138q-19 44 -66 134q-4 7 -16 29t-18 34l-83 154h-84l104 -188l124 -222v-306zM188 774h66v88h-66v-88zM340 774h67v88h-67v-88z" />
    <glyph glyph-name="Zacute" unicode="&#x179;" horiz-adv-x="530" 
d="M44 0h464v70h-392l46 66l141 209l90 136l106 159v76h-422v-70h347q-38 -46 -66 -90v1q-6 -8 -8 -12l-306 -467v-78zM224 772h50q1 1 11 19q5 7 12.5 19t8.5 13l17 25l32 50h-82q-1 -3 -4 -9.5t-4 -8.5q-1 -5 -5 -15t-5 -14l-11 -27q-3 -9 -10 -26t-10 -26z" />
    <glyph glyph-name="zacute" unicode="&#x17a;" horiz-adv-x="438" 
d="M45 0h374v62h-198q-39 0 -106 -7l55 77l236 334v49h-348v-57h174q54 0 97 3l-284 -399v-62zM191 595h50q1 2 11 19q5 7 12.5 19t8.5 13l17 25l32 50h-82q-1 -3 -4 -9.5t-4 -8.5q-1 -5 -5 -15t-5 -14l-11 -27q-3 -9 -10 -26t-10 -26z" />
    <glyph glyph-name="Zdotaccent" unicode="&#x17b;" horiz-adv-x="530" 
d="M44 0h464v70h-392l46 66l141 209l90 136l106 159v76h-422v-70h347q-38 -46 -66 -90v1q-6 -8 -8 -12l-306 -467v-78zM246 772h80v97h-80v-97z" />
    <glyph glyph-name="zdotaccent" unicode="&#x17c;" horiz-adv-x="438" 
d="M45 0h374v62h-198q-39 0 -106 -7l55 77l236 334v49h-348v-57h174q54 0 97 3l-284 -399v-62zM191 595h80v97h-80v-97z" />
    <glyph glyph-name="Zcaron" unicode="&#x17d;" horiz-adv-x="530" 
d="M44 0h464v70h-392l46 66l141 209l90 136l106 159v76h-422v-70h347q-38 -46 -66 -90v1q-6 -8 -8 -12l-306 -467v-78zM282 805l-48 90h-71l72 -114l6 -12h77q4 8 7 11h-1q1 2 2.5 4.5t3 4.5t2.5 3q10 14 25 38q6 9 20 30.5t23 34.5h-69l-18 -33q-15 -33 -31 -57z" />
    <glyph glyph-name="zcaron" unicode="&#x17e;" horiz-adv-x="438" 
d="M45 0h374v62h-198q-39 0 -106 -7l55 77l236 334v49h-348v-57h174q54 0 97 3l-284 -399v-62zM244 631l-48 90h-71l72 -114l6 -12h77q4 8 7 11h-1q1 2 2.5 4.5t3 4.5t2.5 3q10 14 25 38q6 9 20 30.5t23 34.5h-69l-18 -33q-15 -33 -31 -57z" />
    <glyph glyph-name="longs" unicode="&#x17f;" horiz-adv-x="208" 
d="M71 0h64v571q0 46 14 68q14 23 54 23q21 0 37 -3q1 6 4 19q2 28 6 45q-36 6 -63 6q-47 0 -69 -18q-29 -20 -36 -46q-11 -31 -11 -85v-580z" />
    <glyph glyph-name="uni04D8" unicode="&#x18f;" horiz-adv-x="647" 
d="M125 335h400q-6 -135 -57 -209q-55 -73 -143 -73q-89 0 -143 74q-53 69 -57 208zM567 545q-32 84 -99 136q-66 48 -145 48q-84 0 -151 -54q-61 -53 -85 -146q20 -4 29 -9q4 -1 10.5 -3t15.5 -5t13 -4q40 151 168 151q91 0 145 -68q47 -65 54 -185h-471v-40
q0 -161 65 -270q70 -108 209 -108q141 0 209 108h-1q65 109 65 256v13q-5 108 -31 180z" />
    <glyph glyph-name="uni04D8" unicode="&#x4d8;" horiz-adv-x="647" 
d="M125 335h400q-6 -135 -57 -209q-55 -73 -143 -73q-89 0 -143 74q-53 69 -57 208zM567 545q-32 84 -99 136q-66 48 -145 48q-84 0 -151 -54q-61 -53 -85 -146q20 -4 29 -9q4 -1 10.5 -3t15.5 -5t13 -4q40 151 168 151q91 0 145 -68q47 -65 54 -185h-471v-40
q0 -161 65 -270q70 -108 209 -108q141 0 209 108h-1q65 109 65 256v13q-5 108 -31 180z" />
    <glyph glyph-name="florin" unicode="&#x192;" 
d="M44 -142l-11 -62q52 -11 85 -11q42 0 69 27q23 28 34 97v-1q19 139 64 444l16 108h84v5q0 3 0.5 8t0.5 6q3 10 5 29q0 5 1 7h-84q3 18 4 23q0 2 5 36q10 58 21 72q12 15 38 15q22 0 61 -10q0 7 2 17t2 11l2 10q1 4 3 11t3 11q-54 18 -82 18q-70 0 -95 -62q-5 -10 -18 -81
q-3 -36 -12 -71h-82q0 -3 -0.5 -8t-0.5 -7q-1 -4 -1 -10q0 -4 -4 -24q0 -2 -1 -3t-1 -3h84q-5 -36 -27 -187q-38 -280 -46 -342q-7 -46 -20 -67q-18 -16 -39 -16q-13 0 -60 10z" />
    <glyph glyph-name="Ohorn" unicode="&#x1a0;" horiz-adv-x="732" 
d="M124 347q0 155 62 242q55 72 148 72q61 0 111 -37q100 -76 100 -266q0 -142 -58 -224q-60 -80 -153 -80q-91 0 -152 79q-58 80 -58 214zM633 635h40q-4 -58 -14 -77q-14 -25 -59 -59q-38 113 -104 169q-69 61 -162 61q-127 0 -204 -101q-79 -103 -79 -279q0 -95 34 -180
q34 -88 100 -132q63 -49 149 -49q79 0 145 44q68 49 103 130q35 87 35 195q0 52 -10 120q61 40 81 82q14 39 14 91v75h-69v-90z" />
    <glyph glyph-name="ohorn" unicode="&#x1a1;" horiz-adv-x="565" 
d="M105 256q0 100 39 159q37 52 96 52q58 0 95 -52q39 -64 39 -154q0 -100 -39 -161q-36 -53 -95 -53t-96 53q-39 58 -39 156zM459 439h40q0 -51 -16 -78l1 1q-10 -21 -47 -51q-15 95 -53 147v-1q-60 69 -144 69q-75 0 -135 -58q-65 -75 -65 -212q0 -124 56 -198
q54 -70 144 -70q55 0 105 32h-1q95 63 95 245v20q53 36 75 77q14 37 14 91v74h-69v-88z" />
    <glyph glyph-name="Uhorn" unicode="&#x1af;" horiz-adv-x="730" 
d="M615 628h41q-1 -71 -14 -96q-28 -50 -102 -62v246h-70v-413q0 -140 -38 -193q-36 -51 -129 -51q-52 0 -90 26.5t-53 72.5q-14 52 -14 145v413h-70v-415q0 -115 24 -180q23 -64 77 -98.5t133 -34.5q90 0 139 39q51 41 72 102q19 65 19 172v148q94 7 130 88q16 29 16 105
v74h-71v-88z" />
    <glyph glyph-name="uhorn" unicode="&#x1b0;" horiz-adv-x="579" 
d="M470 426h41q-1 -63 -13 -94q-31 -47 -88 -63v246h-64v-276q0 -66 -13 -107q-14 -38 -43 -60q-30 -22 -66 -22q-73 0 -90 81q-5 21 -5 98v286h-64v-321q0 -59 5 -83q6 -36 22 -63q13 -22 48 -44q37 -16 69 -16q77 0 144 105v-93h57v248q81 12 115 87q15 26 15 105v75h-70
v-89z" />
    <glyph glyph-name="uni01CD" unicode="&#x1cd;" horiz-adv-x="577" 
d="M185 285l70 226q19 73 31 140h11q6 -27 42 -152l51 -163q4 -15 16 -51h-221zM27 0h72q2 8 9 28.5t10 32.5q8 28 20 64q3 10 6.5 22.5t8 28.5t6.5 24l7 22h261l68 -222h81q-13 41 -25 74l-168 496h-1q-5 17 -36 109q-8 21 -13 37h-79l-36 -112l-95 -300zM295 802l-48 90
h-71l72 -114l6 -12h77q4 8 7 11h-1q1 2 2.5 4.5t3 4.5t2.5 3q11 14 25 38q6 9 20 30.5t23 34.5h-69l-18 -33q-15 -33 -31 -57z" />
    <glyph glyph-name="uni01CE" unicode="&#x1ce;" 
d="M360 270v-45q0 -59 -12 -94q-18 -41 -51.5 -65t-77.5 -24q-45 0 -69 25.5t-24 66.5q0 32 11 48q14 24 32 31h-1q21 10 67 19q73 13 125 38zM356 61l11 -4q1 -31 12 -57h64q-10 29 -13 55q-5 38 -5 159v120q0 65 -4 81q-4 32 -21 59v-1q-37 53 -139 53q-53 0 -97 -18
q-72 -35 -93 -130q5 -1 15 -2l11 -2q16 -2 31 -5q2 -1 3 -1h2q11 52 37 76q27 23 80 23q57 0 88 -31q23 -26 23 -84v-7q0 -1 -0.5 -4t-0.5 -5v-13q-40 -17 -136 -34q-52 -7 -66 -13q-43 -13 -72 -51t-29 -93q0 -59 37 -104q42 -40 106 -40q41 0 81 16q41 21 75 57zM269 631
l-48 90h-71l72 -114l6 -12h77q4 8 7 11h-1q1 2 2.5 4.5t3 4.5t2.5 3q11 14 25 38q6 9 20 30.5t23 34.5h-69l-18 -33q-15 -33 -31 -57z" />
    <glyph glyph-name="uni01CF" unicode="&#x1cf;" horiz-adv-x="255" 
d="M107 0h68v716h-68v-716zM142 802l-48 90h-71l72 -114l6 -12h77q4 8 7 11h-1q1 2 2.5 4.5t3 4.5t2.5 3q10 14 25 38q6 9 20 30.5t23 34.5h-69l-18 -33q-15 -33 -31 -57z" />
    <glyph glyph-name="uni01D0" unicode="&#x1d0;" horiz-adv-x="208" 
d="M85 0h64v515h-64v-515zM123 631l-48 90h-71l72 -114l6 -12h77q4 8 7 11h-1q1 2 2.5 4.5t3 4.5t2.5 3q11 14 25 38q6 9 20 30.5t23 34.5h-69l-18 -33q-15 -33 -31 -57z" />
    <glyph glyph-name="uni01D1" unicode="&#x1d1;" horiz-adv-x="667" 
d="M137 347q0 163 63 242q63 72 148 72q62 0 112 -37q99 -78 99 -266q0 -141 -59 -224q-62 -80 -153 -80q-87 0 -151 79q-59 80 -59 214zM64 349q0 -96 34 -180q33 -80 100 -132q66 -49 149 -49q79 0 145 44q69 47 103 131q36 84 36 194t-34 192q-35 86 -100 133
q-67 47 -149 47q-124 0 -204 -101q-80 -102 -80 -279zM352 802l-48 90h-71l72 -114l6 -12h77q4 8 7 11h-1q1 2 2.5 4.5t3 4.5t2.5 3q10 14 25 38q6 9 20 30.5t23 34.5h-69l-18 -33q-15 -33 -31 -57z" />
    <glyph glyph-name="uni01D2" unicode="&#x1d2;" 
d="M126 256q0 104 36 159q42 52 98 52t95 -52q38 -53 38 -154q0 -109 -38 -161q-38 -53 -95 -53q-55 0 -98 52q-36 53 -36 157zM59 256q0 -118 55 -198q60 -70 146 -70q54 0 103 32q49 33 69 87q28 61 28 158q0 121 -57 192q-55 69 -143 69q-82 0 -134 -58q-67 -70 -67 -212
zM254 631l-48 90h-71l72 -114l6 -12h77q4 8 7 11h-1q1 2 2.5 4.5t3 4.5t2.5 3q10 14 25 38q6 9 20 30.5t23 34.5h-69l-18 -33q-15 -33 -31 -57z" />
    <glyph glyph-name="uni01D3" unicode="&#x1d3;" horiz-adv-x="622" 
d="M485 716v-413q0 -142 -39 -193q-40 -51 -128 -51q-52 0 -91 25q-34 23 -53 77q-15 52 -15 142v413h-67v-415q0 -117 22 -180v1q24 -63 77.5 -98.5t132.5 -35.5q89 0 139 38q55 45 71 103q22 68 22 172v415h-71zM331 802l-48 90h-71l72 -114l6 -12h77q4 8 7 11h-1
q1 2 2.5 4.5t3 4.5t2.5 3q11 14 25 38q6 9 20 30.5t23 34.5h-69l-18 -33q-15 -33 -31 -57z" />
    <glyph glyph-name="uni01D4" unicode="&#x1d4;" 
d="M368 0h57v515h-65v-276q0 -71 -14 -109q-13 -39 -42 -59q-32 -21 -65 -21q-35 0 -59.5 21.5t-31.5 59.5q-4 34 -4 98v286h-65v-321q0 -55 5 -83q5 -34 23 -64q14 -23 47 -42q36 -17 71 -17q74 0 143 105v-93zM259 631l-48 90h-71l72 -114l6 -12h77q4 8 7 11h-1
q1 2 2.5 4.5t3 4.5t2.5 3q11 14 25 38q6 9 20 30.5t23 34.5h-69l-18 -33q-15 -33 -31 -57z" />
    <glyph glyph-name="uni01D5" unicode="&#x1d5;" horiz-adv-x="622" 
d="M485 716v-413q0 -142 -39 -193q-40 -51 -128 -51q-52 0 -91 25q-34 23 -53 77q-15 52 -15 142v413h-67v-415q0 -117 22 -180v1q24 -63 77.5 -98.5t132.5 -35.5q89 0 139 38q55 45 71 103q22 68 22 172v415h-71zM429 746v59h-46v-59h46zM273 746v59h-46v-59h46zM429 861
v43h-202v-43h202z" />
    <glyph glyph-name="uni01D6" unicode="&#x1d6;" 
d="M368 0h57v515h-65v-276q0 -71 -14 -109q-13 -39 -42 -59q-32 -21 -65 -21q-35 0 -59.5 21.5t-31.5 59.5q-4 34 -4 98v286h-65v-321q0 -55 5 -83q5 -34 23 -64q14 -23 47 -42q36 -17 71 -17q74 0 143 105v-93zM143 634h66v88h-66v-88zM295 634h67v88h-67v-88zM128 794h247
v57h-247v-57z" />
    <glyph glyph-name="uni01D7" unicode="&#x1d7;" horiz-adv-x="622" 
d="M485 716v-413q0 -142 -39 -193q-40 -51 -128 -51q-52 0 -91 25q-34 23 -53 77q-15 52 -15 142v413h-67v-415q0 -117 22 -180v1q24 -63 77.5 -98.5t132.5 -35.5q89 0 139 38q55 45 71 103q22 68 22 172v415h-71zM429 746v59h-46v-59h46zM273 746v59h-46v-59h46zM413 905
h-73q-13 -23 -16 -27q-10 -16 -29 -46h41l7 7q11 9 28 26q5 4 22 21q12 12 20 19z" />
    <glyph glyph-name="uni01D8" unicode="&#x1d8;" 
d="M368 0h57v515h-65v-276q0 -71 -14 -109q-13 -39 -42 -59q-32 -21 -65 -21q-35 0 -59.5 21.5t-31.5 59.5q-4 34 -4 98v286h-65v-321q0 -55 5 -83q5 -34 23 -64q14 -23 47 -42q36 -17 71 -17q74 0 143 105v-93zM143 634h66v88h-66v-88zM295 634h67v88h-67v-88zM215 776h50
q1 2 11 19q5 6 12.5 18.5t8.5 13.5l17 25l32 50h-82q-1 -3 -4 -9.5t-4 -8.5q-1 -5 -5 -15t-5 -14l-11 -27q-3 -9 -10 -26t-10 -26z" />
    <glyph glyph-name="uni01D9" unicode="&#x1d9;" horiz-adv-x="622" 
d="M485 716v-413q0 -142 -39 -193q-40 -51 -128 -51q-52 0 -91 25q-34 23 -53 77q-15 52 -15 142v413h-67v-415q0 -117 22 -180v1q24 -63 77.5 -98.5t132.5 -35.5q89 0 139 38q55 45 71 103q22 68 22 172v415h-71zM429 746v59h-46v-59h46zM273 746v59h-46v-59h46zM408 905
h-46l-6 -9l-11 -18q-8 -12 -11 -17q3 3 -5 -9l-35 53h-44q17 -27 29 -42q1 -2 9 -13.5t12 -17.5h53q6 9 8 11l4 4q5 7 17 23t14 19z" />
    <glyph glyph-name="uni01DA" unicode="&#x1da;" 
d="M368 0h57v515h-65v-276q0 -71 -14 -109q-13 -39 -42 -59q-32 -21 -65 -21q-35 0 -59.5 21.5t-31.5 59.5q-4 34 -4 98v286h-65v-321q0 -55 5 -83q5 -34 23 -64q14 -23 47 -42q36 -17 71 -17q74 0 143 105v-93zM143 634h66v88h-66v-88zM295 634h67v88h-67v-88zM259 812
l-48 90h-71l72 -114l6 -12h77q4 8 7 11h-1l8 12q11 14 25 38q6 9 20 30.5t23 34.5h-69q-3 -4 -6 -9.5t-6.5 -12.5l-5.5 -11q-15 -33 -31 -57z" />
    <glyph glyph-name="uni01DB" unicode="&#x1db;" horiz-adv-x="622" 
d="M485 716v-413q0 -142 -39 -193q-40 -51 -128 -51q-52 0 -91 25q-34 23 -53 77q-15 52 -15 142v413h-67v-415q0 -117 22 -180v1q24 -63 77.5 -98.5t132.5 -35.5q89 0 139 38q55 45 71 103q22 68 22 172v415h-71zM429 746v59h-46v-59h46zM273 746v59h-46v-59h46zM360 832
l-45 73h-71l8 -9q23 -23 43 -41l21 -21l4 -2h40z" />
    <glyph glyph-name="uni01DC" unicode="&#x1dc;" 
d="M368 0h57v515h-65v-276q0 -71 -14 -109q-13 -39 -42 -59q-32 -21 -65 -21q-35 0 -59.5 21.5t-31.5 59.5q-4 34 -4 98v286h-65v-321q0 -55 5 -83q5 -34 23 -64q14 -23 47 -42q36 -17 71 -17q74 0 143 105v-93zM143 634h66v88h-66v-88zM295 634h67v88h-67v-88zM144 902h10
q-1 1 -1 2v-1q-1 2 -2.5 3.5t-1.5 2.5zM287 776l-49 126h-84l27 -41l34 -51q3 -4 11 -15.5t13 -18.5h48z" />
    <glyph glyph-name="Aringacute" unicode="&#x1fa;" horiz-adv-x="577" 
d="M246 888h49q4 6 8.5 12.5t10 14.5t8.5 12q6 10 13 21q7 9 25 37l19 27h-84q-9 -26 -49 -124zM230 792q0 23 15 41q16 19 35 19q18 0 34 -18q14 -18 14 -43q0 -31 -14 -46q-17 -17 -34 -17q-23 0 -35 18q-15 17 -15 46zM172 285l70 226q19 73 31 140h11q6 -27 42 -152
l51 -163q4 -15 16 -51h-221zM14 0h72q2 8 9 28.5t10 32.5q8 28 20 64q3 10 6.5 22.5t8 28.5t6.5 24l7 22h261l68 -222h81q-13 41 -25 74l-168 496l-40 117q-9 21 -12 34q1 1 2.5 3l1.5 2q2 2 8 5q18 25 18 59q0 36 -19 58q-26 26 -50 26q-26 0 -50 -26q-18 -22 -18 -56
q0 -38 18 -61q2 -3 13 -12l-95 -297l-37 -118z" />
    <glyph glyph-name="aringacute" unicode="&#x1fb;" 
d="M221 820h48q2 3 25 38q5 8 31 47q11 16 25 39h-80q-6 -12 -12 -27q-2 -5 -6.5 -17t-7.5 -18v1q-1 -2 -23 -63zM191 659q0 23 16 44q11 17 34 17t33 -18q17 -20 17 -44t-17 -43q-14 -18 -33 -18q-20 0 -34 17q-16 21 -16 45zM170 660q0 -38 20 -61q22 -24 49 -24
q28 0 49 23q21 26 21 60t-21 57q-21 27 -49 27q-26 0 -48 -27q-21 -23 -21 -55zM347 270v-45q0 -59 -12 -94q-18 -41 -51.5 -65t-77.5 -24q-45 0 -69 25.5t-24 66.5q0 32 11 48q14 24 32 31h-1q21 10 67 19q73 13 125 38zM343 61l11 -4q2 -31 12 -57h64q-10 29 -13 55
q-5 38 -5 159v120q0 65 -4 81q-4 32 -21 59v-1q-37 53 -139 53q-53 0 -97 -18q-72 -35 -93 -130q5 -1 16 -2l10 -2q16 -2 31 -5q2 -1 2.5 -1h2.5q11 52 37 76q27 23 80 23q57 0 88 -31q23 -26 23 -84v-7q0 -1 -0.5 -4t-0.5 -5v-13q-40 -17 -136 -34q-52 -7 -66 -13
q-43 -13 -72 -51t-29 -93q0 -59 37 -104q42 -40 106 -40q41 0 81 16q41 21 75 57z" />
    <glyph glyph-name="AEacute" unicode="&#x1fc;" horiz-adv-x="851" 
d="M211 282l145 364h70v-364h-215zM27 0h73l46 116q10 24 23 59q8 19 13 36h244v-211h383v70h-315v265h283v70h-283v241h306v70h-490l-110 -280l-92 -231zM387 772h50q1 1 11 19q5 7 12.5 19t8.5 13l17 25l32 50h-82q-1 -3 -4 -9.5t-4 -8.5q-1 -5 -5 -15t-5 -14l-11 -27
q-3 -9 -10 -26t-10 -26z" />
    <glyph glyph-name="aeacute" unicode="&#x1fd;" horiz-adv-x="758" 
d="M664 301h-255q11 86 41 125q38 41 88 41q110 0 126 -166zM339 265l10 -11q0 -84 -6 -107v1q-11 -46 -49 -76t-84 -30q-43 0 -67 27h1q-25 27 -25 66t27 69q18 17 66 26q79 14 127 35zM723 147l-65 11q-14 -53 -44.5 -82t-71.5 -29q-36 0 -68 21q-31 22 -47 58
q-15 31 -17 116h308v-20q5 7 22 25q-4 -1 -8.5 -2.5t-5.5 -1.5q4 14 4 22q0 58 -22 124h1q-20 60 -62 100q-41 37 -108 37q-80 0 -140 -74q-24 40 -43 49q-40 25 -109 25q-54 0 -93 -18q-41 -20 -58 -52q-18 -29 -31 -80q2 0 5 -0.5t7 -1.5t6 -1q16 -2 21 -2q12 -3 18 -4h1
l2 -1q10 45 21 59v-1q25 43 101 43q52 0 78 -26q24 -29 24 -94v-27q-39 -13 -108 -26q-71 -11 -118 -31h1q-34 -22 -53 -55q-21 -38 -21 -76q0 -51 37 -103q43 -41 108 -41q91 0 181 102q73 -102 163 -102q66 0 113.5 41t70.5 118zM365 595h50q1 2 11 19q5 7 12.5 19t8.5 13
l17 25l32 50h-82q-1 -3 -4 -9.5t-4 -8.5q-1 -5 -5 -15t-5 -14l-11 -27q-3 -9 -10 -26t-10 -26z" />
    <glyph glyph-name="Oslashacute" unicode="&#x1fe;" horiz-adv-x="667" 
d="M204 122l316 429q39 -106 39 -196q0 -140 -62 -221q-60 -80 -151 -80q-41 0 -77 18q-27 14 -65 50zM492 590l-317 -429l-6 17q-21 58 -24 74q-10 44 -10 106q0 151 60 227q62 76 152 76q40 0 70 -13q31 -16 75 -58zM603 742l-69 -96q-57 52 -91 64q-42 19 -96 19
q-78 0 -147 -45q-63 -45 -101 -130q-36 -88 -36 -198q0 -66 13 -124v1q21 -63 57 -131l-73 -96l15 -15q3 -5 15 -15l3 -3q24 34 38 50h-1q6 10 33 43q56 -49 84 -60q49 -18 101 -18q80 0 141 44q68 44 104 130q36 84 36 196q0 81 -16 138q-14 52 -51 114l74 98l-2 2l-11 12
l-8 8zM307 772h50q1 1 11 19q5 7 12.5 19t8.5 13l17 25l32 50h-82q-1 -3 -4 -9.5t-4 -8.5q-1 -5 -5 -15t-5 -14l-11 -27q-3 -9 -10 -26t-10 -26z" />
    <glyph glyph-name="oslashacute" unicode="&#x1ff;" horiz-adv-x="530" 
d="M195 84l193 305q19 -50 20 -63q5 -32 5 -69q0 -102 -38 -157q-39 -53 -99 -53q-41 0 -81 37zM366 427l-194 -307q-27 67 -27 136q0 104 36 159q40 52 98 52q43 0 87 -40zM440 546l-41 -65q-67 45 -122 45q-81 0 -141 -66q-57 -64 -57 -210q0 -71 15 -121q10 -32 38 -70
l-44 -68q6 -5 11 -12q12 -9 19 -16l21 33h-1q2 3 6 8l3 5q1 1 3 4t3 4t2.5 4t3 5t2.5 3q55 -41 116 -41q76 0 134 55q66 74 66 213q0 70 -12 115q-7 31 -36 79l42 68h-1q-14 12 -18 17l-3 3q-3 3 -9 8zM248 595h50q1 2 11 19q5 7 12.5 19t8.5 13l17 25l32 50h-82
q-1 -3 -4 -9.5t-4 -8.5q-1 -5 -5 -15t-5 -14l-11 -27q-3 -9 -10 -26t-10 -26z" />
    <glyph glyph-name="afii10846" unicode="&#x259;" 
d="M114 214h257q-6 -77 -39 -121q-35 -46 -91 -46q-57 0 -95 54q-23 34 -32 113zM440 262q0 121 -51 192q-52 72 -152 72q-139 0 -184 -155q23 -5 29 -6q17 -3 22 -4q3 -1 7.5 -1h6.5q37 108 118 108q66 0 102 -56q30 -49 37 -140h-328v-17q0 -111 49 -189l-1 1
q53 -79 147 -79t150 80v-1q48 76 48 195z" />
    <glyph glyph-name="afii10846" unicode="&#x4d9;" 
d="M114 214h257q-6 -77 -39 -121q-35 -46 -91 -46q-57 0 -95 54q-23 34 -32 113zM440 262q0 121 -51 192q-52 72 -152 72q-139 0 -184 -155q23 -5 29 -6q17 -3 22 -4q3 -1 7.5 -1h6.5q37 108 118 108q66 0 102 -56q30 -49 37 -140h-328v-17q0 -111 49 -189l-1 1
q53 -79 147 -79t150 80v-1q48 76 48 195z" />
    <glyph glyph-name="circumflex" unicode="&#x2c6;" horiz-adv-x="301" 
d="M151 686l47 -91h71q-24 40 -37 55q-11 20 -46 71h-75q-3 -6 -20 -31q-9 -16 -20 -32q-3 -6 -13.5 -21.5t-15.5 -24.5v-1q-6 -8 -11 -16h71z" />
    <glyph glyph-name="caron" unicode="&#x2c7;" horiz-adv-x="301" 
d="M157 631l-48 90h-71l72 -114l6 -12h77q4 8 7 11h-1q1 2 2.5 4.5t3 4.5t2.5 3q11 14 25 38q6 9 20 30.5t23 34.5h-69l-18 -33q-15 -33 -31 -57z" />
    <glyph glyph-name="uni02C9" unicode="&#x2c9;" horiz-adv-x="301" 
d="M26 613h247v57h-247v-57z" />
    <glyph glyph-name="breve" unicode="&#x2d8;" horiz-adv-x="301" 
d="M265 715h-40q-18 -68 -78 -68q-55 0 -72 68h-39q17 -114 115 -114q44 0 73.5 30t40.5 84z" />
    <glyph glyph-name="dotaccent" unicode="&#x2d9;" horiz-adv-x="301" 
d="M110 595h80v97h-80v-97z" />
    <glyph glyph-name="ring" unicode="&#x2da;" horiz-adv-x="301" 
d="M102 659q0 24 14 43q17 18 35 18q20 0 36 -17q13 -19 13 -45q0 -23 -13 -44q-16 -17 -36 -17q-16 0 -34 15q-15 23 -15 47zM83 660q0 -40 19 -62q18 -23 49 -23q27 0 48 24q20 25 20 59q0 35 -20 58q-21 26 -48 26q-28 0 -48 -26q-20 -20 -20 -56z" />
    <glyph glyph-name="ogonek" unicode="&#x2db;" horiz-adv-x="301" 
d="M144 -4h-38q-17 -71 -17 -106q0 -46 24 -75q21 -27 61 -27q37 0 86 26v44q-39 -19 -65 -19q-27 0 -45.5 23t-18.5 60q0 31 13 74z" />
    <glyph glyph-name="tilde" unicode="&#x2dc;" horiz-adv-x="301" 
d="M18 608h44q3 25 11 33q13 15 26 15q14 0 43 -19q39 -27 66 -27q30 0 50 25t25 73h-44q-4 -24 -12 -33.5t-22 -9.5q-15 0 -41 15q-41 27 -68 27q-32 0 -56 -30q-17 -18 -22 -69z" />
    <glyph glyph-name="hungarumlaut" unicode="&#x2dd;" horiz-adv-x="301" 
d="M42 595h48q16 28 52 84q5 9 13 22.5t12 19.5h-80q-13 -37 -23 -60h1q-8 -25 -13 -35q-9 -26 -10 -31zM184 595h52q7 10 40 68l36 58h-80q-5 -15 -16 -42t-15 -39v1z" />
    <glyph glyph-name="gravecomb" unicode="&#x300;" horiz-adv-x="25" 
d="M-59 772l-49 125h-84q4 -4 4 -7q1 -2 14 -19l17 -27q32 -48 50 -72h48z" />
    <glyph glyph-name="acutecomb" unicode="&#x301;" horiz-adv-x="25" 
d="M-83 897l-48 -125h47l35 51v-1q47 72 49 75h-83z" />
    <glyph glyph-name="tildecomb" unicode="&#x303;" horiz-adv-x="25" 
d="M-352 772h46q3 47 36 47q12 0 41 -18q41 -27 67 -27q67 0 76 98h-44q-9 -43 -33 -43q-16 0 -43 15q-42 27 -67 27q-34 0 -56 -30q-17 -25 -23 -69z" />
    <glyph glyph-name="hookabovecomb" unicode="&#x309;" horiz-adv-x="25" 
d="M-110 796l-6 -6v-35h35v24q77 16 74 54q0 29 -32 48q-28 18 -81 20q-26 0 -53 -3q1 -3 1 -10q1 -1 1.5 -5t0.5 -6q0 -6 1 -11q12 0 18 1h15q41 0 58 -13q15 -11 14 -26q0 -16 -25 -28h-3h-1l-1 -1q-4 -1 -16 -3z" />
    <glyph glyph-name="dotbelowcomb" unicode="&#x323;" horiz-adv-x="25" 
d="M-284 -163h74v88h-74v-88z" />
    <glyph glyph-name="tonos" unicode="&#x384;" horiz-adv-x="301" 
d="M123 595h50q1 2 11 19q5 7 12.5 19t8.5 13l17 25l32 50h-82q-1 -3 -4 -9.5t-4 -8.5q-1 -5 -5 -15t-5 -14l-11 -27q-3 -9 -10 -26t-10 -26z" />
    <glyph glyph-name="dieresistonos" unicode="&#x385;" horiz-adv-x="301" 
d="M235 694v-80h60v80h-60zM6 694v-80h60v80h-60zM157 736l-49 -122h36q8 10 17 29q36 58 56 93h-60z" />
    <glyph glyph-name="Alphatonos" unicode="&#x386;" horiz-adv-x="577" 
d="M38 592h50l82 124h-83q0 -3 -2 -7q-5 -13 -5 -17q-26 -56 -42 -100zM174 285l69 226q8 28 32 139h9q4 -10 8 -29q8 -32 34 -122l68 -214h-220zM15 0h72l14 42q4 14 12 41t11 38q8 28 30 101h261l67 -222h81l-84 248q-12 39 -49 147l-31 93l-77 228h-80l-80 -253
l-105 -330q-9 -26 -24 -75.5t-18 -57.5z" />
    <glyph glyph-name="anoteleia" unicode="&#x387;" horiz-adv-x="255" 
d="M91 428h74v87h-74v-87z" />
    <glyph glyph-name="Epsilontonos" unicode="&#x388;" horiz-adv-x="672" 
d="M-21 592h49q4 7 11.5 18t10.5 15q18 29 33 48q4 9 11 18q10 13 17 25h-83q-3 -6 -8 -19t-7 -19q-5 -15 -15 -37q-6 -15 -19 -49zM177 0h439v70h-372v266h336v70h-336v240h359v70h-426v-716z" />
    <glyph glyph-name="Etatonos" unicode="&#x389;" horiz-adv-x="715" 
d="M-22 592h51q2 3 6 8.5t7 10t5 8.5q21 33 25 40q14 20 38 57h-82v-1q-1 -1 -1 -2l-2 -2l-1 -1q-4 -14 -16 -44t-16 -41q-8 -17 -14 -33zM160 0h70v345h324v-345h69v716h-69v-301h-324v301h-70v-716z" />
    <glyph glyph-name="Iotatonos" unicode="&#x38a;" horiz-adv-x="342" 
d="M-17 592h50q5 9 17.5 26.5t16.5 23.5v-1l46 72h-1q0 1 1 1l1 2h-80q-4 -10 -8 -14zM165 0h68v716h-68v-716z" />
    <glyph glyph-name="Omicrontonos" unicode="&#x38c;" horiz-adv-x="665" 
d="M96 679l-4 -4zM92 675q-2 -2 -2 1q0 6 7 19v1l-21 -31q7 0 16 10zM-21 592h49q8 13 48 73q-2 0 -2 3t36 48h-82q-3 -6 -8 -19t-7 -19q-5 -15 -15 -37q-6 -15 -19 -49zM120 347q0 165 61 239q60 75 152 75t150 -79q60 -85 60 -224q0 -144 -60 -223q-57 -81 -151 -81
q-96 0 -154 82t-58 211zM48 349q0 -85 29 -169q29 -82 97 -138q68 -54 159 -54q125 0 202 101q79 101 79 268q0 168 -77 269q-82 103 -204 103q-125 0 -206 -101q-79 -98 -79 -279z" />
    <glyph glyph-name="Upsilontonos" unicode="&#x38e;" horiz-adv-x="731" 
d="M-22 592h-7l5 -6v2l1 2q1 0 1 2zM-22 592h49l13 19.5l13 19.5q3 4 7 10q40 63 47 75h-79q-3 -7 -8.5 -21.5t-8.5 -20.5q-2 -7 -7.5 -19.5t-7.5 -17.5q-2 -4 -5 -11.5t-7 -18t-6 -15.5zM399 0h71v306l234 410h-79l-66 -122q-8 -13 -9 -16q-34 -60 -40 -74q-1 -1 -2.5 -3
t-1.5 -3q-51 -100 -66 -134q-28 63 -66 135l-118 217h-84l175 -316q5 -7 5 -8v1q32 -58 47 -88v-305z" />
    <glyph glyph-name="Omegatonos" unicode="&#x38f;" horiz-adv-x="647" 
d="M-22 592h50q23 33 39 59l4 8q29 39 39 57h-81q-2 -2 -2 -3l-3 -3q-3 -12 -12.5 -35.5t-12.5 -30.5q-15 -35 -21 -52zM57 70v-70h224v67q-146 93 -146 310q0 118 52 202q52 82 140 82q84 0 139 -82q54 -86 54 -205q0 -217 -147 -307v-67h224v70h-144q137 151 137 319
q0 101 -36 181q-74 159 -227 159q-121 1 -193 -95.5t-72 -244.5q0 -170 137 -319h-142z" />
    <glyph glyph-name="iotadieresistonos" unicode="&#x390;" horiz-adv-x="208" 
d="M189 694v-80h58v80h-58zM-40 694v-80h61v80h-61zM109 736l-47 -122h35l22 37q21 32 34 57q2 3 9 14t9 14h-62zM73 0h63v515h-63v-515z" />
    <glyph glyph-name="Alpha" unicode="&#x391;" horiz-adv-x="577" 
d="M185 285l70 226q19 73 31 140h11q6 -27 42 -152l51 -163q4 -15 16 -51h-221zM27 0h72q2 8 9 28.5t10 32.5q8 28 20 64q3 10 6.5 22.5t8 28.5t6.5 24l7 22h261l68 -222h81q-13 41 -25 74l-168 496h-1q-5 17 -36 109q-8 21 -13 37h-79l-36 -112l-95 -300z" />
    <glyph glyph-name="Beta" unicode="&#x392;" horiz-adv-x="577" 
d="M156 409v237h126q63 0 93 -12q29 -10 44 -39.5t15 -69.5q0 -79 -67 -108q-22 -8 -75 -8h-136zM156 70v268h145q53 0 89 -13q31 -13 50.5 -46t19.5 -75q0 -25 -11 -62q-26 -56 -83 -68q-20 -4 -55 -4h-155zM86 0h225q111 0 162 46q28 30 42 66q17 43 17 92q0 57 -33 103
t-92 72q95 66 95 158q0 47 -22 91q-23 46 -64 67t-109 21h-221v-716z" />
    <glyph glyph-name="Gamma" unicode="&#x393;" horiz-adv-x="480" 
d="M80 716v-716h69v646h298v70h-367z" />
    <glyph glyph-name="uni0394" unicode="&#x394;" horiz-adv-x="577" 
d="M109 70l133 441q9 29 29 125q1 2 2 7t1 7h9q10 -38 34 -119q3 -10 9 -32l41 -129q3 -9 27 -85l30 -95l37 -120h-352zM15 0h548l-88 260l-106 310l-15 48q-21 59 -33 98h-80l-68 -215l-19 -61l-79 -251z" />
    <glyph glyph-name="Epsilon" unicode="&#x395;" horiz-adv-x="577" 
d="M93 0h438v70h-370v266h333v70h-333v240h356v70h-424v-716z" />
    <glyph glyph-name="Zeta" unicode="&#x396;" horiz-adv-x="530" 
d="M44 0h464v70h-392l46 66l141 209l90 136l106 159v76h-422v-70h347q-38 -46 -66 -90v1q-6 -8 -8 -12l-306 -467v-78z" />
    <glyph glyph-name="Eta" unicode="&#x397;" horiz-adv-x="622" 
d="M92 0h68v345h325v-345h71v716h-71v-301h-325v301h-68v-716z" />
    <glyph glyph-name="Theta" unicode="&#x398;" horiz-adv-x="667" 
d="M220 322h227v71h-227v-71zM123 347q0 163 60 239q63 75 151 75q92 0 153 -79q59 -88 59 -224q0 -141 -59 -223q-60 -81 -154 -81q-95 0 -153 82q-57 80 -57 211zM51 349q0 -89 29 -169v1q32 -87 95 -139q71 -54 159 -54q125 0 205 101q78 101 78 268q0 170 -78 269
q-80 103 -205 103q-124 0 -205 -101q-78 -99 -78 -279z" />
    <glyph glyph-name="Iota" unicode="&#x399;" horiz-adv-x="255" 
d="M107 0h68v716h-68v-716z" />
    <glyph glyph-name="Kappa" unicode="&#x39a;" horiz-adv-x="577" 
d="M86 0h70v250l105 123l216 -373h91q-18 27 -36 59l-75 122l-150 247l246 288h-91l-218 -263q-2 -3 -6.5 -8.5t-6.5 -8.5q-18 -23 -75 -91v371h-70v-716z" />
    <glyph glyph-name="Lambda" unicode="&#x39b;" horiz-adv-x="577" 
d="M326 716h-76l-55 -173l-37 -112h1l-139 -431h69l109 353l53 173l2 4q17 62 31 120h8q14 -53 15 -56q7 -25 17 -69v1l28 -90q2 -5 5.5 -16.5t4.5 -17.5l118 -402h76l-58 178h1q-17 46 -30 90q-6 19 -20 62t-21 66z" />
    <glyph glyph-name="Mu" unicode="&#x39c;" horiz-adv-x="713" 
d="M86 0h67q0 102 0.5 306t0.5 306l9 2l172 -614h66q4 16 16.5 59t18.5 67l52 182q27 93 35 122q38 130 52 174l9 -1v-603h67v716h-98l-54 -193l-64 -222q-1 -1 -1 -4t-1 -5q-7 -27 -23 -81l-37 -135q-7 28 -17 62q-2 8 -7.5 29.5t-9.5 35.5l-12 40l-59 215l-71 258h-111
v-716z" />
    <glyph glyph-name="Nu" unicode="&#x39d;" horiz-adv-x="622" 
d="M89 0h65v572l8 2l319 -574h73v716h-66v-572l-8 -2l-318 574h-73v-716z" />
    <glyph glyph-name="Xi" unicode="&#x39e;" horiz-adv-x="562" 
d="M108 393v-71h347v71h-347zM68 716v-70h426v70h-426zM57 70v-70h447v70h-447z" />
    <glyph glyph-name="Omicron" unicode="&#x39f;" horiz-adv-x="667" 
d="M137 347q0 163 63 242q63 72 148 72q62 0 112 -37q99 -78 99 -266q0 -141 -59 -224q-62 -80 -153 -80q-87 0 -151 79q-59 80 -59 214zM64 349q0 -96 34 -180q33 -80 100 -132q66 -49 149 -49q79 0 145 44q69 47 103 131q36 84 36 194t-34 192q-35 86 -100 133
q-67 47 -149 47q-124 0 -204 -101q-80 -102 -80 -279z" />
    <glyph glyph-name="Pi" unicode="&#x3a0;" horiz-adv-x="622" 
d="M79 0h68v646h325v-646h71v716h-464v-716z" />
    <glyph glyph-name="Rho" unicode="&#x3a1;" horiz-adv-x="577" 
d="M160 369v277h158q58 0 77 -8h-1q34 -11 54.5 -46t20.5 -83q0 -64 -35 -104q-36 -36 -113 -36h-161zM91 0h69v297h158q122 0 175 63q46 66 46 152q0 57 -16 95q-31 79 -119 102q-39 7 -92 7h-221v-716z" />
    <glyph glyph-name="Sigma" unicode="&#x3a3;" horiz-adv-x="536" 
d="M472 716h-399v-87l117 -151q6 -7 25 -31t29 -36q5 -9 28 -37l-199 -283v-91h416v70h-346l211 302q-23 28 -108 138l-37 48q-26 32 -67 88h330v70z" />
    <glyph glyph-name="Tau" unicode="&#x3a4;" horiz-adv-x="530" 
d="M243 0h71v646h199v70h-468v-70h198v-646z" />
    <glyph glyph-name="Upsilon" unicode="&#x3a5;" horiz-adv-x="577" 
d="M261 0h68v306l236 410h-80q-10 -17 -17 -32q-12 -21 -48 -90q-1 -2 -7 -11q-19 -37 -44 -80l-69 -138q-19 44 -66 134q-4 7 -16 29t-18 34l-83 154h-84l104 -188l124 -222v-306z" />
    <glyph glyph-name="Phi" unicode="&#x3a6;" horiz-adv-x="683" 
d="M307 580v-434q-87 6 -135 57q-54 57 -54 159q0 101 49 156.5t140 61.5zM376 146v433q97 -5 143 -59q47 -61 47 -157q0 -100 -48 -157q-47 -53 -142 -60zM307 738v-91q-95 -4 -146 -43q-52 -32 -85 -100q-31 -67 -31 -143q0 -115 71 -197h-1q70 -78 192 -84v-106h69v106
q119 6 191 82q71 71 71 204q0 114 -65 194q-70 78 -197 88v90h-69z" />
    <glyph glyph-name="Chi" unicode="&#x3a7;" horiz-adv-x="577" 
d="M36 0h81l150 252v-1q2 3 7.5 14t13.5 26.5t12 23.5q12 -25 30 -57l151 -258h85l-225 378l207 338h-72l-49 -79l-46 -73l-25 -39q-17 -27 -53 -92q-6 14 -40 80q-6 9 -11 19q-47 77 -71 121l-20 33q-3 5 -8.5 15t-8.5 15h-83l70 -116l133 -226z" />
    <glyph glyph-name="Psi" unicode="&#x3a8;" horiz-adv-x="714" 
d="M63 716v-207q0 -131 59 -205q58 -72 201 -78v-226h69v226q260 12 260 292v198h-71v-177q0 -132 -48 -186q-43 -47 -141 -61v424h-69v-424q-101 14 -144 60q-47 53 -47 174v190h-69z" />
    <glyph glyph-name="uni03A9" unicode="&#x3a9;" horiz-adv-x="642" 
d="M51 70v-70h224v67q-145 93 -145 310q0 120 52 202q55 82 140 82q86 0 139 -82q53 -79 53 -205q0 -217 -147 -307v-67h225v70h-144q137 144 137 319q0 99 -36 181q-77 159 -226 159q-121 1 -193.5 -95.5t-72.5 -244.5q0 -170 137 -319h-143z" />
    <glyph glyph-name="Iotadieresis" unicode="&#x3aa;" horiz-adv-x="255" 
d="M107 0h68v716h-68v-716zM31 774h66v88h-66v-88zM183 774h67v88h-67v-88z" />
    <glyph glyph-name="Upsilondieresis" unicode="&#x3ab;" horiz-adv-x="577" 
d="M261 0h68v306l236 410h-80q-10 -17 -17 -32q-12 -21 -48 -90q-1 -2 -7 -11q-19 -37 -44 -80l-69 -138q-19 44 -66 134q-4 7 -16 29t-18 34l-83 154h-84l104 -188l124 -222v-306zM188 774h66v88h-66v-88zM340 774h67v88h-67v-88z" />
    <glyph glyph-name="alphatonos" unicode="&#x3ac;" horiz-adv-x="503" 
d="M247 467q52 0 86 -52q34 -51 34 -152q0 -100 -35 -160q-37 -56 -90 -56q-57 0 -85 56q-31 59 -31 154q0 102 32 156t89 54zM468 515h-63q-16 -59 -23 -100q-39 67 -66 87q-30 24 -81 24q-81 0 -131 -69q-48 -73 -48 -200q0 -123 48 -196q46 -73 130 -73q93 0 142 123
q24 -96 30 -111h62q-30 102 -50 257q17 126 50 258zM221 595h50q1 2 11 19q5 7 12.5 19t8.5 13l17 25l32 50h-82q-1 -3 -4 -9.5t-4 -8.5q-1 -5 -5 -15t-5 -14l-11 -27q-3 -9 -10 -26t-10 -26z" />
    <glyph glyph-name="epsilontonos" unicode="&#x3ad;" horiz-adv-x="394" 
d="M310 420l44 43q-66 63 -134 63q-72 0 -107 -45q-33 -43 -33 -101q0 -62 67 -113q-79 -53 -79 -129q0 -62 36 -104q34 -46 111 -46q86 0 155 76q-2 3 -5.5 6t-6.5 6l-4 4q-12 16 -25 26l-3 4q-57 -63 -109 -63q-34 0 -58 25q-26 29 -26 66t25 68q24 29 85 29h3h12v59h-16
q-48 0 -75 24.5t-27 63.5q0 26 18 57q19 25 57 25q42 0 95 -44zM181 595h50q1 2 11 19q5 7 12.5 19t8.5 13l17 25l32 50h-82q-1 -3 -4 -9.5t-4 -8.5q-1 -5 -5 -15t-5 -14l-11 -27q-3 -9 -10 -26t-10 -26z" />
    <glyph glyph-name="etatonos" unicode="&#x3ae;" 
d="M83 0h64v282q0 103 35 143q36 39 86 39q51 0 74 -36t23 -114v-518h64v522q0 70 -12 116q-13 37 -46 65q-33 27 -88 27q-77 0 -144 -102v91h-56v-515zM221 595h50q1 2 11 19q5 7 12.5 19t8.5 13l17 25l32 50h-82q-1 -3 -4 -9.5t-4 -8.5q-1 -5 -5 -15t-5 -14l-11 -27
q-3 -9 -10 -26t-10 -26z" />
    <glyph glyph-name="iotatonos" unicode="&#x3af;" horiz-adv-x="208" 
d="M86 0h63v515h-63v-515zM73 595h50q1 2 11 19q5 7 12.5 19t8.5 13l17 25l32 50h-82q-1 -3 -4 -9.5t-4 -8.5q-1 -5 -5 -15t-5 -14l-11 -27q-3 -9 -10 -26t-10 -26z" />
    <glyph glyph-name="upsilondieresistonos" unicode="&#x3b0;" horiz-adv-x="476" 
d="M83 515v-307q0 -77 16 -116q11 -38 52 -71t99 -33q70 0 124 54q47 58 47 170v303h-63v-300q0 -57 -9 -87q-15 -38 -36 -57v1q-28 -25 -62 -25q-43 0 -74 38q-30 39 -30 123v307h-64zM337 694v-80h60v80h-60zM108 694v-80h60v80h-60zM259 736l-49 -122h36q8 10 17 29
q36 58 56 93h-60z" />
    <glyph glyph-name="alpha" unicode="&#x3b1;" horiz-adv-x="503" 
d="M234 467q52 0 86 -52q34 -51 34 -152q0 -100 -35 -160q-37 -56 -90 -56q-57 0 -85 56q-31 59 -31 154q0 102 32 156t89 54zM455 515h-63q-16 -59 -23 -100q-39 67 -66 87q-30 24 -81 24q-81 0 -131 -69q-48 -73 -48 -200q0 -123 48 -196q46 -73 130 -73q93 0 142 123
q24 -96 30 -111h62q-30 102 -50 257q17 126 50 258z" />
    <glyph glyph-name="beta" unicode="&#x3b2;" horiz-adv-x="500" 
d="M142 154h6l-4 -7q0 1 -1 3.5t-1 3.5zM210 416v-50q59 -1 91 -15q36 -18 57 -60v1q24 -41 24 -97q0 -64 -32 -115q-33 -42 -83 -42q-44 0 -79 35q-33 33 -48 82l2 -1q-9 37 -9 124v201q0 74 6 104q12 38 39 62q28 25 69 25q40 0 77 -35q30 -38 30 -87q0 -126 -144 -132z
M133 -204v284q68 -92 141 -92q84 0 132 65q42 65 42 146q0 78 -37 128q-35 48 -103 60q-2 8 -2 15q45 17 73 49v-1q32 43 32 103q0 66 -40 119q-42 57 -122 57q-54 0 -100 -31q-38 -25 -62 -75q-16 -47 -16 -129v-698h62z" />
    <glyph glyph-name="gamma" unicode="&#x3b3;" horiz-adv-x="438" 
d="M27 515l160 -520v-199h64v199l159 520h-63l-72 -242q-7 -24 -27.5 -92t-28.5 -98l-126 432h-66z" />
    <glyph glyph-name="delta" unicode="&#x3b4;" 
d="M108 249q0 86 34 144q39 60 102 60q58 0 94 -54q38 -55 38 -149q0 -106 -39 -155q-38 -48 -93 -48q-58 0 -97 57t-39 145zM85 716v-52q91 -98 153 -155q-94 -14 -145 -71q-50 -70 -50 -188q0 -111 49 -186v1q51 -77 149 -77q91 0 145 69q55 68 55 194q0 93 -29 148
q-26 50 -108 121q-87 75 -141 139h242v57h-320z" />
    <glyph glyph-name="epsilon" unicode="&#x3b5;" horiz-adv-x="394" 
d="M297 420l44 43q-66 63 -134 63q-73 0 -107 -45q-33 -43 -33 -101q0 -62 67 -113q-79 -53 -79 -129q0 -62 36 -104q34 -46 111 -46q86 0 155 76q-2 3 -5.5 6t-6.5 6l-4 4q-12 16 -25 26l-3 4q-57 -63 -109 -63q-34 0 -58 25q-26 29 -26 66t25 68q24 29 85 29h3h12v59h-16
q-48 0 -75 24.5t-27 63.5q0 26 18 57q19 25 57 25q42 0 95 -44z" />
    <glyph glyph-name="zeta" unicode="&#x3b6;" horiz-adv-x="389" 
d="M279 -200l2 -8h4l-3 9l-1 -1h-2zM110 716v-57h189q-117 -101 -186 -218q-70 -126 -70 -239q0 -49 16 -101q13 -42 45 -72q27 -26 91 -29q45 -1 62 -6q18 -5 30 -23t12 -40q0 -65 -70 -78q-1 -6 -5 -18l-4 -12v1q0 -9 -2.5 -15.5t-2.5 -8.5q-1 -6 -3 -15q42 3 70 17v-1
q31 15 54 54q23 38 23 85q0 46 -19 72q-19 30 -42 38q-22 9 -91 18q-101 12 -101 131q0 112 77 251q71 128 185 217v49h-258z" />
    <glyph glyph-name="eta" unicode="&#x3b7;" 
d="M70 0h64v282q0 103 35 143q36 39 86 39q51 0 74 -36t23 -114v-518h64v522q0 70 -12 116q-13 37 -46 65q-33 27 -88 27q-77 0 -144 -102v91h-56v-515z" />
    <glyph glyph-name="theta" unicode="&#x3b8;" 
d="M118 330h249q-5 -283 -123 -283q-121 0 -126 283zM368 387h-250q5 283 124 283q53 0 89 -59q33 -62 37 -224zM52 358q0 -370 192 -370q188 0 188 370q0 371 -188 371q-192 0 -192 -371z" />
    <glyph glyph-name="iota" unicode="&#x3b9;" horiz-adv-x="208" 
d="M73 0h63v515h-63v-515z" />
    <glyph glyph-name="kappa" unicode="&#x3ba;" horiz-adv-x="438" 
d="M67 515v-515h64v214q12 16 25 29l9 8l171 -251h81l-62 89l-24 36q-17 23 -49 71l-23 34.5t-27.5 40.5t-23.5 33l189 211h-81q-10 -12 -55 -65q-5 -6 -10.5 -12.5t-12 -14.5t-10.5 -12l-97 -113v217h-64z" />
    <glyph glyph-name="lambda" unicode="&#x3bb;" horiz-adv-x="438" 
d="M219 408l126 -408h65q-3 10 -9.5 33t-9.5 33q-2 6 -5.5 18t-4.5 15l-191 617h-66q1 -6 11 -38q8 -24 13 -44q2 -7 7 -21.5t7 -21.5q4 -15 13 -42t12 -37l-160 -512h66q16 47 46 149q15 50 17 58q9 24 10 27h-1q33 99 54 174z" />
    <glyph glyph-name="uni03BC" unicode="&#x3bc;" horiz-adv-x="501" 
d="M433 515h-62v-219q0 -126 -10 -159q-10 -34 -39 -62q-28 -22 -61 -22t-58 22t-38 61q-11 50 -11 161v218h-61v-719h61v269q43 -57 51 -62q25 -15 58 -15q37 0 65 19q13 11 51 68v-75h54v515z" />
    <glyph glyph-name="nu" unicode="&#x3bd;" horiz-adv-x="438" 
d="M201 0h63l39 124l122 391h-65q-34 -118 -51 -168q-4 -13 -12 -40.5t-11 -40.5l-21 -69q-23 -80 -29 -106h-9q-5 16 -11 48q-2 7 -8 29t-9 34l-93 313h-67l122 -387q10 -30 15 -47q18 -54 25 -81z" />
    <glyph glyph-name="xi" unicode="&#x3be;" horiz-adv-x="395" 
d="M321 729h-70q-85 0 -133 -46q-44 -45 -44 -108q0 -44 25 -87q23 -35 106 -54q-84 -49 -118 -100q-35 -59 -35 -132q0 -85 46.5 -136.5t130.5 -66.5q75 -14 75 -68q0 -24 -19 -50q-17 -21 -57 -28q0 -3 -1 -4l1 1q-4 -12 -4 -16q-8 -23 -12 -49q73 6 112 45q40 43 40 106
q0 37 -12 60q-14 34 -38 46q-16 14 -70 22h1q-76 9 -104 50q-26 44 -26 91q0 67 35 119q32 49 73 72q47 20 92 21v59h-54q-128 0 -128 93q0 101 134 101h54v59z" />
    <glyph glyph-name="omicron" unicode="&#x3bf;" 
d="M126 256q0 104 36 159q42 52 98 52t95 -52q38 -53 38 -154q0 -109 -38 -161q-38 -53 -95 -53q-55 0 -98 52q-36 53 -36 157zM59 256q0 -118 55 -198q60 -70 146 -70q54 0 103 32q49 33 69 87q28 61 28 158q0 121 -57 192q-55 69 -143 69q-82 0 -134 -58q-67 -70 -67 -212
z" />
    <glyph glyph-name="pi" unicode="&#x3c0;" horiz-adv-x="595" 
d="M209 458h194v-458h62v458h100v57h-534v-57h115v-458h63v458z" />
    <glyph glyph-name="rho" unicode="&#x3c1;" horiz-adv-x="495" 
d="M256 467q54 0 91 -50q40 -51 40 -165q0 -98 -37 -153q-36 -52 -94 -52q-59 0 -92 51t-33 152q0 111 33 165q34 52 92 52zM66 -204h64v264q62 -72 134 -72q85 0 136 74q52 74 52 195t-55 195q-53 74 -146 74q-185 0 -185 -287v-443z" />
    <glyph glyph-name="sigma1" unicode="&#x3c2;" horiz-adv-x="423" 
d="M385 452l13 61q-55 13 -92 13q-120 0 -188 -87q-69 -85 -69 -203q0 -88 43 -144q43 -61 133 -84q54 -14 69 -29q20 -15 20 -48q0 -32 -25 -57q-26 -20 -65 -20q-22 0 -38 3q-1 -6 -4.5 -19.5t-3.5 -15.5q-1 -1 -1 -5q-6 -21 -7 -26l2 -1h3q33 -5 52 -5q68 0 110 43
q45 41 45 105q0 28 -15 62q-15 26 -36 42q-24 16 -83 35q-79 27 -111 73q-26 43 -26 106q0 87 50 152q50 64 135 64q44 0 89 -15z" />
    <glyph glyph-name="sigma" unicode="&#x3c3;" horiz-adv-x="535" 
d="M238 467q68 0 102 -60q35 -58 35 -151q0 -98 -38 -154q-36 -55 -98 -55q-60 0 -96 53q-38 55 -38 156q0 100 38 159q39 52 95 52zM503 515h-194q-41 11 -70 11q-83 0 -141 -66t-58 -204q0 -131 57 -200q56 -68 142 -68q85 0 142 66q59 67 59 202q0 112 -65 202h128v57z
" />
    <glyph glyph-name="tau" unicode="&#x3c4;" horiz-adv-x="352" 
d="M212 458h105v57h-284v-57h115v-458h64v458z" />
    <glyph glyph-name="upsilon" unicode="&#x3c5;" horiz-adv-x="476" 
d="M70 515v-307q0 -77 16 -116q11 -38 52 -71t99 -33q70 0 124 54q47 58 47 170v303h-63v-300q0 -57 -9 -87q-15 -38 -36 -57v1q-28 -25 -62 -25q-43 0 -74 38q-30 39 -30 123v307h-64z" />
    <glyph glyph-name="phi" unicode="&#x3c6;" horiz-adv-x="561" 
d="M314 52v309q0 65 12 85q12 21 35 21q32 0 62 -43q29 -47 29 -135q0 -98 -38 -162q-35 -54 -100 -75zM194 461l14 64q-66 -6 -115 -69q-51 -75 -51 -186q0 -126 65 -203q59 -74 145 -80v-191h62v191q78 22 121 68q85 99 85 225q0 69 -25 130q-26 61 -62 88.5t-93 27.5
q-35 0 -56 -16q-22 -20 -26 -45q-6 -19 -6 -77v-339q-78 24 -111 82q-34 61 -34 143q0 144 87 187z" />
    <glyph glyph-name="chi" unicode="&#x3c7;" horiz-adv-x="459" 
d="M37 515l153 -356l-165 -363h69q19 42 55 129l64 148q14 31 16 37l132 -314h72l-56 124l-62 135q-19 48 -49 106l158 354h-69l-55 -132l-29 -71q-3 -6 -7.5 -17t-6.5 -15q-3 -6 -9 -20.5t-11 -26t-8 -19.5l-123 301h-69z" />
    <glyph glyph-name="psi" unicode="&#x3c8;" horiz-adv-x="613" 
d="M62 515v-251q0 -90 9 -130q5 -26 35 -74q53 -65 168 -73v-191h64v191q92 6 137 41q46 41 62 84q14 53 14 152v251h-62v-254q0 -72 -11 -118q-27 -85 -140 -95v467h-64v-468q-64 8 -94 30q-34 31 -46 69q-9 39 -9 115v254h-63z" />
    <glyph glyph-name="omega" unicode="&#x3c9;" horiz-adv-x="669" 
d="M170 515h-60q-64 -140 -64 -265q0 -124 43 -191q40 -71 113 -71q84 0 132 128q54 -128 134 -128q65 0 111 67q44 67 44 195t-63 265h-60q58 -161 58 -270q0 -91 -26 -146q-32 -57 -72 -57q-28 0 -53 27q-25 29 -32 64q-9 40 -9 100v147h-64v-147q0 -72 -7 -100
q-9 -36 -32 -64q-25 -27 -53 -27q-44 0 -71 58v-1q-27 50 -27 146q0 109 58 270z" />
    <glyph glyph-name="iotadieresis" unicode="&#x3ca;" horiz-adv-x="208" 
d="M86 0h63v515h-63v-515zM10 634h66v88h-66v-88zM162 634h67v88h-67v-88z" />
    <glyph glyph-name="upsilondieresis" unicode="&#x3cb;" horiz-adv-x="476" 
d="M83 515v-307q0 -77 16 -116q11 -38 52 -71t99 -33q70 0 124 54q47 58 47 170v303h-63v-300q0 -57 -9 -87q-15 -38 -36 -57v1q-28 -25 -62 -25q-43 0 -74 38q-30 39 -30 123v307h-64zM151 634h66v88h-66v-88zM303 634h67v88h-67v-88z" />
    <glyph glyph-name="omicrontonos" unicode="&#x3cc;" 
d="M126 256q0 104 36 159q42 52 98 52t95 -52q38 -53 38 -154q0 -109 -38 -161q-38 -53 -95 -53q-55 0 -98 52q-36 53 -36 157zM59 256q0 -118 55 -198q60 -70 146 -70q54 0 103 32q49 33 69 87q28 61 28 158q0 121 -57 192q-55 69 -143 69q-82 0 -134 -58q-67 -70 -67 -212
zM221 595h50q1 2 11 19q5 7 12.5 19t8.5 13l17 25l32 50h-82q-1 -3 -4 -9.5t-4 -8.5q-1 -5 -5 -15t-5 -14l-11 -27q-3 -9 -10 -26t-10 -26z" />
    <glyph glyph-name="upsilontonos" unicode="&#x3cd;" horiz-adv-x="476" 
d="M83 515v-307q0 -77 16 -116q11 -38 52 -71t99 -33q70 0 124 54q47 58 47 170v303h-63v-300q0 -57 -9 -87q-15 -38 -36 -57v1q-28 -25 -62 -25q-43 0 -74 38q-30 39 -30 123v307h-64zM212 595h50q1 2 11 19q5 7 12.5 19t8.5 13l17 25l32 50h-82q-1 -3 -4 -9.5t-4 -8.5
q-1 -5 -5 -15t-5 -14l-11 -27q-3 -9 -10 -26t-10 -26z" />
    <glyph glyph-name="omegatonos" unicode="&#x3ce;" horiz-adv-x="669" 
d="M183 515h-60q-64 -140 -64 -265q0 -124 43 -191q40 -71 113 -71q84 0 132 128q54 -128 134 -128q65 0 111 67q44 67 44 195t-63 265h-60q58 -161 58 -270q0 -91 -26 -146q-31 -57 -72 -57q-27 0 -53 27q-25 29 -32 64q-9 40 -9 100v147h-64v-147q0 -72 -7 -100
q-9 -36 -32 -64q-25 -27 -53 -27q-44 0 -71 58v-1q-27 50 -27 146q0 109 58 270zM316 595h50q1 2 11 19q5 7 12.5 19t8.5 13l17 25l32 50h-82q-1 -3 -4 -9.5t-4 -8.5q-1 -5 -5 -15t-5 -14l-11 -27q-3 -9 -10 -26t-10 -26z" />
    <glyph glyph-name="afii10023" unicode="&#x401;" horiz-adv-x="577" 
d="M93 0h438v70h-370v266h333v70h-333v240h356v70h-424v-716zM195 774h66v88h-66v-88zM347 774h67v88h-67v-88z" />
    <glyph glyph-name="afii10051" unicode="&#x402;" horiz-adv-x="739" 
d="M31 716v-70h201v-646h69v337q97 49 165 49q82 0 118 -49q39 -45 39 -123q0 -68 -32 -116q-35 -46 -98 -46q-29 0 -62 16q-4 -22 -4 -33q0 -4 -2 -16q-1 -4 -2 -9.5t-1 -7.5q50 -14 90 -14q90 0 136 72q48 74 48 157q0 96 -57 167q-59 68 -152 68q-68 0 -186 -52v246h201
v70h-471z" />
    <glyph glyph-name="afii10052" unicode="&#x403;" horiz-adv-x="472" 
d="M93 716v-716h67v646h311v70h-378zM224 772h50q1 1 11 19q5 7 12.5 19t8.5 13l17 25l32 50h-82q-1 -3 -4 -9.5t-4 -8.5q-1 -5 -5 -15t-5 -14l-11 -27q-3 -9 -10 -26t-10 -26z" />
    <glyph glyph-name="afii10053" unicode="&#x404;" horiz-adv-x="618" 
d="M354 406h-222q8 119 57 186q52 67 142 67q127 0 168 -151q26 8 27 8q30 10 41 13q-27 96 -81 145v-1q-66 56 -154 56q-85 0 -150 -54q-67 -53 -96 -131q-28 -74 -28 -178q0 -5 -1 -7v-3v-9q0 -143 64 -251q68 -108 209 -108q182 0 245 229l-39 13q-6 2 -14.5 4.5
t-12.5 3.5q-45 -185 -184 -185q-84 0 -138 73q-51 74 -58 209h225v71z" />
    <glyph glyph-name="afii10054" unicode="&#x405;" horiz-adv-x="577" 
d="M128 227l-66 -7q4 -64 32 -120q65 -112 220 -112q66 0 116 28q46 27 76 78q27 54 27 105q0 115 -99 171q-30 17 -134 46q-99 28 -123 54q-25 26 -25 72q0 49 37 83q34 34 109 34q130 0 150 -140q3 0 10 1t12 1.5t8 0.5q1 0 3 0.5t3 0.5l30 3q-5 65 -28 101
q-55 102 -193 102q-60 0 -111 -24h1q-51 -30 -72 -73q-25 -45 -25 -97q0 -98 82 -153q33 -20 116 -44q94 -28 108 -36q72 -37 74 -111q2 -56 -41 -94.5t-114 -37.5q-51 0 -93 21q-74 38 -90 147z" />
    <glyph glyph-name="afii10055" unicode="&#x406;" horiz-adv-x="255" 
d="M107 0h68v716h-68v-716z" />
    <glyph glyph-name="afii10056" unicode="&#x407;" horiz-adv-x="255" 
d="M107 0h68v716h-68v-716zM31 774h66v88h-66v-88zM183 774h67v88h-67v-88z" />
    <glyph glyph-name="afii10057" unicode="&#x408;" horiz-adv-x="438" 
d="M113 203l-62 -10q2 -100 42.5 -152.5t114.5 -52.5q51 0 90 25q38 22 57 73v-1q18 49 18 140v491h-69v-496q0 -59 -9 -95q-21 -67 -87 -67q-44 0 -67 34q-22 31 -28 111z" />
    <glyph glyph-name="afii10058" unicode="&#x409;" horiz-adv-x="898" 
d="M482 67v269h114q81 0 112 -10q33 -10 54 -43.5t21 -80.5q0 -45 -20 -83q-21 -32 -45 -42q-23 -10 -70 -10h-166zM482 716h-366v-507q0 -95 -15 -123q-18 -26 -45 -26q-11 0 -31 8l-3 -21q-2 -20 -7 -49q34 -10 58 -10q40 0 68 28q23 24 36 79q9 63 9 166v385h227v-646
h232q80 0 118 19q36 15 67 70q28 51 28 117q0 52 -19 97q-19 47 -64 73q-44 28 -144 28h-149v312z" />
    <glyph glyph-name="afii10059" unicode="&#x40a;" horiz-adv-x="859" 
d="M444 67v269h103q89 0 124 -12q35 -10 54 -42.5t19 -79.5q0 -46 -20 -83q-25 -35 -50 -44q-24 -8 -77 -8h-153zM444 716h-70v-312h-229v312h-68v-716h68v336h229v-336h225q76 0 121 17q36 15 68 67q31 59 31 122q0 57 -29 115q-29 47 -76 66h1q-59 17 -132 17h-139v312z
" />
    <glyph glyph-name="afii10060" unicode="&#x40b;" horiz-adv-x="730" 
d="M31 716v-70h201v-646h70v337q112 48 181 48q45 0 75 -23q32 -25 44 -67q10 -42 10 -113v-182h69v185q0 100 -18 150q-17 50 -64 85h1q-50 32 -113 32q-59 0 -185 -49v243h200v70h-471z" />
    <glyph glyph-name="afii10061" unicode="&#x40c;" horiz-adv-x="506" 
d="M93 716v-716h67v343q48 -3 85 -36q30 -36 66 -112q6 -10 16 -30t15 -29l69 -136h88q-2 4 -6.5 12t-6.5 12q-12 21 -21 39q-28 57 -86 168q-49 94 -129 134q45 23 67 47l-1 -1q21 28 50 114q25 76 44 99q22 24 60 24h27v68h-43q-33 0 -64 -20q-25 -13 -45 -47
q-17 -32 -40 -100q-37 -100 -59 -126q-25 -25 -86 -28v321h-67zM244 772h50q1 1 11 19q5 7 12.5 19t8.5 13l17 25l32 50h-82q-1 -3 -4 -9.5t-4 -8.5q-1 -5 -5 -15t-5 -14l-11 -27q-3 -9 -10 -26t-10 -26z" />
    <glyph glyph-name="afii10062" unicode="&#x40e;" horiz-adv-x="550" 
d="M34 716l241 -529q-32 -93 -51 -111q-24 -24 -51 -24q-29 0 -64 18v-65q45 -15 69 -15q49 0 75 31q24 28 69 139l44 108q6 15 16.5 41.5t19.5 48.5t17 40l82 208l43 110h-67l-64 -165l-111 -291l-200 456h-68zM421 886h-40q-18 -68 -78 -68q-55 0 -72 68h-39
q16 -114 115 -114q44 0 73.5 30t40.5 84z" />
    <glyph glyph-name="afii10145" unicode="&#x40f;" horiz-adv-x="618" 
d="M340 0h201v716h-70v-646h-325v646h-69v-716h202v-204h61v204z" />
    <glyph glyph-name="afii10017" unicode="&#x410;" horiz-adv-x="577" 
d="M185 285l70 226q19 73 31 140h11q6 -27 42 -152l51 -163q4 -15 16 -51h-221zM27 0h72q2 8 9 28.5t10 32.5q8 28 20 64q3 10 6.5 22.5t8 28.5t6.5 24l7 22h261l68 -222h81q-13 41 -25 74l-168 496h-1q-5 17 -36 109q-8 21 -13 37h-79l-36 -112l-95 -300z" />
    <glyph glyph-name="afii10018" unicode="&#x411;" horiz-adv-x="566" 
d="M150 67v270h112q78 0 113 -11t54.5 -43.5t19.5 -80.5q0 -135 -135 -135h-164zM81 716v-716h230q97 0 135 29q79 58 79 176q0 62 -27 114q-28 49 -75 67q-50 19 -124 19h-149v241h311v70h-380z" />
    <glyph glyph-name="afii10019" unicode="&#x412;" horiz-adv-x="577" 
d="M156 409v237h126q63 0 93 -12q29 -10 44 -39.5t15 -69.5q0 -79 -67 -108q-22 -8 -75 -8h-136zM156 70v268h145q53 0 89 -13q31 -13 50.5 -46t19.5 -75q0 -25 -11 -62q-26 -56 -83 -68q-20 -4 -55 -4h-155zM86 0h225q111 0 162 46q28 30 42 66q17 43 17 92q0 57 -33 103
t-92 72q95 66 95 158q0 47 -22 91q-23 46 -64 67t-109 21h-221v-716z" />
    <glyph glyph-name="afii10020" unicode="&#x413;" horiz-adv-x="472" 
d="M80 716v-716h67v646h311v70h-378z" />
    <glyph glyph-name="afii10021" unicode="&#x414;" horiz-adv-x="584" 
d="M420 646v-576h-293q47 129 57 276q15 156 15 255v45h221zM133 716v-99q0 -401 -77 -547h-43v-240h60v170h409v-170h61v240h-54v646h-356z" />
    <glyph glyph-name="afii10022" unicode="&#x415;" horiz-adv-x="577" 
d="M93 0h438v70h-370v266h333v70h-333v240h356v70h-424v-716z" />
    <glyph glyph-name="afii10024" unicode="&#x416;" horiz-adv-x="788" 
d="M429 716h-73v-320q-63 0 -88 27q-22 24 -57 126q-27 72 -42 101q-38 66 -110 66q-30 0 -41 -1v-67h27q37 0 59 -21q24 -30 45 -102h-1q28 -83 49 -110q18 -24 69 -50q-81 -38 -131 -134l-29 -58l-27 -54q-13 -24 -62 -119h87q2 4 6.5 12.5t7.5 13.5q2 4 11 23q8 14 12 22
l62 125q4 6 6 11q45 89 71 109q27 24 76 27v-343h73v343q56 -3 86 -34q25 -28 68 -114l100 -195h87q-2 5 -9 17t-10 19q-2 4 -7 13.5t-7 13.5q-30 57 -38 75l-48 93q-49 96 -130 134q57 32 71 54q17 26 46 106q27 78 44 99q21 24 61 24h26v67q-11 1 -43 1q-31 0 -64 -19
q-26 -18 -45 -48q-18 -35 -40 -100q-35 -96 -60 -126q-23 -27 -88 -27v320z" />
    <glyph glyph-name="afii10025" unicode="&#x417;" horiz-adv-x="524" 
d="M111 214l-65 -21q53 -205 217 -205q95 0 156 61q58 61 58 152q0 67 -29 109q-26 39 -89 66q89 70 89 162q0 77 -49 132q-53 59 -138 59q-171 0 -205 -219q11 -3 31 -10q7 -2 34 -9q3 29 12 62q14 46 48.5 76t79.5 30q57 0 85 -37v1q33 -39 33 -91q0 -42 -23 -77
q-26 -34 -56 -42q-19 -5 -79 -7v-69h34q65 0 107 -37q41 -37 41 -102q0 -61 -38 -103q-43 -41 -104 -41t-103 56q-34 50 -47 104z" />
    <glyph glyph-name="afii10026" unicode="&#x418;" horiz-adv-x="618" 
d="M79 716v-716h70l215 382q7 15 68 125l38 69l9 -2v-574h62v716h-73l-147 -265q-3 -6 -47 -85l-127 -228l-8 2v576h-60z" />
    <glyph glyph-name="afii10027" unicode="&#x419;" horiz-adv-x="618" 
d="M92 716v-716h70l215 382q7 15 68 125l38 69l9 -2v-574h62v716h-73l-147 -265q-3 -6 -47 -85l-127 -228l-8 2v576h-60zM430 886h-40q-18 -68 -78 -68q-55 0 -72 68h-39q17 -114 115 -114q44 0 73.5 30t40.5 84z" />
    <glyph glyph-name="afii10028" unicode="&#x41a;" horiz-adv-x="506" 
d="M80 716v-716h67v343q48 -3 85 -36q30 -36 66 -112q6 -10 16 -30t15 -29l69 -136h88q-2 4 -6.5 12t-6.5 12q-12 21 -21 39q-28 57 -86 168q-49 94 -129 134q45 23 67 47l-1 -1q21 28 50 114q25 76 44 99q22 24 60 24h27v68h-43q-33 0 -64 -20q-25 -13 -45 -47
q-17 -32 -40 -100q-37 -100 -59 -126q-25 -25 -86 -28v321h-67z" />
    <glyph glyph-name="afii10029" unicode="&#x41b;" horiz-adv-x="566" 
d="M123 716v-507q0 -96 -15 -123q-17 -26 -46 -26q-12 0 -29 7q-1 -4 -3 -17t-3 -17q-3 -10 -5 -32v-1.5t-1 -1.5q33 -10 57 -10q39 0 69 27q28 33 35 81q8 39 8 165v385h230v-646h70v716h-367z" />
    <glyph glyph-name="afii10030" unicode="&#x41c;" horiz-adv-x="713" 
d="M86 0h67q0 102 0.5 306t0.5 306l9 2l172 -614h66q4 16 16.5 59t18.5 67l52 182q27 93 35 122q38 130 52 174l9 -1v-603h67v716h-98l-54 -193l-64 -222q-1 -1 -1 -4t-1 -5q-7 -27 -23 -81l-37 -135q-7 28 -17 62q-2 8 -7.5 29.5t-9.5 35.5l-12 40l-59 215l-71 258h-111
v-716z" />
    <glyph glyph-name="afii10031" unicode="&#x41d;" horiz-adv-x="622" 
d="M92 0h68v345h325v-345h71v716h-71v-301h-325v301h-68v-716z" />
    <glyph glyph-name="afii10032" unicode="&#x41e;" horiz-adv-x="667" 
d="M137 347q0 163 63 242q63 72 148 72q62 0 112 -37q99 -78 99 -266q0 -141 -59 -224q-62 -80 -153 -80q-87 0 -151 79q-59 80 -59 214zM64 349q0 -96 34 -180q33 -80 100 -132q66 -49 149 -49q79 0 145 44q69 47 103 131q36 84 36 194t-34 192q-35 86 -100 133
q-67 47 -149 47q-124 0 -204 -101q-80 -102 -80 -279z" />
    <glyph glyph-name="afii10033" unicode="&#x41f;" horiz-adv-x="618" 
d="M77 716v-716h69v646h325v-646h70v716h-464z" />
    <glyph glyph-name="afii10034" unicode="&#x420;" horiz-adv-x="577" 
d="M160 369v277h158q58 0 77 -8h-1q34 -11 54.5 -46t20.5 -83q0 -64 -35 -104q-36 -36 -113 -36h-161zM91 0h69v297h158q122 0 175 63q46 66 46 152q0 57 -16 95q-31 79 -119 102q-39 7 -92 7h-221v-716z" />
    <glyph glyph-name="afii10035" unicode="&#x421;" horiz-adv-x="622" 
d="M587 218l-69 22q-19 -91 -66 -138.5t-113 -47.5q-56 0 -105 37q-96 71 -96 273q0 64 19 142q17 69 66 113q51 42 123 42q118 0 164 -151q1 0 4 1t4 1q4 1 12 3.5t11 3.5q4 1 16 4.5t19 5.5q-28 98 -80 145q-66 55 -150 55q-75 0 -145 -43q-67 -45 -98 -127
q-35 -77 -35 -196q0 -103 29 -193q34 -85 96.5 -133.5t152.5 -48.5q88 0 156 60q59 61 85 170z" />
    <glyph glyph-name="afii10036" unicode="&#x422;" horiz-adv-x="530" 
d="M243 0h71v646h199v70h-468v-70h198v-646z" />
    <glyph glyph-name="afii10037" unicode="&#x423;" horiz-adv-x="550" 
d="M21 716l241 -529q-32 -93 -51 -111q-24 -24 -51 -24q-29 0 -64 18v-65q45 -15 69 -15q49 0 75 31q24 28 69 139l44 108q6 15 16.5 41.5t19.5 48.5t17 40l82 208l43 110h-67l-64 -165l-111 -291l-200 456h-68z" />
    <glyph glyph-name="afii10038" unicode="&#x424;" horiz-adv-x="653" 
d="M359 161v401q90 -12 131 -59q46 -56 46 -142q0 -87 -46 -143q-47 -48 -131 -57zM295 560v-398q-89 7 -130 56q-48 51 -48 143q0 90 49 144q46 47 129 55zM295 723v-95q-108 -6 -182 -78q-69 -74 -69 -189t69 -190q69 -69 182 -77v-94h64v94q124 12 185 85q62 79 62 182
q0 111 -63 184h1q-66 72 -185 83v95h-64z" />
    <glyph glyph-name="afii10039" unicode="&#x425;" horiz-adv-x="577" 
d="M36 0h81l150 252v-1q2 3 7.5 14t13.5 26.5t12 23.5q12 -25 30 -57l151 -258h85l-225 378l207 338h-72l-49 -79l-46 -73l-25 -39q-17 -27 -53 -92q-6 14 -40 80q-6 9 -11 19q-47 77 -71 121l-20 33q-3 5 -8.5 15t-8.5 15h-83l70 -116l133 -226z" />
    <glyph glyph-name="afii10040" unicode="&#x426;" horiz-adv-x="636" 
d="M77 716v-716h459v-204h58v274h-53v646h-71v-646h-324v646h-69z" />
    <glyph glyph-name="afii10041" unicode="&#x427;" horiz-adv-x="575" 
d="M496 0v716h-68v-354q-99 -48 -183 -48q-52 0 -89 40q-38 38 -38 165v197h-69v-207q0 -85 15 -141q15 -53 61 -87t111 -34q74 0 192 51v-298h68z" />
    <glyph glyph-name="afii10042" unicode="&#x428;" horiz-adv-x="782" 
d="M76 716v-716h630v716h-70v-646h-210v646h-70v-646h-210v646h-70z" />
    <glyph glyph-name="afii10043" unicode="&#x429;" horiz-adv-x="799" 
d="M76 716v-716h623v-204h61v274h-54v646h-71v-646h-211v646h-68v-646h-211v646h-69z" />
    <glyph glyph-name="afii10044" unicode="&#x42a;" horiz-adv-x="678" 
d="M264 67v269h111q78 0 114 -9q31 -9 53 -43q20 -31 20 -81q0 -72 -34 -104t-112 -32h-152zM11 716v-70h183v-646h225q121 0 171 59v-1q49 60 49 146q0 78 -43 138q-46 62 -181 62h-151v312h-253z" />
    <glyph glyph-name="afii10045" unicode="&#x42b;" horiz-adv-x="756" 
d="M607 716v-716h69v716h-69zM147 67v269h114q74 0 108 -8q36 -10 57.5 -43.5t21.5 -81.5q0 -72 -35 -104t-114 -32h-152zM79 716v-716h225q127 0 174 61q45 62 45 143q0 73 -42 138q-48 62 -184 62h-150v312h-68z" />
    <glyph glyph-name="afii10046" unicode="&#x42c;" horiz-adv-x="566" 
d="M149 67v269h112q76 0 110 -8q36 -10 57 -43t21 -80q0 -57 -30 -99q-27 -39 -119 -39h-151zM81 716v-716h223q127 0 173 61q47 62 47 144q0 45 -19 97q-22 49 -63 74q-44 28 -144 28h-149v312h-68z" />
    <glyph glyph-name="afii10047" unicode="&#x42d;" horiz-adv-x="618" 
d="M251 406h222q-8 119 -57 186q-52 67 -142 67q-127 0 -168 -151q-26 8 -27 8q-30 10 -41 13q27 96 81 145v-1q66 56 154 56q85 0 150 -54q67 -53 96 -131q28 -74 28 -178q0 -5 1 -7v-3v-9q0 -143 -64 -251q-68 -108 -209 -108q-182 0 -245 229q5 2 11 4t14.5 4.5t13.5 4.5
q6 2 14.5 4.5t12.5 3.5q45 -185 184 -185q84 0 138 73q51 74 58 209h-225v71z" />
    <glyph glyph-name="afii10048" unicode="&#x42e;" horiz-adv-x="859" 
d="M341 354q0 139 54 226q54 82 145 82q88 0 144 -81q50 -77 50 -221q0 -149 -52 -226q-56 -80 -143 -80q-88 0 -143 79q-55 85 -55 221zM78 716v-716h68v317h125q19 -162 87 -244v1q75 -86 179 -86q119 0 193 98q77 100 77 276q0 160 -77 268q-81 99 -190 99
q-105 0 -186 -91q-73 -93 -83 -250h-125v328h-68z" />
    <glyph glyph-name="afii10049" unicode="&#x42f;" horiz-adv-x="622" 
d="M463 393v258h-197q-68 0 -101 -35q-33 -36 -33 -92q0 -38 17 -71q32 -60 135 -60h179zM532 0h-69v325h-98q-26 0 -48 -4q-29 -9 -59 -47t-76 -126l-78 -148h-88q32 59 50 98v-1q21 38 27 50q3 6 10.5 19t10.5 20q29 52 66 97h-1q31 25 66 47q-107 22 -146 68
q-39 51 -39 126q0 63 24 105q24 51 63 67q43 20 123 20h262v-716z" />
    <glyph glyph-name="afii10065" unicode="&#x430;" 
d="M360 270v-45q0 -59 -12 -94q-18 -41 -51.5 -65t-77.5 -24q-45 0 -69 25.5t-24 66.5q0 32 11 48q14 24 32 31h-1q21 10 67 19q73 13 125 38zM356 61l11 -4q1 -31 12 -57h64q-10 29 -13 55q-5 38 -5 159v120q0 65 -4 81q-4 32 -21 59v-1q-37 53 -139 53q-53 0 -97 -18
q-72 -35 -93 -130q5 -1 15 -2l11 -2q16 -2 31 -5q2 -1 3 -1h2q11 52 37 76q27 23 80 23q57 0 88 -31q23 -26 23 -84v-7q0 -1 -0.5 -4t-0.5 -5v-13q-40 -17 -136 -34q-52 -7 -66 -13q-43 -13 -72 -51t-29 -93q0 -59 37 -104q42 -40 106 -40q41 0 81 16q41 21 75 57z" />
    <glyph glyph-name="afii10066" unicode="&#x431;" horiz-adv-x="498" 
d="M385 258q0 -93 -35 -154q-38 -59 -94 -59q-52 0 -95 51q-38 50 -38 147q0 95 34 154q37 59 100 59q61 0 94 -56q34 -57 34 -142zM442 732l-56 1q-6 -10 -15 -13q-9 -4 -86 -4q-118 0 -178 -70q-57 -70 -57 -277q0 -165 23 -231q21 -67 65 -109q41 -41 118 -41
q63 0 102 33q38 27 67 88q27 68 27 147q0 111 -55 188q-57 71 -139 71q-80 0 -155 -116q2 94 15 146q21 52 52 74q36 22 127 22q67 0 93 6q23 6 35 24q12 16 17 61z" />
    <glyph glyph-name="afii10067" unicode="&#x432;" horiz-adv-x="463" 
d="M134 291v165h85q63 0 86 -17q27 -18 27 -65q0 -30 -16 -50q-13 -17 -33 -26q-17 -7 -67 -7h-82zM134 58v175h93q51 0 73 -7q23 -5 38 -30q14 -22 14 -52q0 -46 -28 -68q-25 -18 -88 -18h-102zM68 515v-515h194q71 0 111 36.5t45 105.5q-2 46 -21 73q-12 21 -60 52
q59 51 59 114q0 47 -19 77t-51 43q-37 14 -91 14h-167z" />
    <glyph glyph-name="afii10068" unicode="&#x433;" horiz-adv-x="327" 
d="M71 515v-515h63v456h177v59h-240z" />
    <glyph glyph-name="afii10069" unicode="&#x434;" horiz-adv-x="507" 
d="M178 456h180v-398h-250q63 152 70 398zM420 515h-294v-17q0 -309 -75 -440h-37v-208h50v150h354v-150h51v208h-49v457z" />
    <glyph glyph-name="afii10070" unicode="&#x435;" 
d="M383 301h-258q9 84 43 124q34 43 89 43q59 0 94 -53q23 -37 32 -114zM444 145l-66 10q-35 -108 -117 -108q-57 0 -94 48q-39 49 -44 147h327v15q0 130 -55 200q-55 69 -138 69q-91 0 -145 -71q-55 -70 -55 -203q0 -116 54 -194q60 -70 150 -70q68 0 115 40.5t68 116.5z
" />
    <glyph glyph-name="afii10072" unicode="&#x436;" horiz-adv-x="578" 
d="M75 123l-1 -1q1 0 1 1zM321 515h-66v-230q-45 3 -58 20q-11 13 -42 97q-18 53 -36 82q-9 16 -29 25h1q-15 6 -66 6v-58h18q23 0 35 -9q13 -13 21 -36q21 -69 39 -103q11 -16 60 -45q-69 -35 -108 -112q-2 -3 -5.5 -10l-5.5 -11q-3 -9 -5 -9q-11 -24 -41 -84q-4 -7 -7 -13
l-6.5 -13t-5.5 -12h69l30 62q33 69 47 99q33 55 44 68q28 15 51 16v-245h66v246q30 -1 51 -17q19 -17 45 -68q32 -71 69 -144q1 -3 3.5 -8.5t4.5 -8.5h68q-7 13 -22 44t-17 35q-19 35 -35 73q-40 78 -108 111q47 27 59 44q14 18 29 69q12 44 27 66q10 15 41 15h15v58h-22
q-44 0 -61 -19q-24 -26 -45 -94q-29 -83 -44 -98q-12 -16 -58 -19v230z" />
    <glyph glyph-name="afii10073" unicode="&#x437;" horiz-adv-x="404" 
d="M167 294v-55h11q48 0 66 -5q23 -9 35 -30h-1q19 -28 19 -60q0 -44 -29 -72q-26 -27 -63 -27q-39 0 -70 29q-26 25 -40 76q-6 -2 -11 -2q-26 -8 -48 -13q32 -147 166 -147q76 0 117 43q41 44 41 110q0 79 -73 131q59 49 59 104q0 57 -37 106q-39 44 -107 44
q-112 0 -152 -134q22 -5 26 -6h-1q5 -2 25 -4q2 0 4.5 -1t4.5 -1q30 88 93 88q34 0 54.5 -24t20.5 -64q0 -34 -15 -55q-21 -23 -36 -25q-21 -5 -59 -6z" />
    <glyph glyph-name="afii10074" unicode="&#x438;" horiz-adv-x="486" 
d="M68 515v-515h72q49 91 92 180l112 220l9 -2v-398h65v515h-73l-3 -6t-3.5 -7.5t-3.5 -6.5q-49 -96 -73 -147l-121 -236l-8 2v401h-65z" />
    <glyph glyph-name="afii10075" unicode="&#x439;" horiz-adv-x="486" 
d="M81 515v-515h72q49 91 92 180l112 220l9 -2v-398h65v515h-73l-3 -6t-3.5 -7.5t-3.5 -6.5q-49 -96 -73 -147l-121 -236l-8 2v401h-65zM377 715h-40q-18 -68 -78 -68q-55 0 -72 68h-39q16 -114 115 -114q44 0 73.5 30t40.5 84z" />
    <glyph glyph-name="afii10076" unicode="&#x43a;" horiz-adv-x="386" 
d="M69 515v-515h64v246q31 -2 52 -17q20 -20 42 -67l78 -162h69l-56 113q-3 7 -10 20t-9 19q-39 72 -109 112q51 28 57 43q14 14 31 69q15 50 28 67q12 14 41 14h15v58h-9q-42 0 -56 -7q-21 -8 -29 -26q-11 -17 -35 -80q-28 -78 -42 -98q-14 -16 -58 -19v230h-64z" />
    <glyph glyph-name="afii10077" unicode="&#x43b;" horiz-adv-x="507" 
d="M104 515v-343q0 -65 -2 -83q-8 -29 -51 -29h-28v-60q35 -3 55 -3q40 0 61 20q21 21 24 45q5 24 5 122v272h207v-456h64v515h-335z" />
    <glyph glyph-name="afii10078" unicode="&#x43c;" horiz-adv-x="592" 
d="M70 515v-515h62v440h12l119 -440h59l110 363q9 31 18 56l9 -2v-417h63v515h-96q-11 -34 -33 -110l-35 -113l-12 -41l-52 -174l-117 438h-107z" />
    <glyph glyph-name="afii10079" unicode="&#x43d;" horiz-adv-x="482" 
d="M68 515v-515h66v235h214v-235h64v515h-64v-221h-214v221h-66z" />
    <glyph glyph-name="afii10080" unicode="&#x43e;" 
d="M126 256q0 104 36 159q42 52 98 52t95 -52q38 -53 38 -154q0 -109 -38 -161q-38 -53 -95 -53q-55 0 -98 52q-36 53 -36 157zM59 256q0 -118 55 -198q60 -70 146 -70q54 0 103 32q49 33 69 87q28 61 28 158q0 121 -57 192q-55 69 -143 69q-82 0 -134 -58q-67 -70 -67 -212
z" />
    <glyph glyph-name="afii10081" unicode="&#x43f;" horiz-adv-x="472" 
d="M68 515v-515h65v456h208v-456h63v515h-336z" />
    <glyph glyph-name="afii10082" unicode="&#x440;" 
d="M138 253q0 110 38 163q37 55 86 55q50 0 89 -54q35 -59 35 -155q0 -102 -36 -162q-41 -53 -90 -53t-86 51q-36 51 -36 155zM80 -204h66v271q64 -79 118 -79q47 0 95 33q44 33 68 96q23 64 23 145q0 69 -20 134q-23 60 -65.5 95t-94.5 35q-67 0 -131 -94v83h-59v-719z" />
    <glyph glyph-name="afii10083" unicode="&#x441;" horiz-adv-x="438" 
d="M429 168l-62 10q-11 -65 -41 -98t-74 -33q-59 0 -91 51q-36 50 -36 159q0 108 37 160q36 51 95 51q77 0 102 -106q5 0 13 2q5 1 13 2.5t9 1.5q4 1 14 3q12 3 13 3q-16 74 -58.5 113t-108.5 39q-56 0 -103 -31q-44 -32 -68.5 -95.5t-24.5 -145.5q0 -123 53 -197
q56 -69 141 -69q72 0 119 50q43 48 58 130z" />
    <glyph glyph-name="afii10084" unicode="&#x442;" horiz-adv-x="403" 
d="M30 515v-59h140v-456h63v456h141v59h-344z" />
    <glyph glyph-name="afii10085" unicode="&#x443;" horiz-adv-x="438" 
d="M71 -138l8 -69q30 -8 42 -8q62 0 102 82q7 16 42 120h-1l163 528h-62q-5 -15 -15 -49l-24 -78l-22 -73l-31 -106q-18 -59 -31 -118h-9q-18 76 -32 120l-90 304h-67l93 -301l70 -223l-4 -11q0 -2 -2 -4v-3q-1 -2 -1 -7q-8 -28 -24 -70q-24 -39 -69 -39q-8 0 -36 5z" />
    <glyph glyph-name="afii10086" unicode="&#x444;" horiz-adv-x="704" 
d="M106 266q0 92 27 144q35 58 81 58q107 0 107 -218q0 -203 -101 -203q-48 0 -83 53q-31 53 -31 166zM383 254q0 214 105 214q49 0 79 -51q32 -56 32 -155q0 -107 -33 -164q-33 -52 -80 -52q-44 0 -76 44q-27 44 -27 164zM320 716v-266q-58 76 -113 76q-72 0 -122 -75h1
q-44 -77 -44 -188q0 -133 50 -204q48 -71 115 -71q54 0 113 68v-260h63v257q52 -50 67 -56q22 -9 48 -9q67 0 117 73q48 76 48 196q0 112 -45 194q-42 75 -119 75q-52 0 -116 -74v264h-63z" />
    <glyph glyph-name="afii10087" unicode="&#x445;" horiz-adv-x="438" 
d="M39 0h76q6 12 72 130q16 32 24 46q3 6 11 20.5t9 16.5l31 -50l87 -163h76q-10 17 -83 145q-23 38 -36 62q-14 25 -39 66l146 242h-75l-13 -25q-14 -21 -17 -27q-1 -1 -3 -5l1 1q-15 -28 -39 -67v1q-3 -6 -13 -22q-20 -35 -25 -45l-10 21l-23 46l-68 122h-78l78 -132
l33 -59l32 -56z" />
    <glyph glyph-name="afii10088" unicode="&#x446;" horiz-adv-x="498" 
d="M69 515v-515h340v-150h52v208h-50v457h-62v-457h-216v457h-64z" />
    <glyph glyph-name="afii10089" unicode="&#x447;" horiz-adv-x="455" 
d="M42 515v-132q0 -56 15 -96q9 -37 47 -69q43 -31 86 -31q58 0 132 29v-216h65v515h-65v-240q-72 -28 -114 -28q-36 0 -62 23v1q-29 23 -34 54q-6 23 -6 97v93h-64z" />
    <glyph glyph-name="afii10090" unicode="&#x448;" horiz-adv-x="688" 
d="M68 515v-515h550v515h-63v-456h-180v456h-63v-456h-180v456h-64z" />
    <glyph glyph-name="afii10091" unicode="&#x449;" horiz-adv-x="704" 
d="M68 515v-515h547v-150h52v208h-50v457h-63v-457h-180v457h-62v-457h-180v457h-64z" />
    <glyph glyph-name="afii10092" unicode="&#x44a;" horiz-adv-x="541" 
d="M213 57v192h94q65 0 97 -25q28 -25 28 -72q0 -52 -32 -74q-32 -21 -103 -21h-84zM29 515v-59h120v-456h183q81 0 126 43q41 46 41 109q0 58 -42 109q-49 47 -144 47h-100v207h-184z" />
    <glyph glyph-name="afii10093" unicode="&#x44b;" horiz-adv-x="618" 
d="M483 515v-515h64v515h-64zM133 58v191h93q77 0 101 -29q25 -31 25 -68q0 -49 -32 -71.5t-105 -22.5h-82zM67 515v-515h181q83 0 130 45q40 46 40 108q0 72 -47 113q-53 42 -139 42h-99v207h-66z" />
    <glyph glyph-name="afii10094" unicode="&#x44c;" horiz-adv-x="455" 
d="M131 58v191h93q76 0 102 -29q23 -29 23 -68q0 -49 -31.5 -71.5t-103.5 -22.5h-83zM67 515v-515h181q88 0 128 45q40 48 40 108q0 72 -47 113q-50 42 -139 42h-99v207h-64z" />
    <glyph glyph-name="afii10095" unicode="&#x44d;" horiz-adv-x="447" 
d="M169 293h152q-7 83 -39 128q-34 46 -85 46q-86 0 -107 -108q-4 2 -9 2q-18 4 -22 4q-8 3 -31 8q13 69 50 107q45 46 117 46q88 0 141 -71q53 -73 53 -199q0 -124 -48 -198q-45 -70 -127 -70h-15q-78 2 -123 52q-41 49 -56 127q49 9 61 10q22 -130 116 -130q106 0 124 187
h-152v59z" />
    <glyph glyph-name="afii10096" unicode="&#x44e;" horiz-adv-x="644" 
d="M415 465q117 0 117 -213q0 -109 -33 -156q-35 -49 -86 -49q-54 0 -85 53q-34 54 -34 166q0 95 31.5 147t89.5 52zM67 515v-515h64v234h99q11 -125 55 -182q47 -64 128 -64q87 0 136 69q50 70 50 201q0 95 -25 151q-27 58 -61 86h1q-38 31 -102 31q-75 0 -122 -59.5
t-60 -173.5h-99v222h-64z" />
    <glyph glyph-name="afii10097" unicode="&#x44f;" horiz-adv-x="472" 
d="M339 456v-191h-88q-72 0 -101 22q-31 29 -31 77q0 38 21 65q20 27 89 27h110zM402 515h-196q-73 0 -114 -41q-37 -40 -37 -106q0 -59 27 -98t90 -53q0 -7 1 -9v-7q-35 -16 -69 -72l-28 -50l-43 -79h77l15 27q1 2 7.5 13.5t9.5 17.5q18 33 33 55h-1q39 68 57 81
q21 13 61 13h47v-207h63v515z" />
    <glyph glyph-name="afii10071" unicode="&#x451;" 
d="M383 301h-258q9 84 43 124q34 43 89 43q59 0 94 -53q23 -37 32 -114zM444 145l-66 10q-35 -108 -117 -108q-57 0 -94 48q-39 49 -44 147h327v15q0 130 -55 200q-55 69 -138 69q-91 0 -145 -71q-55 -70 -55 -203q0 -116 54 -194q60 -70 150 -70q68 0 115 40.5t68 116.5z
M144 634h66v88h-66v-88zM296 634h67v88h-67v-88z" />
    <glyph glyph-name="afii10099" unicode="&#x452;" 
d="M69 607v-607h64v282q0 108 38 148q41 34 80 34q101 0 101 -136v-362q0 -77 -15 -101q-20 -17 -37 -17q-11 0 -29 7l-14 -63q33 -7 55 -7q46 0 75 33q28 29 28 146v364q0 108 -38 154q-37 44 -106 44t-138 -83v164h140v44h-140v65h-64v-65h-55v-44h55z" />
    <glyph glyph-name="afii10100" unicode="&#x453;" horiz-adv-x="327" 
d="M84 515v-515h63v456h177v59h-240zM172 595h50q1 2 11 19q5 7 12.5 19t8.5 13l17 25l32 50h-82q-1 -3 -4 -9.5t-4 -8.5q-1 -5 -5 -15t-5 -14l-11 -27q-3 -9 -10 -26t-10 -26z" />
    <glyph glyph-name="afii10101" unicode="&#x454;" horiz-adv-x="447" 
d="M265 293h-152q7 83 39 128q34 46 85 46q86 0 107 -108q4 2 9 2q18 4 22 4q8 3 31 8q-13 69 -50 107q-45 46 -117 46q-88 0 -141 -71q-53 -73 -53 -199q0 -124 48 -198q45 -70 127 -70h15q78 2 123 52q41 49 56 127q-49 9 -61 10q-22 -130 -116 -130q-106 0 -124 187h152
v59z" />
    <glyph glyph-name="afii10102" unicode="&#x455;" horiz-adv-x="438" 
d="M117 156l-63 -13q30 -155 181 -155q48 0 90 20q41 25 59 60q20 37 20 79q0 41 -15 73q-15 26 -46 46h1q-39 16 -111 41q-8 3 -21.5 7t-15.5 5q-28 9 -29 10q-23 14 -32 26q-9 14 -9 38q0 32 24 53q24 22 76 22q82 0 100 -86q4 0 12 2q2 0 4.5 0.5t3.5 0.5l24 4h1
q4 1 8.5 2t8.5 1q-11 48 -25 70q-18 29 -56 46.5t-87 17.5q-69 0 -108 -34q-47 -42 -47 -111q0 -32 14 -67q15 -30 47 -46q30 -19 111 -44q64 -20 77 -31q25 -18 25 -54q0 -38 -28 -66q-23 -26 -76 -26q-100 0 -118 109z" />
    <glyph glyph-name="afii10103" unicode="&#x456;" horiz-adv-x="208" 
d="M85 629h64v87h-64v-87zM85 0h64v515h-64v-515z" />
    <glyph glyph-name="afii10104" unicode="&#x457;" horiz-adv-x="255" 
d="M111 0h62v515h-62v-515zM33 634h66v88h-66v-88zM185 634h67v88h-67v-88z" />
    <glyph glyph-name="afii10105" unicode="&#x458;" horiz-adv-x="208" 
d="M85 628h64v88h-64v-88zM5 -145l-12 -62q36 -8 51 -8q56 0 86 47h-1q20 40 20 132v551h-64v-549q0 -71 -12 -98q-15 -20 -38 -20q-10 0 -30 7z" />
    <glyph glyph-name="afii10106" unicode="&#x459;" horiz-adv-x="773" 
d="M449 58v191h94q75 0 101 -29q24 -30 24 -68q0 -49 -34 -73q-32 -21 -103 -21h-82zM449 515h-343v-343q0 -72 -9 -96v1q-9 -24 -39 -24q-12 0 -40 3v-56q34 -3 52 -3q42 0 64 16h-1q21 20 27 49q8 32 8 122v272h217v-456h181q90 0 130 46v-1q38 47 38 108q0 72 -47 113
q-52 42 -138 42h-100v207z" />
    <glyph glyph-name="afii10107" unicode="&#x45a;" horiz-adv-x="695" 
d="M371 54v181h93q79 0 101 -27q25 -28 25 -64q0 -46 -33 -69q-32 -21 -104 -21h-82zM371 294v221h-62v-221h-182v221h-62v-515h62v235h182v-235h178q89 0 129 43q40 45 40 103q0 71 -47 106q-48 42 -138 42h-100z" />
    <glyph glyph-name="afii10108" unicode="&#x45b;" 
d="M69 651h-55v-44h55v-607h64v282q0 108 38 148q41 34 80 34q101 0 101 -136v-328h63v328q0 108 -38 154q-37 44 -106 44t-138 -83v164h140v44h-140v65h-64v-65z" />
    <glyph glyph-name="afii10109" unicode="&#x45c;" horiz-adv-x="386" 
d="M82 515v-515h64v246q31 -2 52 -17q20 -20 42 -67l78 -162h69l-56 113q-3 7 -9.5 20l-9.5 19q-39 72 -109 112q51 28 57 43q14 14 31 69q15 50 28 67q12 14 41 14h15v58h-9q-42 0 -56 -7q-21 -8 -29 -26q-11 -17 -35 -80q-28 -78 -42 -98q-14 -16 -58 -19v230h-64z
M172 595h50q1 2 11 19q5 7 12.5 19t8.5 13l17 25l32 50h-82q-1 -3 -4 -9.5t-4 -8.5q-1 -5 -5 -15t-5 -14l-11 -27q-3 -9 -10 -26t-10 -26z" />
    <glyph glyph-name="afii10110" unicode="&#x45e;" horiz-adv-x="438" 
d="M71 -138l8 -69q30 -8 42 -8q62 0 102 82q7 16 42 120h-1l163 528h-62q-5 -15 -15 -49l-24 -78l-22 -73l-31 -106q-18 -59 -31 -118h-9q-18 76 -32 120l-90 304h-67l93 -301l70 -223l-4 -11q0 -2 -2 -4v-3q-1 -2 -1 -7q-8 -28 -24 -70q-24 -39 -69 -39q-8 0 -36 5z
M350 715h-40q-18 -68 -78 -68q-55 0 -72 68h-39q17 -114 115 -114q44 0 73.5 30t40.5 84z" />
    <glyph glyph-name="afii10193" unicode="&#x45f;" horiz-adv-x="482" 
d="M265 0h147v515h-64v-457h-214v457h-66v-515h147v-151h50v151z" />
    <glyph glyph-name="afii10050" unicode="&#x490;" horiz-adv-x="429" 
d="M329 716h-248v-716h68v646h240v273h-60v-203z" />
    <glyph glyph-name="afii10098" unicode="&#x491;" horiz-adv-x="365" 
d="M273 515h-204v-515h65v456h191v261h-52v-202z" />
    <glyph glyph-name="uni0492" unicode="&#x492;" horiz-adv-x="472" 
d="M460 646v70h-379v-332h-70v-51h70v-333h68v333h164v51h-164v262h311z" />
    <glyph glyph-name="uni0493" unicode="&#x493;" horiz-adv-x="327" 
d="M311 456v59h-242v-208h-49v-51h49v-256h66v256h95v51h-95v149h176z" />
    <glyph glyph-name="uni0496" unicode="&#x496;" horiz-adv-x="788" 
d="M773 -204v274h-41l-81 161q-49 96 -129 134q56 33 79 69q16 30 37 91q21 63 34 85q26 38 71 38h25v67q-10 1 -42 1q-72 0 -109 -66q-16 -28 -40 -101q-33 -88 -49 -113q-32 -37 -99 -40v320h-73v-320q-70 3 -99 43q-19 32 -46 110q-24 69 -42 102q-38 65 -110 65
q-32 0 -41 -1v-67h27q35 1 58 -20q25 -31 46 -103h-1q27 -75 37 -91q18 -33 82 -69q-78 -35 -132 -134l-118 -231h87l84 167q20 37 20 38q45 90 72 111q27 24 76 27v-343h73v343q59 -3 97 -48q19 -23 57 -100q10 -18 27.5 -52.5t22.5 -43.5q2 -5 6 -13.5t7.5 -15.5t7.5 -13
l29 -57h30v-204h60z" />
    <glyph glyph-name="uni0497" unicode="&#x497;" horiz-adv-x="578" 
d="M75 123l-1 -1q1 0 1 1zM562 -150v208h-29q-9 18 -33 70q-1 3 -3.5 8l-4.5 9t-4 7q-39 71 -109 111q49 28 60 49q12 14 29 64q13 45 22 58q13 23 46 23h15v58h-22q-43 0 -69 -29q-15 -17 -38 -85q-24 -68 -30 -79q-23 -33 -71 -36v229h-66v-230q-47 3 -70 38
q-16 32 -31 79h1q-19 55 -24 63q-17 33 -40 44q-15 6 -65 6v-58h17q21 0 36 -10q6 -5 20 -35l18 -56q3 -7 6 -17t4 -12q18 -30 70 -64q-68 -37 -107 -111q-9 -18 -11 -21q-3 -9 -5 -9q-11 -24 -41 -84q-3 -7 -6 -13t-7 -13t-6 -12h69l30 62l48 101q1 2 4 5.5t4 6.5
q21 38 28 47q20 18 58 23v-245h66v245q41 -5 61 -26q10 -11 35 -57l77 -162h18v-150h50z" />
    <glyph glyph-name="uni049A" unicode="&#x49a;" horiz-adv-x="506" 
d="M489 -204v274h-40l-83 161q-50 96 -130 134q65 37 78 66q6 10 33 78q1 3 3 8.5t3 7.5q16 55 35 85q26 38 70 38h26v68h-43q-73 0 -108 -66q-20 -42 -41 -101q-19 -53 -45 -109q-35 -43 -100 -44v320h-67v-716h67v342q59 -5 95 -48q28 -38 56 -99l51 -99l49 -96h30v-204
h61z" />
    <glyph glyph-name="uni049B" unicode="&#x49b;" horiz-adv-x="386" 
d="M367 -150v208h-22q-13 29 -42 84v1q-4 6 -5 9q-17 33 -46.5 63.5t-59.5 47.5q50 32 61 49q3 5 17 40q3 11 8 24l19 57q18 24 50 24h15v58h-9q-41 0 -56 -7q-24 -10 -39 -45q-7 -11 -25 -61q-27 -76 -32 -82l1 1q-21 -33 -69 -36v230h-65v-515h65v245q38 -5 59 -26
q13 -15 35 -58q2 -5 6 -13q29 -56 42 -85q3 -7 13.5 -29t15.5 -34h13v-150h50z" />
    <glyph glyph-name="uni049C" unicode="&#x49c;" horiz-adv-x="506" 
d="M486 0l-120 231q-49 94 -129 134q56 31 79 68q13 24 37 92q16 55 35 85q26 38 69 38h27v68h-43q-35 0 -64 -18q-30 -19 -53 -64l-9 -22q-18 -42 -19 -45v-3q0 -1 -1.5 -6.5t-2.5 -8.5q-23 -60 -38 -89l-8 2v142h-38v-198q-27 -10 -61 -10v320h-67v-716h67v343
q36 -3 61 -15v-208h38v166q36 -52 52 -91l100 -195h88z" />
    <glyph glyph-name="uni049D" unicode="&#x49d;" horiz-adv-x="386" 
d="M375 0l-76 152q-43 80 -105 111q45 27 53 43q10 11 31 70q17 53 21 58q16 23 48 23h15v58h-9q-42 0 -56 -7q-21 -9 -38 -44q-9 -13 -25 -62q-2 -6 -8 -22q-3 -7 -10 -28h-12v101h-29v-162q-11 -4 -42 -6v230h-64v-515h64v246q20 -1 42 -12v-152h29v109q14 -7 14 -12l3 -6
q1 -2 3.5 -6t3.5 -6l-1 1q5 -12 15.5 -34t13.5 -29q42 -82 50 -99h69z" />
    <glyph glyph-name="uni04A2" unicode="&#x4a2;" horiz-adv-x="622" 
d="M596 -204v274h-54v646h-70v-301h-325v301h-68v-716h68v345h325v-345h64v-204h60z" />
    <glyph glyph-name="uni04A3" unicode="&#x4a3;" horiz-adv-x="482" 
d="M460 -150v208h-49v457h-64v-221h-215v221h-64v-515h64v235h215v-235h61v-150h52z" />
    <glyph glyph-name="uni04AE" unicode="&#x4ae;" 
d="M464 716h-75q-24 -54 -27 -60l-58 -130l-27 -60q-2 -5 -7.5 -19t-8.5 -21q-4 -8 -12.5 -28t-9.5 -23q-18 53 -36 87l-117 254h-69l98 -209l95 -199v-308h63v308z" />
    <glyph glyph-name="uni04AF" unicode="&#x4af;" horiz-adv-x="438" 
d="M414 515h-69q-5 -20 -11.5 -42.5t-15 -50t-12.5 -42.5q-9 -28 -15 -52l-9 -29l-27 -87q-5 -20 -16.5 -61.5t-15.5 -59.5h-9q-1 5 -3.5 16t-3.5 16q-2 8 -10.5 38t-14.5 50l-89 304h-68l50 -161q5 -19 16.5 -54.5t15.5 -49.5l35 -107l46 -148v-199h63v199z" />
    <glyph glyph-name="uni04B0" unicode="&#x4b0;" 
d="M465 716h-76q-24 -54 -27 -60l-58 -130l-27 -60q-2 -5 -7.5 -19t-8.5 -21q-4 -8 -12.5 -28t-9.5 -23q-18 53 -36 87l-117 254h-70q6 -16 13 -23l156 -332h-146v-58h171v-303h63v303h169v58h-145z" />
    <glyph glyph-name="uni04B1" unicode="&#x4b1;" horiz-adv-x="438" 
d="M414 515h-69q-5 -20 -11.5 -42.5t-15 -50t-12.5 -42.5q-9 -28 -15 -52l-9 -29l-27 -87q-5 -20 -16.5 -61.5t-15.5 -59.5h-9q-1 5 -3.5 16t-3.5 16q-2 8 -10.5 38t-14.5 50l-89 304h-68l133 -421q6 -23 28 -92l-1 1q3 -5 6 -19h-136v-50h133v-138h63v138h133v50h-135z" />
    <glyph glyph-name="uni04B2" unicode="&#x4b2;" horiz-adv-x="577" 
d="M558 -204v274h-49l-92 159l-89 149l207 338h-73q-6 -11 -22 -35q-18 -28 -25 -41l-34 -54q-8 -12 -38 -62l-17 -28q-26 -45 -36 -63q-12 31 -51 99q-47 77 -71 121l-20 33q-2 3 -5.5 9.5t-6.5 11.5t-6 9h-82q6 -9 37 -62l71 -119q30 -50 44 -76q4 -7 22.5 -38.5
t28.5 -46.5l-229 -374h81q5 10 16.5 27.5t16.5 26.5l43 73q22 38 34 57q24 39 39 67q5 6 18 31q0 2 5 11q2 2 2 3q6 18 7 22q27 -47 33 -60l151 -258h31v-204h59z" />
    <glyph glyph-name="uni04B3" unicode="&#x4b3;" horiz-adv-x="438" 
d="M419 -150v208h-39q-7 11 -24.5 41t-26.5 45l-75 129l147 242h-76q-9 -19 -23 -41q-4 -8 -10 -17q-32 -54 -34 -58l-4 -7q-10 -17 -15 -24q-3 -7 -12.5 -23.5t-11.5 -19.5q-3 7 -16 33q-15 33 -16 35q-1 1 -3 5q-4 10 -11 16q-12 24 -54 101h-77q4 -8 22 -40l54 -92
q2 -3 8 -13.5t9 -15.5q35 -60 49 -86l-155 -268h76l25 45l35 63l25 44l33 63l116 -215h32v-150h52z" />
    <glyph glyph-name="uni04B8" unicode="&#x4b8;" horiz-adv-x="575" 
d="M496 0v716h-68v-354q-68 -30 -135 -45v223h-40v-226h-8q-50 0 -89 40q-38 39 -38 165v197h-69v-207q0 -97 15 -141q16 -55 69 -92h-1q46 -29 104 -29q7 0 17 3v-136h40v138q61 13 135 46v-298h68z" />
    <glyph glyph-name="uni04B9" unicode="&#x4b9;" horiz-adv-x="455" 
d="M387 0v515h-65v-239q-54 -21 -97 -28v140h-29v-141q-31 6 -50 23q-29 26 -37 70q-3 24 -3 82v93h-64v-132q0 -60 14 -96q12 -44 53 -73q38 -27 73 -27h14v-103h29v105q52 10 97 27v-216h65z" />
    <glyph glyph-name="uni04BA" unicode="&#x4ba;" horiz-adv-x="575" 
d="M526 0v207q0 85 -15 142q-20 59 -69 90q-43 31 -103 31q-73 0 -192 -52v298h-67v-716h67v353q97 48 183 48q74 0 104 -61q24 -51 24 -141v-199h68z" />
    <glyph glyph-name="uni04BB" unicode="&#x4bb;" 
d="M81 0h65v282q0 68 12 101q18 43 43 60q30 21 66 21q97 0 97 -136v-328h64v328q0 73 -16 115q-15 38 -49.5 60.5t-80.5 22.5q-64 0 -136 -83v273h-65v-716z" />
    <glyph glyph-name="uni04E8" unicode="&#x4e8;" horiz-adv-x="667" 
d="M482 574l4 9q0 -1 2 -4.5t4 -5.5zM123 322h421q-13 -127 -63 -192q-55 -76 -148 -76q-89 0 -153 83q-50 74 -57 185zM544 393h-419q11 131 58 193q64 75 151 75q91 0 160 -88h-2q43 -67 52 -180zM617 357q0 165 -74 264q-78 108 -209 108q-133 0 -212 -110v1
q-71 -114 -71 -271q0 -84 29 -168q34 -94 103 -142q62 -51 151 -51q129 0 209 108q74 105 74 261z" />
    <glyph glyph-name="uni04E9" unicode="&#x4e9;" 
d="M374 301h-266q10 71 38 116q40 50 95 50t97 -52q26 -40 36 -114zM106 242h269q-8 -89 -35 -138q-40 -57 -99 -57q-63 0 -101 57q-25 44 -34 138zM440 265q0 116 -51 187q-52 74 -148 74q-79 0 -134 -58q-66 -69 -66 -212q0 -119 49 -191q56 -77 151 -77q55 0 104 32
q95 63 95 245z" />
    <glyph glyph-name="afii57799" unicode="&#x5b0;" horiz-adv-x="301" 
d="M150 -40q-13 0 -20.5 -10.5t-7.5 -24.5q0 -13 8.5 -23t19.5 -10q12 0 21 10t9 23q0 14 -9 24.5t-21 10.5zM150 -146q-11 0 -19.5 -10t-8.5 -24q0 -15 8.5 -25t19.5 -10q12 0 21 10t9 25q0 14 -9 24t-21 10z" />
    <glyph glyph-name="afii57801" unicode="&#x5b1;" horiz-adv-x="301" 
d="M150 -40q-11 0 -19.5 -10.5t-8.5 -24.5q0 -13 8.5 -23t19.5 -10q12 0 21 10t9 23q0 16 -9.5 25.5t-20.5 9.5zM245 -40q-13 0 -22 -10.5t-9 -24.5t9 -23.5t22 -9.5q11 0 19.5 10t8.5 23q0 14 -7.5 24.5t-20.5 10.5zM57 -40q-14 0 -22.5 -10.5t-8.5 -24.5t9 -23.5t22 -9.5
q12 0 20 9.5t8 23.5q0 15 -8 25t-20 10zM104 -146q-14 0 -22 -10.5t-8 -23.5q0 -15 8.5 -25t21.5 -10q12 0 20.5 10t8.5 25t-9 24.5t-20 9.5zM245 -146q-13 0 -22 -10t-9 -24q0 -16 9.5 -25.5t21.5 -9.5q11 0 19.5 10t8.5 25t-8.5 24.5t-19.5 9.5z" />
    <glyph glyph-name="afii57800" unicode="&#x5b2;" horiz-adv-x="301" 
d="M236 -40q-13 0 -21 -10t-8 -25q0 -14 8 -23.5t21 -9.5t21 10t8 23q0 14 -8 24.5t-21 10.5zM236 -146q-13 0 -21 -10.5t-8 -23.5q0 -17 8 -26t21 -9t21 10.5t8 24.5q0 16 -9 25t-20 9zM36 -82h126v37h-126v-37z" />
    <glyph glyph-name="afii57802" unicode="&#x5b3;" horiz-adv-x="301" 
d="M236 -40q-13 0 -21 -10t-8 -25q0 -14 8 -23.5t21 -9.5t21 10t8 23q0 14 -8 24.5t-21 10.5zM236 -146q-13 0 -21 -10.5t-8 -23.5q0 -17 8 -26t21 -9t21 10.5t8 24.5q0 16 -9 25t-20 9zM83 -155h36v73h43v37h-126v-37h47v-73z" />
    <glyph glyph-name="afii57793" unicode="&#x5b4;" horiz-adv-x="301" 
d="M150 -115q-13 0 -20.5 -10.5t-7.5 -24.5t8.5 -24.5t19.5 -10.5q12 0 21 10.5t9 24.5t-9 24.5t-21 10.5z" />
    <glyph glyph-name="afii57794" unicode="&#x5b5;" horiz-adv-x="301" 
d="M96 -115q-11 0 -19.5 -10.5t-8.5 -24.5t8.5 -24.5t19.5 -10.5q12 0 20.5 10.5t8.5 24.5q0 16 -9 25.5t-20 9.5zM205 -115q-14 0 -22.5 -10.5t-8.5 -24.5q0 -15 9.5 -25t21.5 -10t19.5 10t7.5 25q0 14 -7.5 24.5t-19.5 10.5z" />
    <glyph glyph-name="afii57795" unicode="&#x5b6;" horiz-adv-x="301" 
d="M96 -40q-11 0 -19.5 -10.5t-8.5 -24.5q0 -13 8.5 -23t19.5 -10q12 0 20.5 9.5t8.5 23.5q0 16 -9 25.5t-20 9.5zM150 -146q-11 0 -19.5 -10t-8.5 -24q0 -15 8.5 -25t19.5 -10q12 0 21 10t9 25q0 14 -9 24t-21 10zM205 -40q-14 0 -22.5 -10.5t-8.5 -24.5q0 -15 9 -24t22 -9
q12 0 19.5 9.5t7.5 23.5t-7.5 24.5t-19.5 10.5z" />
    <glyph glyph-name="afii57798" unicode="&#x5b7;" horiz-adv-x="301" 
d="M72 -157h154v37h-154v-37z" />
    <glyph glyph-name="afii57797" unicode="&#x5b8;" horiz-adv-x="301" 
d="M132 -215h37v84h57v37h-154v-37h60v-84z" />
    <glyph glyph-name="afii57806" unicode="&#x5b9;" horiz-adv-x="301" 
d="M150 659q-11 0 -19.5 -10t-8.5 -24q0 -15 8.5 -25t19.5 -10q12 0 21 10t9 25q0 14 -9.5 24t-20.5 10z" />
    <glyph glyph-name="afii57806" unicode="&#x5ba;" horiz-adv-x="301" 
d="M150 659q-11 0 -19.5 -10t-8.5 -24q0 -15 8.5 -25t19.5 -10q12 0 21 10t9 25q0 14 -9.5 24t-20.5 10z" />
    <glyph glyph-name="afii57796" unicode="&#x5bb;" horiz-adv-x="301" 
d="M150 -95q-12 0 -20 -10t-8 -25q0 -14 8.5 -24t19.5 -10q12 0 21 10t9 24q0 15 -9 25t-21 10zM250 -146q-13 0 -21.5 -10t-8.5 -24q0 -15 8.5 -25t21.5 -10q12 0 20.5 10t8.5 25q0 14 -8.5 24t-20.5 10zM51 -41q-13 0 -21.5 -10.5t-8.5 -23.5q0 -14 9 -24t21 -10
q13 0 21 10t8 24q0 16 -8.5 25t-20.5 9z" />
    <glyph glyph-name="afii57807" unicode="&#x5bc;" horiz-adv-x="301" 
d="M150 314q-13 0 -20.5 -9.5t-7.5 -23.5q0 -15 8 -24.5t20 -9.5t21 9.5t9 24.5t-9.5 24t-20.5 9z" />
    <glyph glyph-name="afii57839" unicode="&#x5bd;" horiz-adv-x="301" 
d="M135 -41v-174h31v174h-31z" />
    <glyph glyph-name="afii57645" unicode="&#x5be;" horiz-adv-x="341" 
d="M66 450h209v65h-209v-65z" />
    <glyph glyph-name="afii57841" unicode="&#x5bf;" horiz-adv-x="301" 
d="M72 625h154v36h-154v-36z" />
    <glyph glyph-name="afii57842" unicode="&#x5c0;" horiz-adv-x="252" 
d="M102 -10h48v634h-48v-634z" />
    <glyph glyph-name="afii57804" unicode="&#x5c1;" horiz-adv-x="301" 
d="M360 659q-11 0 -20 -9.5t-9 -24.5t8.5 -25t20.5 -10q13 0 21 10.5t8 24.5t-7.5 24t-21.5 10z" />
    <glyph glyph-name="afii57803" unicode="&#x5c2;" horiz-adv-x="301" 
d="M-54 659q-12 0 -20.5 -9.5t-8.5 -24.5t8.5 -25t20.5 -10q27 0 29 35q0 13 -8 23.5t-21 10.5z" />
    <glyph glyph-name="afii57658" unicode="&#x5c3;" horiz-adv-x="255" 
d="M91 428h74v87h-74v-87zM91 0h74v88h-74v-88z" />
    <glyph glyph-name="afii57664" unicode="&#x5d0;" horiz-adv-x="489" 
d="M448 0l-128 218q52 40 71 82q20 42 27 114v8q2 24 3 35q0 2 0.5 6.5t0.5 7.5q4 32 4 44h-69q-3 -16 -7 -59q-1 -5 -2.5 -20t-2.5 -21q-5 -64 -17 -89h1q-6 -22 -40 -51l-143 240h-82q7 -14 11 -20l58 -99q5 -7 15 -25t15 -25q-78 -54 -89 -172l-17 -174h70q5 34 9 90
q2 15 4 43q2 21 5 43q8 71 51 112l168 -288h84z" />
    <glyph glyph-name="afii57665" unicode="&#x5d1;" horiz-adv-x="474" 
d="M371 64v214q0 120 -51 182q-51 60 -166 60q-59 0 -113 -10q0 -16 2 -26q0 -2 1 -11.5t1 -14.5q1 -3 1 -6v-6q57 6 78 6q74 0 112 -22q35 -21 55 -65q13 -46 13 -113v-188h-271v-64h407v64h-69z" />
    <glyph glyph-name="afii57666" unicode="&#x5d2;" horiz-adv-x="354" 
d="M269 171v164q0 68 -10 102q-9 32 -37 59q-28 24 -82 24q-32 0 -64 -9q0 -1 0.5 -5t0.5 -6q0 -11 1 -14v1l2 -15q2 -14 3 -22q18 3 38 3q33 0 48 -14q20 -12 28 -42v1q4 -17 4 -66v-147q-40 -3 -74 -24q-37 -21 -68 -91l-31 -70h69q1 1 2.5 4.5t1.5 5.5v-1q3 9 3 10
q10 18 16 35q34 72 92 76l30 -130h67q-1 3 -8 32.5t-9 41.5q-8 36 -10 42q-2 9 -4 18.5t-5 20t-4 16.5z" />
    <glyph glyph-name="afii57667" unicode="&#x5d3;" horiz-adv-x="445" 
d="M412 450v65h-379v-65h238v-450h67v450h74z" />
    <glyph glyph-name="afii57668" unicode="&#x5d4;" horiz-adv-x="522" 
d="M147 283h-67v-283h67v283zM75 505l6 -65q61 12 120 12q76 0 110 -20q36 -17 55 -59q16 -48 16 -121v-252h67v278q0 125 -50 182q-50 60 -184 60q-65 0 -140 -15z" />
    <glyph glyph-name="afii57669" unicode="&#x5d5;" horiz-adv-x="228" 
d="M149 515h-69v-515h69v515z" />
    <glyph glyph-name="afii57670" unicode="&#x5d6;" horiz-adv-x="341" 
d="M308 462v53h-255v-65h122q-66 -75 -66 -146q0 -37 1 -61q10 -123 10 -164v-79h67v65q0 64 -10 171q0 5 -0.5 13.5t-0.5 12.5q-2 26 -2 31q0 77 37 124q36 41 97 45z" />
    <glyph glyph-name="afii57671" unicode="&#x5d7;" horiz-adv-x="520" 
d="M429 418l4 7h-8q3 -6 4 -7zM447 0v289q0 83 -23 137l1 -1q-47 95 -192 95q-71 0 -157 -16v-504h69v445q45 7 84 7q60 0 93 -21q35 -21 46 -56q11 -42 11 -96v-279h68z" />
    <glyph glyph-name="afii57672" unicode="&#x5d8;" horiz-adv-x="512" 
d="M71 515v-242q0 -105 17 -159l-1 1q24 -59 63 -92q48 -37 109 -37q69 0 116 39q44 44 57 97q17 55 17 157v38q0 207 -110 207q-64 0 -107 -80q6 -14 10 -22q1 -1 1 -2q6 -10 7 -13q38 49 71 49q61 0 61 -124v-67q0 -68 -8 -118q-9 -46 -38.5 -73t-76.5 -27q-46 0 -81 38
q-40 43 -40 163v267h-67z" />
    <glyph glyph-name="afii57673" unicode="&#x5d9;" horiz-adv-x="228" 
d="M149 515h-69v-260h69v260z" />
    <glyph glyph-name="afii57674" unicode="&#x5da;" horiz-adv-x="445" 
d="M32 510l5 -66q47 8 101 8q52 0 89 -15q40 -19 59 -58q18 -38 18 -127v-456h69v482q0 133 -56 186q-53 56 -176 56q-49 0 -109 -10z" />
    <glyph glyph-name="afii57675" unicode="&#x5db;" horiz-adv-x="407" 
d="M57 74l-10 -69q54 -13 80 -13q80 0 128 36q99 76 99 228q0 113 -59 192q-62 74 -168 74q-36 0 -80 -12q1 -7 5 -33q2 -17 5 -37q37 12 75 12q71 0 110 -54q38 -56 38 -142q0 -89 -38.5 -141.5t-109.5 -52.5q-38 0 -75 12z" />
    <glyph glyph-name="afii57676" unicode="&#x5dc;" horiz-adv-x="407" 
d="M106 515v201h-66v-266h240v-78q0 -38 -5 -61q-5 -25 -24 -54q-18 -27 -25 -39q-16 -21 -30 -60q-9 -32 -9 -95v-63h67v77q0 66 35 122l23 35h-1q20 31 29 67q8 48 8 90v124h-242z" />
    <glyph glyph-name="afii57677" unicode="&#x5dd;" horiz-adv-x="520" 
d="M429 418l4 7h-8q3 -6 4 -7zM379 64h-234v381q45 7 84 7q60 0 93 -21q35 -21 46 -56q11 -42 11 -96v-215zM447 0v289q0 83 -23 137l1 -1q-47 95 -192 95q-71 0 -157 -16v-504h371z" />
    <glyph glyph-name="afii57678" unicode="&#x5de;" horiz-adv-x="522" 
d="M47 515l68 -213q-14 -56 -22 -105q-15 -84 -31 -197h66q3 11 10 58l6 40q1 5 2.5 16t2.5 16q8 53 9 59q26 151 56 204q34 60 83 60q31 0 53 -27q22 -34 25 -70q5 -25 5 -129v-163h-146v-64h215v225q0 114 -17 177q-16 55 -51.5 86.5t-82.5 31.5q-45 0 -86 -35
q-33 -29 -64 -99l-34 129h-67z" />
    <glyph glyph-name="afii57679" unicode="&#x5df;" horiz-adv-x="228" 
d="M149 515h-69v-719h69v719z" />
    <glyph glyph-name="afii57680" unicode="&#x5e0;" horiz-adv-x="317" 
d="M240 0v335q0 64 -11 102q-11 36 -37 60l1 -1q-30 24 -84 24q-27 0 -63 -9q0 -20 1 -25q3 -12 5 -36q17 3 41 3q28 0 48 -14q22 -18 26 -41q5 -18 5 -66v-268h-131v-64h199z" />
    <glyph glyph-name="afii57681" unicode="&#x5e1;" horiz-adv-x="499" 
d="M126 254q0 94 30 151q34 61 93 61q56 0 93 -57q32 -68 32 -154q0 -92 -29 -147q-33 -59 -96 -59q-58 0 -90.5 54t-32.5 151zM50 254q0 -119 54 -195q59 -74 145 -74q64 0 111 36q89 78 89 233q0 90 -30 156q-55 118 -170 118q-88 0 -144 -74q-55 -74 -55 -200z" />
    <glyph glyph-name="afii57682" unicode="&#x5e2;" horiz-adv-x="462" 
d="M69 515l76 -463q-40 -16 -121 -32q0 -4 2 -11t2 -11q4 -15 5 -24q0 -9 2 -21q115 23 179 51q67 32 98 66q30 35 49 82q14 36 22 89v-1q5 71 7 141q0 19 1 29v24q3 35 3 81h-69q-4 -102 -5 -175q0 -102 -16 -160q-18 -62 -99 -104l-64 439h-72z" />
    <glyph glyph-name="afii57683" unicode="&#x5e3;" horiz-adv-x="493" 
d="M215 236l-6 5q0 -5 1 -7q1 0 2.5 1t2.5 1zM124 299v147q37 11 78 11q58 0 93 -24q34 -23 48 -63q10 -44 10 -91v-483h66v493q0 134 -56 183h1q-62 48 -157 48q-79 0 -148 -24v-193q0 -65 28.5 -99t79.5 -34q27 0 50 11q0 2 -2 12q-3 15 -3 17q0 8 -2 24q-22 -4 -29 -4
q-57 0 -57 69z" />
    <glyph glyph-name="afii57684" unicode="&#x5e4;" horiz-adv-x="476" 
d="M73 69l-6 5l-3 -3l8 -5v1q1 1 1 2zM64 499v-151q0 -64 28 -97.5t80 -33.5q25 0 49 9q-7 52 -7 55q-13 -4 -30 -4q-57 0 -57 69v103q38 11 75 11q66 0 110 -54q41 -55 41 -143q0 -103 -53 -155q-52 -49 -123 -49q-55 0 -99 29q-2 -4 -4 -16q-1 -1 -1 -3h1q-3 -5 -9 -33
q-1 -2 -3 -14q46 -30 120 -30q115 0 181 74q63 70 63 199q0 127 -61 191q-63 66 -157 66q-80 0 -144 -23z" />
    <glyph glyph-name="afii57685" unicode="&#x5e5;" horiz-adv-x="407" 
d="M157 -204h66v391q109 53 123 183q5 52 13 145h-71q0 -4 -1 -7q0 -3 -0.5 -8t-0.5 -6q-8 -69 -11 -108q-3 -48 -16 -82q-14 -27 -53 -57l-107 268h-72l108 -267q5 -10 13 -31t9 -23v-398z" />
    <glyph glyph-name="afii57686" unicode="&#x5e6;" horiz-adv-x="421" 
d="M361 515h-70q0 -14 -1 -21q-2 -16 -2 -24q0 -3 -0.5 -9t-0.5 -9q0 -13 -1 -19q0 -61 -14 -92q-14 -29 -50 -64l-122 238h-76q9 -18 27 -50l178 -335q14 -25 21 -39q14 -24 15 -27h-225v-64h303v46q-12 28 -13 30q-43 75 -81 153q54 38 74 66q19 29 25 57q9 32 9 75z" />
    <glyph glyph-name="afii57687" unicode="&#x5e7;" horiz-adv-x="480" 
d="M81 -204h65v487h-65v-487zM75 515v-65h278v-78q0 -44 -7 -63l1 1q-5 -18 -25 -53q-4 -9 -12 -19q-11 -17 -13 -19v1q-24 -42 -30 -71q-8 -35 -8 -86v-63h67v77q0 65 36 122v-1q2 6 10 18l6 9q4 6 4 7q24 38 30 72q8 27 8 87v124h-345z" />
    <glyph glyph-name="afii57688" unicode="&#x5e8;" horiz-adv-x="445" 
d="M32 510l5 -66q47 8 101 8q64 0 102 -23q36 -22 52 -65q13 -41 13 -112v-252h68v278q0 122 -51 181q-49 61 -181 61q-50 0 -109 -10z" />
    <glyph glyph-name="afii57689" unicode="&#x5e9;" horiz-adv-x="600" 
d="M123 515h-69q1 -12 1 -36q0 -7 0.5 -20t1.5 -19v-32q0 -6 0.5 -17t0.5 -16q0 -140 26 -221t77.5 -124.5t124.5 -43.5q85 0 140 44h-1q55 48 76 115q17 58 30 181q1 15 3.5 49.5t3.5 51.5q1 10 6 88h-67q-5 -44 -9 -113q-2 -17 -4 -53q-1 -9 -2.5 -28t-2.5 -28
q-3 -87 -24 -133q-19 -50 -56 -80q-39 -29 -88 -29q-54 0 -95 33q-36 33 -51 101q116 14 151 65q17 23 20 43q3 7 7 42q0 8 2 20q2 28 3 40q0 15 2 41q1 5 1.5 18t0.5 19q2 30 2 42h-68q-2 -18 -2 -33q-2 -28 -3 -40l-3 -64q0 -78 -38 -106q-38 -25 -87 -28q-8 109 -8 191
q-2 56 -2 80z" />
    <glyph glyph-name="afii57690" unicode="&#x5ea;" horiz-adv-x="556" 
d="M45 505zM41 67l-9 -57q34 -14 69 -14q49 0 68 16q23 16 30 39q8 34 8 74v328l43 2q76 0 111 -23q36 -23 45 -63q10 -33 10 -117v-252h67v278q0 94 -25 152q-28 53 -78 70q-49 20 -151 20q-97 0 -184 -15q1 -3 1 -8q1 -4 1 -11q3 -14 5 -43q52 7 88 8v-313
q0 -45 -12.5 -62t-44.5 -17q-15 0 -42 8z" />
    <glyph glyph-name="afii57716" unicode="&#x5f0;" horiz-adv-x="433" 
d="M355 515h-69v-515h69v515zM148 515h-71v-515h71v515z" />
    <glyph glyph-name="afii57717" unicode="&#x5f1;" horiz-adv-x="433" 
d="M148 515h-71v-260h71v260zM355 515h-69v-515h69v515z" />
    <glyph glyph-name="afii57718" unicode="&#x5f2;" horiz-adv-x="433" 
d="M355 515h-69v-260h69v260zM148 515h-71v-260h71v260z" />
    <glyph glyph-name="uni05F3" unicode="&#x5f3;" horiz-adv-x="220" 
d="M54 338h41q4 11 14 35q2 5 6.5 17.5t6.5 18.5q8 17 37 94l4 12h-70q-1 -7 -7 -37t-10 -42q-8 -29 -17 -80q-4 -14 -5 -18z" />
    <glyph glyph-name="uni05F4" unicode="&#x5f4;" horiz-adv-x="369" 
d="M53 338h40q8 22 12 34q6 14 22 56q3 6 7 16q5 13 13.5 37.5t12.5 33.5h-70q-9 -54 -15 -75q-2 -9 -6 -29q-8 -35 -16 -73zM207 338h39q8 20 31 79q2 6 4 10v-1l12 33q20 52 21 56h-70q-5 -26 -11 -49q-4 -18 -5 -26q-7 -30 -19 -89q-1 -3 -1 -6.5t-1 -6.5z" />
    <glyph glyph-name="uni10A0" unicode="&#x10a0;" horiz-adv-x="483" 
d="M437 309q0 -61 -9 -112.5t-30 -97.5t-60 -72.5t-93 -26.5q-58 0 -99 25t-62 68.5t-30 90.5t-9 102q0 21 13.5 56t27.5 54q2 0 5.5 0.5t5.5 1.5q5 0 13 2q1 -1 13 -6q2 -1 5.5 -3t5.5 -3q2 -8 2 -9v-3q1 -2 1 -3q-24 -37 -24 -86q0 -39 1.5 -64t8.5 -59.5t20 -54.5t39 -35
t63 -15q30 0 51 8t34.5 27t21 37t11 53t4 58t0.5 68q0 52 -11.5 98t-35.5 86t-42.5 64t-49.5 59q-81 89 -86 152l2 1l3 3q2 1 4.5 3.5t4.5 3.5h40l1 -1q1 -1 6.5 -5t7.5 -6q2 -25 16 -53.5t28.5 -47.5t42.5 -52v1q30 -36 49 -61t42.5 -65.5t35.5 -86t12 -94.5z" />
    <glyph glyph-name="uni10A1" unicode="&#x10a1;" horiz-adv-x="492" 
d="M375 292q0 -99 -33.5 -166t-94.5 -67t-95 67.5t-34 165.5q0 101 34.5 163t101.5 62q60 0 90.5 -61t30.5 -164zM447 292q0 104 -41.5 172t-113.5 89l4 67q3 37 -22.5 74.5t-59.5 47.5h1q-4 2 -6 2l-7 2q-31 9 -38 18q-3 6 -6 14h-81q2 -22 18 -36.5t32 -20t44 -12.5
q30 -6 50 -33t20 -56v-12q0 -18 -6 -30q-4 -8 -10 -25q-89 -15 -134.5 -82t-45.5 -179q0 -123 54.5 -207.5t147.5 -84.5q92 0 146 84.5t54 207.5z" />
    <glyph glyph-name="uni10A2" unicode="&#x10a2;" horiz-adv-x="518" 
d="M401 251q0 -86 -35 -143.5t-107 -57.5q-70 0 -106.5 58.5t-36.5 138.5q0 86 36.5 141t109.5 55q65 0 102 -58.5t37 -133.5zM473 251q0 75 -56 145t-138 98q59 40 90 76t31 58q0 155 -155 155q-68 0 -114 -35.5t-46 -108.5q0 -35 25 -68q2 1 3.5 2.5t2.5 1.5l43 22
q-10 20 -10 53q0 46 23.5 64.5t68.5 18.5q87 0 87 -103q0 -35 -38 -82.5t-76 -53.5h1q-77 -21 -123.5 -95t-46.5 -154q0 -101 57.5 -173t158.5 -72q102 0 157 73t55 178z" />
    <glyph glyph-name="uni10A3" unicode="&#x10a3;" horiz-adv-x="761" 
d="M650 462q0 -96 -36 -165t-96 -69q-45 0 -77.5 43.5t-45.5 92.5t-13 88q0 73 12 132.5t43.5 103t80.5 43.5q39 0 66.5 -24.5t41 -67t19 -85.5t5.5 -92zM722 462q0 135 -55.5 227t-148.5 92q-80 0 -156 -85q-21 38 -59 62t-74 24q-55 0 -102 -45t-72.5 -112.5t-25.5 -137.5
q0 -223 190 -409q-46 -3 -97 -21q1 -3 4 -15q2 -5 4 -10.5t4.5 -13l4.5 -13.5q69 42 115 39q32 -2 100 -15q134 -26 212 -28v58h-10q-33 0 -57 1t-62.5 5.5t-68 12t-66 23t-63 36.5t-54 54t-44.5 74t-28 98t-11 124q0 93 35 168.5t92 75.5q28 0 65 -25t49 -56
q-34 -102 -34 -198q0 -102 61.5 -188.5t147.5 -86.5t145 84t59 201z" />
    </font>
</defs>
</svg>
